#TITLE:Text Me Too Much;
#SUBTITLE:(The Disko Warp Speed-Dial Remix);
#ARTIST:Lucky Princess;
#TITLETRANSLIT:;
#SUBTITLETRANSLIT:;
#ARTISTTRANSLIT:;
#GENRE:Eurobeat;
#CREDIT:;
#BANNER:textmetoomuchremix-bn.png;
#BACKGROUND:textmetoomuchremix-bg.png;
#LYRICSPATH:;
#CDTITLE:;
#MUSIC:Text Me Too Much (The Disko Warp Speed-Dial Mix).ogg;
#OFFSET:-0.020000;
#SAMPLESTART:32.380009;
#SAMPLELENGTH:12.000000;
#SELECTABLE:YES;
#BPMS:0.000000=175.000000
;
#STOPS:
;
#BGCHANGES:;
#KEYSOUNDS:;
#ATTACKS:;

//---------------dance-single - ----------------
#NOTES:
     dance-single:
     :
     Challenge:
     9:
     0.618775,0.666490,0.030503,0.142347,0.381287,426.000000,423.000000,3.000000,14.000000,0.000000,0.000000,0.618775,0.666490,0.030503,0.142347,0.381287,426.000000,423.000000,3.000000,14.000000,0.000000,0.000000:
// measure 0
0000
0000
0000
0000
,  // measure 1
0000
0000
0000
0000
,  // measure 2
0000
0000
0000
0000
,  // measure 3
0000
0000
0000
0000
,  // measure 4
0001
0000
0100
0010
0100
0000
0010
0000
0000
1000
0000
0000
0001
0000
1000
0000
,  // measure 5
0010
0000
0200
0000
0000
0000
0000
0000
0301
0000
0010
0000
0100
0000
1000
0100
,  // measure 6
1000
0000
0100
0000
0010
0001
0010
0000
0001
0000
0000
1000
0000
0000
0001
0000
,  // measure 7
0200
0000
0000
0000
0301
0100
0001
0100
,  // measure 8
0001
0000
0010
0001
0000
0000
0001
0000
1000
0000
0000
0001
0000
0000
1000
0000
,  // measure 9
0100
1000
0000
0010
0100
0001
1000
0000
,  // measure 10
1000
0000
0010
1000
0000
0000
1000
0000
0001
0000
0000
1000
0000
0000
0001
0000
,  // measure 11
0010
0000
0000
0100
0000
0000
0010
0000
0001
0000
1000
0000
0010
0000
0000
0000
,  // measure 12
0100
0000
0000
0010
0000
0000
1000
0000
0001
0000
0000
0100
0000
0000
0001
0000
,  // measure 13
0010
0100
0000
1000
0010
0100
0001
0010
,  // measure 14
0100
0000
0000
1000
0000
0000
0010
0000
0100
0000
0000
0001
0000
0000
0010
0000
,  // measure 15
1000
0000
0000
0010
0000
0000
0002
0000
2000
0000
0000
0000
0000
0000
3003
0000
,  // measure 16
0100
0000
0000
0001
0000
0000
0010
0000
0100
0000
1000
0000
0001
0000
0100
0000
,  // measure 17
0010
0000
0000
1000
0000
0000
0001
0000
0010
0000
0100
0000
1000
0000
0001
0000
,  // measure 18
1000
0100
0010
0001
1000
0010
0100
0010
,  // measure 19
1000
0000
0001
0000
0000
0100
0000
0000
0010
0000
0000
1000
0000
0000
0001
0000
,  // measure 20
0100
0000
0000
0010
0000
0000
1000
0000
0000
0000
0001
0000
0000
0100
0000
0000
,  // measure 21
0010
0000
0000
0010
0000
0000
0010
0000
1000
0000
0001
0000
0100
0000
0000
0000
,  // measure 22
0001
0000
0000
1000
0000
0000
0001
0000
0100
0000
0000
0010
0000
0000
0100
0000
,  // measure 23
0001
0000
0000
1000
0000
0000
2002
0000
0000
0000
0000
0000
3003
0000
0000
0000
,  // measure 24
0001
0000
0000
0000
0100
0000
0000
0000
1000
0000
0000
0100
0000
0000
0000
0000
,  // measure 25
0001
0000
0000
0100
0000
0000
1000
0000
0100
0000
0001
0000
1000
0000
0010
0000
,  // measure 26
0100
0000
0000
0001
0000
0000
1000
0000
0010
0000
0000
0100
0000
0000
0010
0000
,  // measure 27
1000
0000
0000
0001
0000
0000
0100
0000
0010
0000
1000
0000
0001
0000
1000
0000
,  // measure 28
0001
0000
0000
0010
0000
0000
0000
0000
1000
0000
0000
0100
0000
0000
0000
0000
,  // measure 29
1000
0000
0000
0010
0000
0000
0000
0000
0001
0000
0000
0100
0000
0000
0000
0000
,  // measure 30
0001
1000
0010
0100
0010
1000
0001
0010
,  // measure 31
0100
0100
1000
0010
0100
0100
0001
0000
,  // measure 32
1000
0000
0010
0100
0010
0000
0100
0000
0000
0001
0000
0000
1000
0000
0001
0000
,  // measure 33
0100
0000
0020
0000
0000
0000
0000
0000
1030
0000
0100
0000
0010
0000
0001
0010
,  // measure 34
0001
0000
0010
0000
0100
1000
0100
0000
1000
0000
0000
0001
0000
0000
1000
0000
,  // measure 35
0001
0100
0010
1000
0010
0100
0001
0000
,  // measure 36
0001
0000
0100
0010
0100
0000
0010
0000
0000
1000
0000
0000
0001
0000
1000
0000
,  // measure 37
0010
0000
0200
0000
0000
0000
0000
0000
0301
0000
0010
0000
0100
0000
1000
0100
,  // measure 38
1000
0000
0100
0000
0010
0001
0010
0000
0001
0000
0000
1000
0000
0000
0001
0000
,  // measure 39
0100
0001
1000
0010
1000
0100
0010
0001
,  // measure 40
1000
0100
0000
1000
0000
0010
0000
0100
,  // measure 41
0000
0001
0000
0010
0100
0100
0000
0010
,  // measure 42
0001
0100
0000
0010
0000
1000
0000
0001
,  // measure 43
0100
0010
0000
0100
0010
1000
0001
1000
,  // measure 44
0001
0000
0000
0010
0000
0000
0100
0000
1000
0000
0001
0000
0010
0000
0100
0000
,  // measure 45
1000
0000
0000
0100
0000
0000
0010
0000
0001
0000
1000
0000
0100
0000
0010
0000
,  // measure 46
0001
1000
0010
1000
0001
0100
0010
0100
,  // measure 47
0001
0000
1000
0000
0000
0010
0000
0000
0100
0000
0000
0001
0000
0000
1000
0000
,  // measure 48
0001
0000
0000
0100
0000
0000
0010
0000
1000
0000
0010
0000
0100
0000
0001
0000
,  // measure 49
1000
0000
0000
0010
0000
0000
0100
0000
0001
0000
0100
0000
0010
0000
1000
0000
,  // measure 50
0001
0000
0000
1000
0000
0000
0001
0000
0100
0000
0000
0010
0000
0000
0100
0000
,  // measure 51
0001
0000
0000
1000
0000
0000
2002
0000
0000
0000
0000
0000
3003
0000
0000
0000
,  // measure 52
0010
0000
0000
0100
0000
0000
0220
0000
0000
0000
0000
0000
0330
0000
0000
0000
,  // measure 53
0001
0000
0000
0000
0100
0000
0000
0000
1000
0000
0000
0100
0000
0000
0000
0000
,  // measure 54
0001
0000
0000
0100
0000
0000
1000
0000
0100
0000
0001
0000
1000
0000
0010
0000
,  // measure 55
0100
0000
0000
0010
0000
0000
1000
0000
0001
0000
0000
0100
0000
0000
0001
0000
,  // measure 56
0010
0000
0000
0100
0000
0000
1000
0000
0010
0000
0100
0000
0010
0000
1000
0000
,  // measure 57
0001
0000
0000
0100
0000
0000
0000
0000
1000
0000
0000
0010
0000
0000
0000
0000
,  // measure 58
1000
0000
0000
0100
0000
0000
0000
0000
0001
0000
0000
0010
0000
0000
0000
0000
,  // measure 59
0001
0100
0010
1000
0001
0100
0010
0100
,  // measure 60
0010
0010
1000
0001
0010
0010
0001
0000
,  // measure 61
1000
0000
0010
0100
0010
0000
0100
0001
0000
0100
0001
0000
1000
0000
0001
0000
,  // measure 62
0100
0000
0020
0000
0000
0000
0000
0000
1030
0000
0100
0000
0010
0000
0001
0010
,  // measure 63
0001
0000
0010
0000
0100
1000
0100
0000
1000
0000
0000
0001
0000
0000
1000
0000
,  // measure 64
0010
0100
0010
1000
0001
0100
0001
0010
,  // measure 65
0001
0000
0100
0010
0100
0000
0010
1000
0000
0010
1000
0000
0001
0000
1000
0000
,  // measure 66
0010
0000
0200
0000
0000
0000
0000
0000
0301
0000
0010
0000
0100
0000
1000
0100
,  // measure 67
1000
0000
0100
0000
0010
0001
0010
0000
0001
0000
0000
1000
0000
0000
0001
0000
,  // measure 68
1000
0010
0100
0001
0010
0001
0100
0010
,  // measure 69
1000
0000
0000
0000
;
