#TITLE:Strobe;
#SUBTITLE:;
#ARTIST:deadmau5;
#TITLETRANSLIT:;
#SUBTITLETRANSLIT:;
#ARTISTTRANSLIT:;
#GENRE:;
#CREDIT:;
#BANNER:Strobe-bn.png;
#BACKGROUND:Strobe-bg.png;
#LYRICSPATH:;
#CDTITLE:;
#MUSIC:Strobe.ogg;
#OFFSET:-0.020000;
#SAMPLESTART:59.989998;
#SAMPLELENGTH:12.000000;
#SELECTABLE:YES;
#BPMS:0.000000=128.000000
;
#STOPS:
;
#BGCHANGES:0.000=-random-=1.000=0=0=1=====,
232.000=Strobe-bg.png=1.000=1=0=1===CrossFade==,
99999=-nosongbg-=1.000=0=0=0 // don't automatically add -songbackground-
;
#KEYSOUNDS:;
#ATTACKS:;

//---------------dance-single - ----------------
#NOTES:
     dance-single:
     :
     Hard:
     9:
     0.646042,0.590466,0.118488,0.118488,0.868913,458.000000,446.000000,12.000000,12.000000,0.000000,0.000000,0.646042,0.590466,0.118488,0.118488,0.868913,458.000000,446.000000,12.000000,12.000000,0.000000,0.000000:
0000
0000
0000
0000
,
0000
0000
0000
0000
,
0002
0100
0103
1000
0001
0000
0101
0000
,
2000
0100
3100
0001
1000
0000
1001
0000
,
0010
0000
1000
0100
0000
0100
1000
0000
0100
0000
0100
0000
1100
0000
0000
0000
,
0001
0000
1000
0001
0000
0001
1000
0000
0001
0000
0001
0000
0101
0000
0000
0000
,
0010
0000
1000
0010
0000
0010
1000
0000
0010
0000
0010
0000
1010
0000
0000
0000
,
0100
0000
0001
0100
0000
0100
0001
0000
0100
0000
0100
0000
0101
0000
0000
0000
,
0100
0000
0100
0001
0000
0001
0100
0000
1000
0000
0100
1000
0000
1000
0100
0000
,
0001
0000
0100
0001
0000
0001
0100
0000
1000
0000
0100
1000
0000
1000
0100
0000
,
0010
0000
0000
1000
0000
0000
0010
0000
0000
0100
0000
0000
0010
0000
1000
0000
,
0100
0000
1000
0001
0000
0001
1000
0000
0100
0000
1000
0001
0000
0001
1000
0000
,
0001
0000
0100
0000
0001
0100
0000
0001
0100
0000
0010
0000
0100
0010
0000
0100
,
0010
0000
1000
0000
0010
1000
0000
0010
1000
0000
0100
0000
1000
0100
0000
1000
,
0100
0000
1000
0000
0001
0100
0000
0001
0100
0000
0010
0000
1000
0001
0000
1000
,
0001
0000
0100
0000
0010
1000
0000
0010
1000
0000
0100
0000
1000
0001
0000
0100
,
0010
0000
1000
0000
0010
0000
0100
0000
0010
0000
1000
0000
0001
0000
0100
0001
,
0000
0001
0100
0000
0010
1000
0000
1000
0010
0000
0100
0010
0000
0010
0100
0000
,
0001
0000
0100
0000
0010
0000
1000
0000
0010
0000
0100
0000
0001
0000
0001
1000
,
0000
1000
0010
0000
0001
0100
0000
0100
0010
0000
1000
0010
0000
0100
0010
0000
,
0100
0000
0001
0000
1000
0000
0100
0000
0010
0000
0001
0000
0010
0000
0100
1000
,
0000
0001
1000
0000
0010
0100
0000
0100
0001
0000
1000
0010
0000
0010
0100
0000
,
0001
0000
1000
0000
0010
0000
0100
0000
0010
0000
1000
0000
0001
0000
0100
0010
,
0000
0010
1000
0000
0100
1000
0000
1000
0001
0000
0100
0001
0000
0001
0010
0000
,
0200
0000
0000
0010
0000
0000
0010
0000
0000
0010
0000
0000
0310
0000
0001
1000
,
0000
0001
1000
0000
0001
1000
0000
0001
1000
0000
0001
1000
0000
0001
1000
0000
,
0020
0000
0000
0100
0000
0000
0100
0000
0000
0100
0000
0000
0130
0000
0010
0100
,
0000
0010
0100
0000
0010
0100
0000
0010
0100
0000
0010
0100
0000
0010
0100
0000
,
0001
0100
0000
0010
1000
0000
0100
0010
0000
0001
1000
0000
0010
0100
0000
0010
,
1000
0000
0001
1000
0000
0010
0100
0000
0010
1000
0000
0100
0010
0000
0001
0100
,
0000
0010
1000
0000
0100
0010
0000
0100
1000
0000
0010
0100
0000
0010
0100
0000
,
0010
1000
0000
0100
0010
0000
0001
1000
0000
0001
1000
0000
1001
0000
0000
0000
,
1000
0000
0100
1000
0000
0100
1000
0000
0001
0100
0000
0001
0100
0000
0100
0001
,
0000
0001
0200
0000
0000
0000
0000
0000
0310
0000
0000
1000
0000
0000
0010
0000
,
0100
0000
0010
0100
0000
0010
0100
0000
0001
1000
0000
0001
1000
0000
0010
1000
,
0000
1000
0020
0000
0000
0000
0000
0000
0130
0000
0000
0001
0000
0000
0100
0000
,
0001
0000
0100
0001
0000
0100
0001
0000
0100
0010
0000
0100
0010
0000
0100
0001
,
0000
0001
0200
0000
0000
0000
0000
0000
0301
0000
0000
0100
0000
0000
0010
0000
,
1001
0000
0000
1100
0000
0000
1001
0000
0000
0011
0000
0000
0001
0000
0100
0010
,
0000
0010
0200
0000
0000
0000
0300
0000
0100
0000
0000
0010
0000
0000
1000
0000
,
0100
0000
1000
0100
0000
1000
0100
0000
1000
0100
0000
1000
0100
0000
1000
0001
,
0000
0001
2000
0000
0000
0000
0000
0000
3001
0000
0100
0001
0000
0100
0001
0000
,
0010
0000
0001
0010
0000
0001
0010
0000
0001
0010
0000
0001
0010
0000
0001
1000
,
0000
1000
0002
0000
0000
0000
0000
0000
0103
0000
0010
0100
0000
0010
0100
0000
,
0001
0000
1000
0001
0000
1000
0001
0000
1000
0001
0000
1000
0001
0000
0010
0100
,
0000
0100
0020
0000
0000
0000
0030
0000
0100
0000
0001
0100
0000
0001
0100
0000
,
0001
0000
0010
0100
0000
0010
0100
0000
0010
0100
0000
0010
0100
0000
1000
0001
,
0000
0001
2000
0000
0000
0000
3000
0000
0100
0000
0010
0001
0000
1000
0010
0000
,
1000
0000
0100
1000
0000
0100
1000
0000
0001
0100
0000
0001
0100
0000
0010
0100
,
0000
0010
0100
0000
0010
1000
0000
0010
1000
0000
0001
1000
0000
0001
1000
0000
,
0001
0000
0100
0001
0000
0010
0001
0000
1000
0010
0000
1000
0100
0000
1000
0010
,
0000
0100
0001
0000
0100
0010
0000
0100
0001
0000
1000
0010
0000
0100
0010
0000
,
0110
0000
0000
0000
;

//---------------dance-single - ----------------
#NOTES:
     dance-single:
     :
     Medium:
     7:
     0.399192,0.410759,0.098740,0.039496,0.098740,283.000000,273.000000,10.000000,4.000000,0.000000,0.000000,0.399192,0.410759,0.098740,0.039496,0.098740,283.000000,273.000000,10.000000,4.000000,0.000000,0.000000:
0000
0000
0000
0000
,
0000
0000
0000
0000
,
0010
0000
0100
0000
0010
0100
0100
0000
,
0001
0000
0100
0000
0010
1000
1000
0000
,
1001
0000
1001
0000
0010
0100
0010
0000
,
0110
0000
0110
0000
1000
0001
0100
0000
,
0011
0000
0011
0000
0010
0001
1000
0000
,
1100
0000
1100
0000
1000
0100
1000
0100
,
0010
0001
0000
0001
0100
0000
0100
0010
,
0000
0010
1000
0000
1000
0100
0000
0100
,
0020
0000
0032
0000
2003
0000
3100
1000
,
0000
1000
0100
0000
0001
0100
0000
0100
,
0001
0100
1000
0100
,
1000
0100
0001
0100
,
0001
0100
1000
0100
,
1000
0100
0001
0100
,
0001
1000
0010
0000
1000
0000
0010
1000
,
0001
0100
0010
1000
,
0100
1000
0010
0000
0100
0000
0001
0000
,
0010
0000
0100
1000
0010
0000
1000
0000
,
1000
0100
1000
0000
0001
0010
0100
0000
,
0010
0000
0001
0000
0100
0000
0010
1000
,
0001
0000
1100
0000
0010
0000
0100
0001
,
0100
0001
0100
0000
0010
0000
1000
0000
,
0100
0000
0000
1000
0000
0000
0100
0000
0000
1000
0000
0000
0100
0000
0000
0000
,
1000
0001
1000
0000
0001
1000
0001
1000
,
0001
0000
0000
0100
0000
0000
0001
0000
0000
0100
0000
0000
0001
0000
0000
0000
,
0100
0010
0100
0000
0010
0100
0010
0000
,
1001
0000
0100
0010
0100
0010
0100
0000
,
1000
0001
1000
0001
1000
0001
1000
0000
,
0100
0010
0100
0010
0100
0010
0100
0000
,
1000
0001
0100
0010
1000
0001
1000
0000
,
0010
0000
0000
0100
0000
0000
0010
0000
0000
0100
0000
0000
0010
0000
0000
0000
,
1000
0100
0010
0000
0010
0100
1000
0000
,
0001
0000
0000
1000
0000
0000
0001
0000
0000
1000
0000
0000
0001
0000
0000
0000
,
0100
0001
0010
0000
0010
0001
0100
0000
,
0010
0000
0000
1000
0000
0000
0010
0000
0000
1000
0000
0000
0010
0000
0000
0000
,
1000
0001
0100
0000
0100
0001
1000
0000
,
0001
0000
0000
0100
0000
0000
0001
0000
0000
0100
0000
0000
0001
0000
0000
0000
,
0010
1000
0001
0000
0001
1000
0010
0000
,
1000
0000
0000
0100
0000
0000
0010
0000
0000
0100
0000
0000
1000
0000
0000
0000
,
0001
0010
0100
0000
0100
0010
0001
0010
,
0100
0000
0000
0001
0000
0000
0010
0000
0000
0001
0000
0000
0100
0000
0000
0000
,
0010
1000
0100
0000
0100
1000
0010
1000
,
0100
0000
0000
1000
0000
0000
0001
0000
0000
0010
0000
0000
0100
0000
0000
0000
,
0010
1000
0001
0000
0100
0010
1000
0001
,
0100
0000
0000
0001
0000
0000
1000
0000
0000
0010
0000
0000
0100
0000
0000
0000
,
0001
0010
0100
0000
0010
0100
1000
0000
,
0200
0000
1300
0000
0010
0100
0010
0100
,
0000
0100
0000
0001
0000
1000
0010
0000
,
0100
0010
0100
0010
0000
0010
0000
1000
,
0000
0100
0010
0000
0001
1000
0010
0100
,
0010
0000
0000
0000
;

//---------------dance-single - ----------------
#NOTES:
     dance-single:
     :
     Easy:
     4:
     0.236976,0.256724,0.039496,0.276472,0.000000,168.000000,164.000000,4.000000,28.000000,0.000000,0.000000,0.236976,0.256724,0.039496,0.276472,0.000000,168.000000,164.000000,4.000000,28.000000,0.000000,0.000000:
0000
0000
0000
0000
,
0000
0000
0000
0000
,
0020
0130
0200
0300
,
0002
1003
2000
3010
,
0200
0010
0000
0310
,
2000
0001
0000
3001
,
0020
0100
0000
0130
,
0002
1000
0000
1003
,
0100
1000
1000
0100
,
1000
0001
0001
1000
,
0001
0100
1000
0100
,
0001
1000
1000
0001
,
2002
0000
0000
0000
,
0000
0000
0000
0000
,
0000
0000
0000
0000
,
0000
0000
0000
0000
0000
0000
0000
3003
,
0100
0001
0100
1000
,
0100
0010
0100
1000
,
0010
1000
0010
0001
,
0010
0100
0010
0001
,
0010
0100
1000
0100
,
0001
0010
0100
0001
,
1000
0010
0100
1000
,
0100
0001
0100
0010
,
0020
0000
0000
0100
0000
0000
0130
0000
,
0000
0000
0000
0000
0000
0000
0000
0001
,
2000
0000
0000
0001
0000
0000
3001
0000
,
0000
0000
0000
0000
,
0110
0100
0100
0100
,
0100
0100
0100
0100
,
0100
0100
0100
0100
,
0100
0100
0100
1001
,
2000
0000
0000
0010
0000
0000
3010
0000
,
0100
0020
0000
0000
0100
0000
0130
0000
,
0002
0000
0000
0100
0000
0000
0103
0000
,
0010
0200
0000
0000
0010
0000
0310
0000
,
0020
0000
0000
1000
0000
0000
1030
0000
,
0001
2000
0000
0000
0001
0000
3001
0000
,
0200
0000
0000
0001
0000
0000
0301
0000
,
1000
0002
0000
0000
1000
0000
1003
0000
,
0020
0000
0000
0100
0000
0000
0031
0000
,
0100
0020
0000
0000
0100
0000
1030
0000
,
0200
0000
0000
0010
0000
0000
1300
0000
,
0010
0200
0000
0000
0010
0000
0301
0000
,
2000
0000
0000
0001
0000
0000
3010
0000
,
0001
2000
0000
0000
0010
0000
3100
0000
,
0002
0000
0000
1000
0000
0000
0013
0000
,
1000
0002
0000
0000
0100
0000
0013
0000
,
1000
1000
0100
0100
,
0001
0001
0010
0010
,
1000
0100
0010
0001
,
0100
0010
1000
0001
,
0110
0000
0000
0000
;

//---------------dance-single - ----------------
#NOTES:
     dance-single:
     :
     Beginner:
     1:
     0.084634,0.128362,0.029622,0.000000,0.000000,60.000000,57.000000,3.000000,0.000000,0.000000,0.000000,0.084634,0.128362,0.029622,0.000000,0.000000,60.000000,57.000000,3.000000,0.000000,0.000000,0.000000:
0000
0000
0000
0000
,
0000
0000
0000
0000
,
0010
0000
0000
0000
,
0010
0000
0000
0000
,
1000
1000
0000
0000
,
0001
0001
0000
0000
,
1000
1000
0000
0000
,
0001
0001
0000
0000
,
0100
0000
0001
0000
,
0100
0000
0001
0000
,
0100
0000
0000
0000
,
0010
0000
1000
0000
,
0010
0000
0000
0000
,
0000
0000
0000
0000
,
0000
0000
0000
0000
,
0000
0000
0000
0000
,
0100
0000
0000
0001
,
0000
0000
0000
1000
,
1000
0000
0000
0000
,
0010
0000
0000
0000
,
0100
0000
0000
0001
,
0000
0000
0000
0000
,
0100
0000
0000
0010
,
0000
0000
0000
0000
,
1001
0000
0000
0000
,
0000
0000
0000
0000
,
0110
0000
0000
0000
,
0000
0000
0000
0000
,
1000
0000
0001
0000
,
0100
0000
0010
0000
,
1000
0000
0001
0000
,
0100
0000
0000
0100
,
0100
0000
0000
0000
,
0000
0000
0000
0000
,
0010
0010
0000
0000
,
0000
0000
0000
0000
,
1000
1000
0000
0000
,
0000
0000
0000
0000
,
0001
0001
0000
0000
,
0000
0000
0000
0000
,
0010
0010
0000
0000
,
0000
0000
0000
0000
,
0001
0001
0000
0000
,
0000
0000
0000
0000
,
0100
0100
0000
0000
,
0000
0000
0000
0000
,
0010
0010
0000
0000
,
0000
0000
0000
0000
,
1000
0000
0000
0000
,
0100
0000
0000
0000
,
0001
0000
0000
0000
,
0010
0000
0000
0000
,
0110
0000
0000
0000
;

//---------------dance-double - ----------------
#NOTES:
     dance-double:
     :
     Easy:
     4:
     0.280704,0.282397,0.059244,0.157984,0.000000,199.000000,193.000000,6.000000,16.000000,0.000000,0.000000,0.280704,0.282397,0.059244,0.157984,0.000000,199.000000,193.000000,6.000000,16.000000,0.000000,0.000000:
00000000
00000000
00000000
00000000
,
00000000
00000000
00000000
00000000
,
10000000
01000000
10000000
01000000
,
00010000
01000000
00010000
01000000
,
00010000
00010000
00001000
00000100
,
00000001
00000001
00000010
00001000
,
00010000
00010000
00100000
10000000
,
01000000
01000000
00010000
00001000
,
00000020
00000000
00000001
00000031
,
00000200
00000000
00001000
00001300
,
00010000
00100000
10000000
00010000
,
00100000
00001000
00010000
00001000
,
00010000
00010000
00001000
00010000
,
00010000
00010000
00001000
00010000
,
00010000
00010000
00001000
00010000
,
00010000
00010000
00001000
00010000
,
00000100
00001000
00010000
00001000
,
00000100
00000100
00000100
00000100
,
00000001
00000010
00000100
00010000
,
00001000
00001000
00001000
00001000
,
00010000
00100000
10000000
00100000
,
00010000
00010000
00010000
00010000
,
01000000
00001000
00010000
00001000
,
00010000
00010000
00010000
00010000
,
00000020
00000000
00000000
00000100
00000000
00000000
00000130
00000000
,
00010000
00001000
00010000
00001000
,
02000000
00000000
00000000
00010000
00000000
00000000
03010000
00000000
,
00001000
00001000
00001000
00001000
,
00010000
00001000
00010000
00001000
,
00010000
00001000
00010000
00001000
,
00010000
00001000
00010000
00001000
,
00010000
00001000
00010000
00011000
,
00000020
00000000
00000000
00000100
00000000
00000000
00000031
00000000
,
00000100
00002000
00010000
00013000
,
02000000
00000000
00000000
10000000
00000000
00000000
13000000
00000000
,
00100000
00020000
00001000
00031000
,
00000020
00000000
00000000
00000001
00000000
00000000
00000031
00000000
,
00000010
00002000
00010000
00013000
,
02000000
00000000
00000000
00100000
00000000
00000000
03100000
00000000
,
10000000
00020000
00100000
00130000
,
00001000
00010000
00001000
00011000
,
00010000
00000200
00001000
00001300
,
00000010
00000100
00000010
00000110
,
00000100
00000002
00001000
00001003
,
00000100
00010000
00000100
00010100
,
00010000
00002000
00100000
00103000
,
00010000
01000000
00010000
01010000
,
00010000
20000000
00100000
30100000
,
01000000
00010000
00001000
00000010
,
00000100
00001000
01000000
00010000
,
00001000
00000010
00000001
00000010
,
00010000
00001000
00100000
00001000
,
00011000
00000000
00000000
00000000
;

//---------------dance-double - ----------------
#NOTES:
     dance-double:
     :
     Medium:
     7:
     0.383676,0.410759,0.187606,0.078992,0.059244,272.000000,253.000000,19.000000,8.000000,0.000000,0.000000,0.383676,0.410759,0.187606,0.078992,0.059244,272.000000,253.000000,19.000000,8.000000,0.000000,0.000000:
00000000
00000000
00000000
00000000
,
00000000
00000000
00000000
00000000
,
00001000
00000000
00010000
00000000
00001000
00001000
00001000
00000000
,
00010000
00000000
00001000
00000000
00010000
00010000
00010000
00000000
,
00000100
00001000
00000110
00000001
,
00001000
00000100
00011000
00010000
,
00001000
01000000
01010000
00100000
,
10000000
01000000
01100000
00010000
,
00001000
00000100
00000010
00000000
00000001
00000000
00001000
00000000
,
00000100
00001000
00010000
00000000
00001000
00000000
00000100
00000000
,
00020000
00032000
00203000
00320000
,
01030000
00100000
00010000
00000000
00001000
00000000
01000000
00000000
,
00001000
00010000
00001000
00010000
,
00001000
00010000
00001000
00010000
,
00001000
00010000
00001000
00010000
,
00001000
00010000
00001000
00010000
,
00001000
00000100
00000001
00000000
00001000
00000000
00000100
00001000
,
00010000
01000000
00100000
10000000
,
01000000
00100000
00001000
00000000
00010000
00001000
00000100
00000000
,
00000010
00010000
00001000
00010000
,
00000100
00010000
00001000
00000000
00100000
00010000
00001000
00000000
,
00000010
00010000
00001000
00100000
,
00010000
01000000
00100000
00000000
10000000
01000000
00010000
00000000
,
00001000
00000010
00000001
00001000
,
00000100
00000000
00000000
00000100
00000000
00000000
00010000
00000000
00000000
00010000
00000000
00000000
00001000
00000000
00000000
00000000
,
00010000
00000010
00010000
00000000
00010000
00000010
00010000
00000000
,
00001000
00000000
00000000
00001000
00000000
00000000
01000000
00000000
00000000
01000000
00000000
00000000
00100000
00000000
00000000
00000000
,
01000000
00100000
01000000
00000000
01000000
00100000
01000000
00000000
,
00001000
00010000
00001000
00000000
00001000
00100000
00001000
00000000
,
00010000
00001000
00010000
00000000
00010000
00000100
00010000
00000000
,
00001000
00010000
00001000
00000000
00001000
00100000
00001000
00000000
,
00010000
00001000
00010000
00000000
00001000
00010000
00011000
00000000
,
00000100
00000000
00000000
00000100
00000000
00000000
00000010
00000000
00000000
00000010
00000000
00000000
00000002
00000000
00000000
00000000
,
00001000
00000100
00001000
00000103
,
00001000
00000000
00000000
00001000
00000000
00000000
00000100
00000000
00000000
00000100
00000000
00000000
00020000
00000000
00000000
00000000
,
00001000
00100000
00001000
00130000
,
00001000
00000000
00000000
00001000
00000000
00000000
00100000
00000000
00000000
00100000
00000000
00000000
00020000
00000000
00000000
00000000
,
01000000
10000000
01000000
10030000
,
10000000
00000000
00000000
10000000
00000000
00000000
01000000
00000000
00000000
01000000
00000000
00000000
00200000
00000000
00000000
00000000
,
00010000
00001000
00010000
00301000
,
00011000
00000000
00001100
00000000
00000010
00000001
00000100
00000000
,
00000010
00010000
00001000
00000000
00010000
00001000
00011000
00000000
,
00110000
00000000
11000000
00000000
01000000
00100000
00001000
00000000
,
00010000
00001000
00000100
00000000
00000010
00001000
00001010
00000000
,
00000101
00000000
00001001
00000000
00000100
00001000
00010000
00000000
,
01000000
00100000
01000000
00000000
00010000
10000000
10010000
00000000
,
01010000
00000000
00011000
00000000
00000010
00001000
00010000
00000000
,
00001000
00000100
00000010
00000000
00000100
00001000
00001100
00000000
,
00010000
00001000
00100000
00001000
00010000
00000000
00011000
00000000
,
00000100
00001000
00000100
00000000
00000100
00000001
00000100
00000000
,
00001000
00000100
00010000
00000100
00001000
00000000
00011000
00000000
,
00100000
00010000
00100000
00000000
01000000
10000000
01000000
00100000
,
00001000
00000000
00000000
00000000
;

//---------------dance-double - ----------------
#NOTES:
     dance-double:
     :
     Hard:
     9:
     0.646042,0.590466,0.039496,0.177732,0.947905,458.000000,454.000000,4.000000,18.000000,0.000000,0.000000,0.646042,0.590466,0.039496,0.177732,0.947905,458.000000,454.000000,4.000000,18.000000,0.000000,0.000000:
// measure 0
00000000
00000000
00000000
00000000
,  // measure 1
00000000
00000000
00000000
00000000
,  // measure 2
00020000
01000000
01030000
00000000
00011000
00000000
00000100
00000000
,  // measure 3
00002000
00000010
00003010
00000000
00011000
00000000
00100000
00000000
,  // measure 4
00010000
00000000
01000000
00000000
00100000
00000000
10000000
01000000
00000000
01000000
00100000
00000000
00001000
00000000
00000000
00000000
,  // measure 5
00010000
00000000
00001000
00000000
00000100
00000000
00000010
00001000
00000000
00001000
00000100
00000000
00000001
00000000
00000000
00000000
,  // measure 6
00000100
00000000
00010000
00000000
00000010
00000000
00000100
00000010
00000000
00000010
00000100
00000000
00001000
00000000
00000000
00000000
,  // measure 7
00010000
00000000
00100000
00000000
10000000
00000000
00010000
01000000
00000000
01000000
00010000
00000000
00100000
00000000
00001000
00000000
,  // measure 8
00010000
00000000
00001000
00010000
00000000
00001000
00010000
00000000
00000100
00000000
00001000
00000010
00000000
00001000
00000010
00000000
,  // measure 9
00010000
00000000
00001000
01000000
00000000
00001000
01000000
00000000
00100000
00000000
10000000
01000000
00000000
10000000
01000000
00000000
,  // measure 10
00100000
00010000
00000000
00001000
00010000
00000000
00100000
01000000
00000000
00100000
00001000
00000000
00010000
00000000
00001000
00000100
,  // measure 11
00000000
00001000
00000100
00000000
00000001
00000000
00000010
00000100
00000000
00000010
00000100
00000000
00001000
00000000
00010000
00000000
,  // measure 12
00100000
00000000
01000000
00000000
10000000
00100000
00000000
10000000
00100000
00000000
01000000
00000000
00010000
00100000
00000000
00010000
,  // measure 13
00100000
00000000
00001000
00000000
00010000
00001000
00000000
00010000
00001000
00000000
00010000
00000000
00000010
00000100
00000000
00000010
,  // measure 14
00000100
00000000
00000001
00000000
00000010
00000001
00000000
00000010
00000001
00000000
00001000
00000000
00000100
00010000
00000000
00000100
,  // measure 15
00010000
00000000
00001000
00000000
00100000
00010000
00000000
00100000
00010000
00000000
01000000
00000000
00100000
10000000
00000000
00100000
,  // measure 16
10000000
00000000
01000000
00100000
00000000
01000000
00010000
00000000
00001000
00010000
00000000
00001000
00000100
00000000
00000001
00000100
,  // measure 17
00000000
00000001
00000100
00000000
00000001
00000100
00000000
00000001
00000100
00000000
00000001
00000010
00000000
00000001
00000100
00000000
,  // measure 18
00000010
00000000
00000001
00000010
00000000
00001000
00000010
00000000
00010000
00001000
00000000
00010000
00100000
00000000
10000000
00100000
,  // measure 19
00000000
10000000
00100000
00000000
10000000
00100000
00000000
10000000
01000000
00000000
10000000
00010000
00000000
10000000
00100000
00000000
,  // measure 20
01000000
00000000
00001000
00010000
00000000
00001000
00010000
00000000
00000100
00001000
00000000
00000010
00000100
00000000
00000001
00000010
,  // measure 21
00000000
00000001
00000010
00000000
00000001
00000010
00000000
00000001
00000010
00000000
00000001
00000100
00000000
00000001
00000010
00000000
,  // measure 22
00001000
00000000
00000010
00001000
00000000
00010000
00001000
00000000
00010000
01000000
00000000
10000000
01000000
00000000
10000000
00010000
,  // measure 23
00000000
10000000
00010000
00000000
10000000
00010000
00000000
10000000
00010000
00000000
10000000
01000000
00000000
10000000
00100000
00000000
,  // measure 24
01000000
00000000
00000000
01000000
00000000
00000000
00001000
00000000
00000000
00001000
00000000
00000000
00100000
00000000
00001000
00010000
,  // measure 25
00000000
00001000
00010000
00000000
00001000
00010000
00000000
00001000
00010000
00000000
00001000
00010000
00000000
00001000
00010000
00000000
,  // measure 26
00000100
00000000
00000000
00000100
00000000
00000000
00000001
00000000
00000000
00000001
00000000
00000000
00000100
00000000
00001000
00010000
,  // measure 27
00000000
00001000
00010000
00000000
00001000
00010000
00000000
00001000
00010000
00000000
00001000
00010000
00000000
00001000
00010000
00000000
,  // measure 28
00001000
00100000
00000000
00010000
00100000
00000000
00010000
01000000
00000000
10000000
01000000
00000000
00010000
00100000
00000000
00001000
,  // measure 29
00010000
00000000
00000100
00001000
00000000
00010000
00001000
00000000
00000100
00000010
00000000
00000001
00000010
00000000
00000100
00010000
,  // measure 30
00000000
00001000
00010000
00000000
00001000
00100000
00000000
00010000
00001000
00000000
00010000
00100000
00000000
01000000
10000000
00000000
,  // measure 31
01000000
00100000
00000000
00001000
00010000
00000000
00001000
00010000
00000000
00000100
00010000
00000000
00011000
00000000
00000000
00000000
,  // measure 32
00000200
00000000
00000000
00001000
00000000
00000000
00002300
00000000
00000000
00000001
00000000
00000000
00003001
00000000
00000100
00000010
,  // measure 33
00000000
00010000
00000020
00000000
00000000
00000000
00000130
00000000
00001000
00000000
00010000
00001000
00000000
00010000
00001000
00000000
,  // measure 34
00200000
00000000
00000000
00010000
00300000
00000000
00020000
00000000
00000000
10000000
00000000
00000000
10030000
00000000
01000000
00100000
,  // measure 35
00000000
01000000
00200000
00000000
00000000
00000000
00000000
00000000
00310000
00000000
01000000
00001000
00000000
00001000
00010000
00000000
,  // measure 36
00002000
00000000
00000000
00000100
00003000
00000000
00000200
00000000
00000000
00000001
00000000
00000000
00000301
00000000
00001000
00000010
,  // measure 37
00000000
00001000
00000020
00000000
00000000
00000000
00000000
00000000
00010030
00000000
00001000
00010000
00000000
00010000
00001000
00000000
,  // measure 38
00200000
00000000
00000000
01000000
00000000
00000000
02300000
00000000
00000000
10000000
00000000
00000000
13000000
00000000
00100000
01000000
,  // measure 39
00000000
00100000
02000000
00000000
00000000
00000000
00000000
00000000
03010000
00000000
00100000
00001000
00000000
00001000
00100000
00000000
,  // measure 40
00001000
00010000
00000000
00001000
00100000
00000000
00001000
00010000
00000000
00001000
00100000
00000000
00001000
00000000
00010000
00000100
,  // measure 41
00000000
00000100
00002000
00000000
00000000
00000000
00000000
00000000
00013000
00000000
00000100
00000001
00000000
00000001
00001000
00000000
,  // measure 42
00000010
00000100
00000000
00000010
00000001
00000000
00000010
00000100
00000000
00000010
00000001
00000000
00000010
00000000
00000100
00000010
,  // measure 43
00000000
00000010
00020000
00000000
00000000
00000000
00000000
00000000
00031000
00000000
01000000
00010000
00000000
00010000
01000000
00000000
,  // measure 44
00010000
00100000
00000000
00010000
10000000
00000000
00010000
00100000
00000000
00010000
10000000
00000000
00010000
00000000
00100000
00010000
,  // measure 45
00000000
00010000
00002000
00000000
00000000
00000000
00000000
00000000
00003010
00000000
00000001
00001000
00000000
00001000
00000100
00000000
,  // measure 46
00010000
00001000
00000000
00000100
00001000
00000000
00010000
00001000
00000000
00000100
00001000
00000000
00010000
00000000
00001000
00100000
,  // measure 47
00000000
00100000
00020000
00000000
00000000
00000000
00000000
00000000
10030000
00000000
01000000
00100000
00000000
00100000
00010000
00000000
,  // measure 48
10000000
00000000
00100000
01000000
00000000
01000000
00010000
00000000
00100000
01000000
00000000
10000000
00010000
00000000
00100000
00001000
,  // measure 49
00000000
00100000
00001000
00000000
00010000
00000100
00000000
00001000
00000010
00000000
00000100
00000001
00000000
00000001
00000010
00000000
,  // measure 50
00000100
00000000
00001000
00000010
00000000
00010000
00001000
00000000
00000100
00010000
00000000
00001000
00010000
00000000
00001000
01000000
,  // measure 51
00000000
00001000
01000000
00000000
00010000
10000000
00000000
00010000
10000000
00000000
00100000
00001000
00000000
00100000
00001000
00000000
,  // measure 52
00011000
00000000
00000000
00000000
;
