#TITLE:Start The Riot;
#SUBTITLE:;
#ARTIST:JAKAZiD;
#TITLETRANSLIT:;
#SUBTITLETRANSLIT:;
#ARTISTTRANSLIT:;
#GENRE:Hardcore;
#CREDIT:;
#BANNER:starttheriot-bn.png;
#BACKGROUND:starttheriot-bg.png;
#LYRICSPATH:;
#CDTITLE:;
#MUSIC:Start the Riot.ogg;
#OFFSET:-0.020000;
#SAMPLESTART:33.840000;
#SAMPLELENGTH:12.000000;
#SELECTABLE:YES;
#BPMS:0.000000=170.000000
;
#STOPS:
;
#BGCHANGES:;
#KEYSOUNDS:;
#ATTACKS:;

//---------------dance-single - ----------------
#NOTES:
     dance-single:
     :
     Medium:
     6:
     0.430207,0.474652,0.279207,0.269235,0.000000,302.000000,274.000000,28.000000,27.000000,0.000000,0.000000,0.430207,0.474652,0.279207,0.269235,0.000000,302.000000,274.000000,28.000000,27.000000,0.000000,0.000000:
0000
0000
0000
0000
,
0000
0000
0000
0000
,
0000
0000
0000
0000
,
0000
0000
0000
0000
,
0000
0200
0000
0010
0000
0301
0000
0100
,
0000
0020
0000
0100
0000
1030
0000
0010
,
0000
2000
0000
0100
0000
3001
0000
1000
,
0002
0000
0000
0103
,
1000
0000
0100
0000
0000
1000
0100
0000
,
1000
0000
0001
0000
0000
0010
0001
0000
,
0010
0000
0100
0000
0000
1000
0010
0000
,
0100
0000
0010
0000
0000
0100
0001
0100
,
0001
0000
0010
0000
0000
0100
1000
0000
,
0010
0000
0100
0000
0000
0001
1000
0000
,
0010
0000
1000
0000
0000
0001
0010
0000
,
0001
0000
1000
0000
0000
0010
0100
0010
,
0100
0000
0001
0000
0000
0010
0001
0000
,
1000
0000
0100
0000
0000
0010
0100
0000
,
1000
0000
0001
0000
0000
0100
0010
0000
,
0100
0000
0001
0000
0000
0010
0100
0000
,
1000
0001
1000
0010
1000
0000
1001
0000
,
0001
0000
0100
0000
0000
0010
0001
0000
,
0010
0000
1000
0000
0000
0100
0000
1000
,
0000
0002
2000
0000
0000
0000
3003
0000
,
0020
0000
0030
0100
0001
0200
0000
0310
,
0100
0101
1010
0101
,
2000
0000
3000
0010
0100
0020
0000
0130
,
0010
1001
0110
1001
,
0002
0000
0003
1000
0010
2000
0000
3001
,
0010
0011
1100
0011
,
0100
0001
0010
0000
0100
1000
0010
0000
,
0100
0100
0100
1001
,
0002
0000
0003
0100
0010
2000
0000
3010
,
0100
0000
0001
1000
0001
0000
0110
0000
,
0200
0000
0300
0001
1000
0020
0000
0130
,
0001
0000
1000
0000
1000
0100
1000
0100
,
0020
0000
0030
0100
1000
0002
0000
0103
,
0001
1000
0010
0110
,
1000
0110
0001
1000
,
0000
0010
0000
0100
0010
0000
1000
0000
,
0000
0100
0100
0000
0011
0000
0000
0000
,
0000
0100
0100
0000
1010
0000
0000
0000
,
1000
0001
0001
0000
0100
0000
1000
0000
,
0001
1000
1000
0000
0100
0000
0001
0000
,
0000
0100
0100
0000
0011
0000
0001
0000
,
0000
0100
0100
0000
1010
0000
1000
0000
,
0000
0010
0010
0000
1000
0000
0100
0000
,
0000
0100
0100
0000
0001
0000
0010
0000
,
0000
1000
1000
0000
0011
0000
0001
0000
,
0000
0001
0001
0000
1010
0000
1000
0000
,
0000
0010
0010
0000
0101
0000
1000
0000
,
1001
0000
0000
0020
,
0030
1000
0100
0000
0010
0001
0010
0000
,
0000
0001
0100
0000
0010
1000
0010
0000
,
0000
0001
1000
0000
0110
0000
0100
0000
,
0000
1000
0001
0000
0110
0000
0010
0000
,
0000
1000
0100
0000
0010
0001
0010
0000
,
0000
0001
0100
0000
0010
1000
0010
0000
,
0000
1000
0100
0000
1010
0000
1000
0000
,
0000
0001
0100
0000
0011
0000
0001
0000
,
0020
0000
0030
0100
0001
0200
0000
0310
,
1000
0000
0001
0000
0100
0010
0100
0000
,
0002
0000
0003
1000
0010
2000
0000
3001
,
0010
0000
0100
0000
1000
0010
1000
0010
,
0200
0300
0020
0030
,
2000
3000
0002
0003
,
0011
0000
0000
0000
0001
0100
0001
0100
,
0010
1000
0010
1000
0010
0000
1001
0000
,
0100
0000
0000
0000
;

//---------------dance-single - ----------------
#NOTES:
     dance-single:
     :
     Easy:
     4:
     0.343311,0.372941,0.119660,0.239320,0.000000,241.000000,229.000000,12.000000,24.000000,0.000000,0.000000,0.343311,0.372941,0.119660,0.239320,0.000000,241.000000,229.000000,12.000000,24.000000,0.000000,0.000000:
0000
0000
0000
0000
,
0000
0000
0000
0000
,
0000
0000
0000
0000
,
0000
0000
0000
0000
,
0000
0200
0000
0001
0000
0310
0000
0100
,
0000
2000
0000
0100
0000
3010
0000
0001
,
0000
0020
0000
0001
0000
1030
0000
0001
,
0100
0100
0100
0110
,
0010
0000
0000
0000
0000
1000
0001
0000
,
0100
0000
0000
0000
0000
0001
1000
0000
,
0010
0000
0000
0000
0000
0100
0001
0000
,
0010
0000
0000
0100
0000
0100
1000
0000
,
0100
0000
0000
0000
0000
1000
0100
0000
,
0010
0000
0000
0000
0000
0001
0010
0000
,
0100
0000
0000
0000
0000
1000
0001
0000
,
0100
0000
0000
0001
0000
0001
0010
0000
,
0001
0000
0000
0000
0000
0100
0010
0000
,
1000
0000
0000
0000
0000
0010
1000
0000
,
0001
0000
0000
0000
0000
0100
0001
0000
,
1000
0000
0000
0010
0000
0010
0001
0000
,
1000
0010
0100
0010
0100
0000
0001
0000
,
0000
0000
0000
0000
0000
0010
0001
0000
,
1000
0000
0000
0000
0000
0200
0000
2300
,
0000
3010
0100
0000
0002
0000
0003
0000
,
0020
0000
0030
0001
0020
0000
0030
0001
,
0100
0100
0100
0100
,
0020
0000
0030
1000
0020
0000
0030
1000
,
0100
0100
0100
0100
,
2000
0000
3000
0001
2000
0000
3000
0010
,
0100
0100
0100
0100
,
0010
0010
1000
1000
,
0001
1000
0001
1000
,
0002
0000
0003
0100
0020
0000
0030
0100
,
0001
0001
1000
1000
,
0020
0000
0030
1000
0200
0000
0300
1000
,
0010
0010
0100
0100
,
0002
0000
0003
0010
0200
0000
0300
1000
,
0001
0001
1000
1000
,
0010
0010
0100
0100
,
0001
1000
0001
1000
,
0000
0001
0001
0000
0010
0000
0000
0000
,
0000
1000
1000
0000
0010
0000
0000
0000
,
0000
0001
0001
0000
0100
0000
0100
0000
,
0000
1000
1000
0000
0100
0000
0100
0000
,
0000
1000
1000
0000
0010
0000
0000
0000
,
0000
0001
0001
0000
0100
0000
0000
0000
,
0000
0010
0010
0000
1000
0000
0000
0000
,
0000
0100
0100
0000
0001
0000
0000
0000
,
0000
0010
0010
0000
0001
0000
0001
0000
,
0000
0100
0100
0000
0010
0000
0010
0000
,
0000
1000
1000
0000
0100
0000
0100
0000
,
1001
0000
0000
0020
,
0030
0100
0001
0000
1000
0000
1000
0000
,
0000
0010
1000
0000
0001
0000
0001
0000
,
0000
0100
0010
0000
1000
0000
1001
0000
,
0000
0010
0100
0000
0001
0000
1001
0000
,
0000
0010
0001
0000
1000
0000
1000
0000
,
0000
0100
1000
0000
0001
0000
0001
0000
,
0000
0100
0010
0000
1000
0000
1001
0000
,
0000
0010
0100
0000
0001
0000
1001
0000
,
2000
0000
3000
0100
2000
0000
3000
0010
,
0100
0100
0100
0100
,
0002
0000
0003
0010
0002
0000
0003
0100
,
0010
0010
0010
0010
,
0110
0000
1001
0000
,
0110
0000
1001
0000
,
0101
0000
0020
0000
,
0000
0000
0030
1000
,
1100
0000
0000
0000
;

//---------------dance-single - ----------------
#NOTES:
     dance-single:
     :
     Beginner:
     1:
     0.108264,0.203422,0.019943,0.159547,0.000000,76.000000,74.000000,2.000000,16.000000,0.000000,0.000000,0.108264,0.203422,0.019943,0.159547,0.000000,76.000000,74.000000,2.000000,16.000000,0.000000,0.000000:
0000
0000
0000
0000
,
0000
0000
0000
0000
,
0000
0000
0000
0000
,
0000
0000
0000
0000
,
0001
0000
0000
0000
,
0000
0000
0000
0000
,
0000
0000
0000
0000
,
0010
0010
0010
0010
,
0010
0000
0000
0000
,
0000
0000
0000
0001
,
0001
0000
0000
0000
,
0000
0000
0000
1000
,
1000
0000
0000
0000
,
0000
0000
0000
0010
,
0010
0000
0000
0000
,
0000
0000
0000
0100
,
0100
0000
0000
0000
,
0000
0000
0000
0010
,
0010
0000
0000
0000
,
0000
0000
0000
1000
,
1000
0000
0000
0001
,
0001
0000
0000
0010
,
0010
0000
0000
0000
,
0001
0000
0000
0000
,
2000
3000
2000
3000
,
0000
0000
0000
0000
,
0020
0030
0020
0030
,
0000
0000
0000
0000
,
0200
0300
0200
0300
,
0000
0000
0000
0000
,
0001
0000
1000
0000
,
0010
0000
0000
0000
,
0200
0300
0200
0300
,
0000
0000
0000
0000
,
0002
0003
0002
0003
,
0000
0000
0000
0000
,
2000
3000
2000
3000
,
0000
0000
0000
0000
,
0010
0000
0100
0000
,
0001
0000
0000
0000
,
0000
1000
0000
0000
,
0000
0010
0000
0000
,
0000
0100
0000
0000
,
0000
0001
0000
0000
,
0000
0001
0000
0000
,
0000
0100
0000
0000
,
0000
0010
0000
0000
,
0000
1000
0000
0000
,
0000
1000
0000
0000
,
0000
0001
0000
0000
,
0000
0100
0000
0000
,
0010
0000
0000
1000
,
1000
0000
0000
0000
,
0000
0100
0000
0000
,
0000
0010
0000
0000
,
0000
0001
0000
0000
,
0000
0010
0000
0000
,
0000
0100
0000
0000
,
0000
1000
0000
0000
,
0000
0001
0000
0000
,
0200
0300
0200
0300
,
0000
0000
0000
0000
,
0002
0003
0002
0003
,
0000
0000
0000
0000
,
1000
0000
0001
0000
,
1000
0000
0001
0000
,
0100
0000
0010
0000
,
0000
0000
0000
1001
,
1001
0000
0000
0000
;

//---------------dance-single - ----------------
#NOTES:
     dance-single:
     :
     Hard:
     7:
     0.488612,0.474652,0.199434,0.498584,0.079773,343.000000,323.000000,20.000000,50.000000,0.000000,0.000000,0.488612,0.474652,0.199434,0.498584,0.079773,343.000000,323.000000,20.000000,50.000000,0.000000,0.000000:
// measure 0
0000
0000
0000
0000
,  // measure 1
0000
0000
0000
0000
,  // measure 2
0000
0000
0000
0000
,  // measure 3
0000
0000
0000
0000
,  // measure 4
0000
1000
0000
0010
0000
0110
0000
0001
,  // measure 5
0000
0010
0000
0100
0000
1010
0000
0001
,  // measure 6
0000
1000
0000
0100
0000
1100
0000
0020
,  // measure 7
0002
0000
0033
1001
,  // measure 8
0100
1000
0000
0000
0010
0100
0010
0100
,  // measure 9
0001
0010
0000
0001
0000
1000
0000
0010
,  // measure 10
0100
0001
0000
1000
0000
0000
0000
0010
,  // measure 11
0100
1000
0010
0100
0001
0000
1000
0000
,  // measure 12
0010
0001
0000
0000
1000
0010
1000
0010
,  // measure 13
0100
0001
0000
1000
0000
0010
0000
0100
,  // measure 14
0001
0100
0000
0010
0000
0000
0000
1000
,  // measure 15
0100
0010
0001
1000
0010
0000
1000
0000
,  // measure 16
0010
1000
0000
0000
0100
1000
0100
1000
,  // measure 17
0010
0100
0000
0001
0000
0010
0000
0100
,  // measure 18
0010
0001
0000
1000
0000
0000
0000
0010
,  // measure 19
1000
0001
1000
0001
1000
0000
0001
0000
,  // measure 20
1000
0100
0001
0100
1000
0000
0010
0000
,  // measure 21
0100
0001
0000
1000
0000
0010
0000
1000
,  // measure 22
0100
0010
0000
0001
0000
1000
0000
0200
,  // measure 23
0020
0000
0000
0330
0100
1000
0001
0000
,  // measure 24
2002
0000
3003
2000
0002
0000
3003
0001
,  // measure 25
1000
0010
0100
0010
0100
0001
1000
0000
,  // measure 26
0220
0000
0330
0200
0020
0000
0330
0100
,  // measure 27
0010
1000
0010
0000
0100
0001
0100
0000
,  // measure 28
0022
0000
0033
0002
0020
0000
0033
0100
,  // measure 29
1000
0001
0010
0001
0010
0100
1000
0000
,  // measure 30
0010
1001
0100
1001
,  // measure 31
0020
1000
0031
0100
,  // measure 32
0202
0000
0303
0002
0200
0000
0303
0010
,  // measure 33
1000
0001
0100
0001
0100
0010
1000
0000
,  // measure 34
2200
0000
3300
2000
0200
0000
3300
1000
,  // measure 35
0010
1000
0010
0000
0100
0001
0100
0000
,  // measure 36
2002
0000
3003
2000
0002
0000
3003
0100
,  // measure 37
0010
1000
0001
1000
0001
0100
0010
0000
,  // measure 38
0100
1100
0010
0011
,  // measure 39
0200
0000
0320
1030
,  // measure 40
1000
0000
0002
0000
0000
0000
0000
0000
0100
0000
0000
0100
0000
0000
0103
0000
,  // measure 41
0000
0000
0020
0000
0000
0000
0000
0000
1000
0000
0000
1000
0000
0000
1030
0000
,  // measure 42
0100
0000
1000
0000
0010
0010
0010
0000
,  // measure 43
0100
0100
0100
0000
0001
0000
1000
0000
,  // measure 44
0010
0000
0000
0000
0001
0000
0000
0000
1000
0000
0000
1000
0000
0000
1000
0000
,  // measure 45
0010
0000
0000
0000
1000
0000
0000
0000
0001
0000
0000
0001
0000
0000
0001
0000
,  // measure 46
0100
0000
0000
0000
0010
0000
0000
0000
0100
0000
0000
0001
0000
0000
0100
0000
,  // measure 47
0010
0000
0000
0000
1000
0000
0000
0000
0100
0000
0000
1000
0000
0000
0100
0000
,  // measure 48
1000
0000
0100
0000
0010
0000
0000
0000
0001
0000
0000
0001
0000
0000
0001
0000
,  // measure 49
0100
0000
0010
0000
1000
0000
0000
0000
0100
0000
0000
0100
0000
0000
0100
0000
,  // measure 50
1000
0000
0000
0000
0010
0000
0000
0000
1000
0000
0000
0100
0000
0000
0010
0000
,  // measure 51
0002
0000
0003
1001
,  // measure 52
0100
0000
0001
0000
1000
0000
0000
0000
0010
0000
0000
0010
0000
0000
0010
0000
,  // measure 53
0100
0000
0001
0000
0100
0000
0000
0000
0001
0000
0000
0001
0000
0000
0001
0000
,  // measure 54
1000
0000
0100
0000
0010
0000
0000
0000
0100
0000
0000
0100
0000
0000
0100
0000
,  // measure 55
1000
0000
0010
0000
1000
0000
0000
0000
0010
0000
0000
0010
0000
0000
0010
0000
,  // measure 56
0100
0000
0001
0000
1000
0000
0000
0000
1000
0000
0000
1000
0000
0000
1000
0000
,  // measure 57
0001
0000
0100
0000
0001
0000
0000
0000
0010
0000
0000
0010
0000
0000
0010
0000
,  // measure 58
0100
0000
1000
0000
0010
0000
0000
0000
1000
0000
0000
1000
0000
0000
1000
0000
,  // measure 59
0100
0010
0100
0000
1000
0001
1000
0000
,  // measure 60
0202
0000
0303
0200
0002
0000
0303
0001
,  // measure 61
0010
0100
1000
0100
1000
0001
0010
0000
,  // measure 62
0220
0000
0330
0020
0200
0000
0330
1000
,  // measure 63
0001
0100
0001
0000
1000
0010
1000
0010
,  // measure 64
2020
0000
3030
2000
0020
0000
3030
0002
,  // measure 65
0200
0000
0303
0200
0020
0000
0330
0000
,  // measure 66
1001
0000
0000
0000
0010
0010
0010
0010
,  // measure 67
0100
0001
0100
0001
1000
0000
0110
0000
,  // measure 68
0001
0000
0000
0000
;
