#TITLE:Something Good Can Work;
#SUBTITLE:;
#ARTIST:Two Door Cinema Club;
#TITLETRANSLIT:;
#SUBTITLETRANSLIT:;
#ARTISTTRANSLIT:;
#GENRE:Rock;
#CREDIT:;
#BANNER:somethinggoodcanwork-bn.png;
#BACKGROUND:somethinggoodcanwork-bg.png;
#LYRICSPATH:;
#CDTITLE:;
#MUSIC:Something Good Can Work.ogg;
#OFFSET:-0.000000;
#SAMPLESTART:32.000000;
#SAMPLELENGTH:12.000000;
#SELECTABLE:YES;
#BPMS:0.000000=119.970001
;
#STOPS:
;
#BGCHANGES:;
#KEYSOUNDS:;
#ATTACKS:;

//---------------dance-single - ----------------
#NOTES:
     dance-single:
     :
     Hard:
     6:
     0.312062,0.359991,0.176322,0.127344,0.000000,223.000000,205.000000,18.000000,13.000000,0.000000,0.000000,0.312062,0.359991,0.176322,0.127344,0.000000,223.000000,205.000000,18.000000,13.000000,0.000000,0.000000:
// measure 0
0000
0000
0000
0000
,  // measure 1
0000
0000
0000
0000
,  // measure 2
0000
0000
0000
0000
,  // measure 3
0000
0000
0000
0000
,  // measure 4
0001
0000
1000
0000
0010
1000
0100
1000
,  // measure 5
0002
0000
0003
0101
0000
0000
0000
0000
,  // measure 6
0100
0000
1000
0000
0001
0100
0010
1000
,  // measure 7
0200
0000
0300
1100
0000
0000
1000
0000
,  // measure 8
0001
0010
0001
0000
0001
0100
0001
0000
,  // measure 9
1000
0000
0001
0000
0100
0000
0010
1000
,  // measure 10
0100
0000
0000
0000
1001
0000
0000
0010
,  // measure 11
0100
0000
0011
0000
,  // measure 12
1000
0100
1000
0000
1000
0010
1000
0000
,  // measure 13
0010
0000
0100
0000
0001
0000
0010
0100
,  // measure 14
1000
1000
0000
0000
0110
0000
0000
0000
,  // measure 15
0010
0020
0000
0000
0130
0000
0010
1000
,  // measure 16
0001
0000
1000
0100
1000
0010
1000
0000
,  // measure 17
1001
0110
1001
0010
,  // measure 18
0100
0010
0002
0000
0000
0000
1000
1000
,  // measure 19
1003
0000
0000
0010
0100
0000
0001
0000
,  // measure 20
0010
0000
0001
0100
0001
0010
0001
0000
,  // measure 21
1001
0110
1001
1000
,  // measure 22
0010
1000
0200
0000
0000
0000
0010
0010
,  // measure 23
0310
0000
0000
0001
1000
0000
0100
0000
,  // measure 24
1000
0010
0000
0100
0000
0001
0000
0010
,  // measure 25
0100
0010
0000
0001
0000
1000
0000
0000
,  // measure 26
0010
1000
0000
0100
0000
0010
0000
0001
,  // measure 27
0010
0001
0000
1000
0001
0000
0000
0100
,  // measure 28
0020
0000
0030
1000
0100
0020
0000
0031
,  // measure 29
1000
0000
0000
0000
0000
0100
0010
0100
,  // measure 30
0010
1000
0010
0000
0000
1001
0000
0000
,  // measure 31
0002
0000
1003
0000
,  // measure 32
0010
0000
0100
0010
0100
0001
0100
0000
,  // measure 33
1001
0110
1001
0100
,  // measure 34
1000
0010
0200
0000
0000
0000
0001
0001
,  // measure 35
0301
0000
0000
1000
0001
0000
0100
0000
,  // measure 36
0010
0000
1000
0001
1000
0100
1000
0000
,  // measure 37
1001
0110
1001
0010
,  // measure 38
0001
1000
0020
0000
0000
0000
0100
0100
,  // measure 39
0130
0000
0000
0010
0100
0000
0001
0000
,  // measure 40
1000
0100
0010
0001
1000
0000
1000
0000
,  // measure 41
2000
0010
0010
3100
,  // measure 42
0010
0100
0010
0000
1000
0000
0001
1000
,  // measure 43
0010
0100
0000
0010
0100
0000
0001
0000
,  // measure 44
0010
0100
1000
0001
0100
0000
0100
0000
,  // measure 45
0200
0001
0001
0310
,  // measure 46
0001
1000
0001
0000
0100
0000
0010
0100
,  // measure 47
0001
1000
0000
0001
1000
0000
0010
0000
,  // measure 48
0020
0000
0000
0000
,  // measure 49
0030
0000
0000
0000
;

//---------------dance-single - ----------------
#NOTES:
     dance-single:
     :
     Medium:
     4:
     0.243492,0.286523,0.097957,0.244892,0.000000,174.000000,164.000000,10.000000,25.000000,0.000000,0.000000,0.243492,0.286523,0.097957,0.244892,0.000000,174.000000,164.000000,10.000000,25.000000,0.000000,0.000000:
0000
0000
0000
0000
,
0000
0000
0000
0000
,
0000
0000
0000
0000
,
0000
0000
0000
0000
,
1000
0000
0100
0000
0010
0001
0010
0001
,
0020
0000
0031
0000
,
0001
0000
0100
0000
0010
1000
0010
1000
,
0010
0000
1000
0001
,
1000
0100
1000
0000
0010
0000
1000
0000
,
1000
0100
1000
0000
0001
0000
1000
0001
,
0000
0000
0000
0000
0100
0000
0000
1000
,
0001
0000
0100
0000
,
0001
0010
0001
0000
1000
0000
0001
0000
,
0001
0100
0001
0000
0010
0000
0001
1000
,
0000
0000
0000
0000
0010
0000
0000
1000
,
0001
0000
0000
0000
0010
0000
0100
0010
,
2000
3020
0230
0302
,
1003
0001
1000
0001
1000
0000
0010
0000
,
0100
0001
0000
1001
,
0110
0000
0000
0000
,
0002
0023
0230
2300
,
3001
0100
0001
0100
0001
0000
0010
0000
,
0100
1000
0000
0101
,
1010
0000
0000
0000
,
0010
1000
0000
0100
0000
0010
0000
0001
,
0000
0100
0000
0010
0000
0100
0000
0001
,
0010
0100
0000
0010
0000
0001
0000
1000
,
0000
0100
0000
0010
0000
0100
0000
1000
,
0002
0000
0003
0100
0001
1000
0000
0010
,
2000
0000
3000
0000
0000
0100
0010
0100
,
1000
0001
1000
0000
0000
0010
0000
0000
,
0200
0000
0300
0000
,
0020
0230
0302
2003
,
3010
0100
0010
0100
0010
0000
0100
0000
,
0001
1000
0000
1100
,
0011
0000
0000
0000
,
0002
0203
0320
2030
,
3100
0010
0100
0010
0001
0000
0100
0000
,
0010
1000
0000
0110
,
1001
0000
0000
0000
,
0010
1000
0010
0000
0100
0000
0010
0000
,
0100
0010
0100
0000
0001
0000
0100
0000
,
2002
0000
3003
0010
,
0010
0000
0000
0000
,
0100
0001
0100
0000
0010
0000
0100
0000
,
0010
1000
0010
0000
0100
0000
0010
0000
,
2020
0000
3030
0001
,
1000
0000
0000
0000
,
0002
0000
0000
0003
;

//---------------dance-single - ----------------
#NOTES:
     dance-single:
     :
     Easy:
     3:
     0.225300,0.235096,0.048978,0.352644,0.000000,161.000000,156.000000,5.000000,36.000000,0.000000,0.000000,0.225300,0.235096,0.048978,0.352644,0.000000,161.000000,156.000000,5.000000,36.000000,0.000000,0.000000:
0000
0000
0000
0000
,
0000
0000
0000
0000
,
0000
0000
0000
0000
,
0000
0000
0000
0000
,
1000
0100
0010
0100
,
2000
3001
0002
1003
,
0001
0100
0010
0100
,
0002
1003
2000
3001
,
0100
0010
1000
0000
,
0001
0010
0100
1000
,
0020
0000
0000
1030
0000
0000
0000
0000
,
0200
0000
0000
0301
0000
0000
0000
0000
,
0010
0001
1000
0000
,
0010
1000
0100
0010
,
0200
0000
0000
1300
0000
0000
0000
0000
,
0200
0000
0000
0301
0000
0000
0100
0000
,
1000
0010
0100
0001
,
2000
3020
0230
0302
,
2003
0002
3003
0110
,
1000
0001
0100
0010
,
0100
0001
1000
0010
,
0200
0302
2003
3020
,
0230
0020
0330
1001
,
0010
0100
0010
0001
,
0000
0100
0000
0001
0000
1000
0000
0010
,
0000
1000
0000
0100
0000
0010
0000
0100
,
0000
1000
0000
0001
0000
0100
0000
1000
,
0000
0100
0000
0001
0000
1000
0000
0000
,
0010
0000
1000
0100
,
0001
0001
0000
0100
,
0010
1000
0000
0001
,
0010
0010
1000
0000
,
0001
0100
0010
1000
,
0002
0203
0320
2030
,
3002
0200
0303
1010
,
0010
0100
0001
0010
,
0100
1000
0001
0010
,
0200
2300
3002
0023
,
0230
0020
0330
0011
,
0001
1000
0010
1000
,
0100
0100
0010
0100
,
1000
1000
0010
1000
,
0002
0020
0003
0130
,
0010
0001
0010
0100
,
0010
0010
0001
0010
,
0001
0001
0100
0001
,
2000
0020
3000
0130
,
0010
0000
1001
0001
,
1000
0000
0000
0000
;

//---------------dance-single - ----------------
#NOTES:
     dance-single:
     :
     Beginner:
     1:
     0.099356,0.167138,0.048978,0.068570,0.000000,71.000000,66.000000,5.000000,7.000000,0.000000,0.000000,0.099356,0.167138,0.048978,0.068570,0.000000,71.000000,66.000000,5.000000,7.000000,0.000000,0.000000:
0000
0000
0000
0000
,
0000
0000
0000
0000
,
0000
0000
0000
0000
,
0000
0000
0000
0000
,
0010
0000
0000
0100
,
0100
0000
0001
0000
,
1000
0000
0000
0010
,
0010
0000
0100
0000
,
0001
0000
0010
0000
,
0001
0000
0010
0000
,
1000
0000
0000
0000
,
0000
0000
0000
0000
,
1000
0000
0010
0000
,
1000
0000
0010
0000
,
0001
0000
0000
0000
,
0001
0000
0000
0000
,
0000
0100
0100
0100
,
0100
0000
0000
0000
,
0020
0000
0030
0000
,
0110
0000
0000
0000
,
0000
0001
0001
0001
,
0001
0000
0000
0000
,
2000
0000
3000
0000
,
1001
0000
0000
0000
,
0010
0000
0000
0000
,
0000
0000
0000
0000
,
1000
0000
0000
0000
,
0000
0000
0000
0000
,
0001
0000
0000
0000
,
0100
0000
0000
0000
,
0010
0000
0000
0000
,
0002
0000
0003
0000
,
0000
0010
0010
0010
,
0010
0000
0000
0000
,
0200
0000
0300
0000
,
0110
0000
0000
0000
,
0000
1000
1000
1000
,
1000
0000
0000
0000
,
0002
0000
0003
0000
,
1001
0000
0000
0000
,
0010
0000
0000
0000
,
0100
0100
0100
0100
,
0100
0000
0000
0001
,
0001
0000
0000
0000
,
0010
0000
0000
0000
,
1000
1000
1000
1000
,
1000
0000
0000
0100
,
0100
0000
0000
0000
,
2002
0000
0000
3003
;

//---------------dance-double - ----------------
#NOTES:
     dance-double:
     :
     Easy:
     3:
     0.194514,0.235096,0.048978,0.107752,0.000000,139.000000,134.000000,5.000000,11.000000,0.000000,0.000000,0.194514,0.235096,0.048978,0.107752,0.000000,139.000000,134.000000,5.000000,11.000000,0.000000,0.000000:
00000000
00000000
00000000
00000000
,
00000000
00000000
00000000
00000000
,
00000000
00000000
00000000
00000000
,
00000000
00000000
00000000
00000000
,
20000000
01000000
01000000
30100000
,
02000000
00000000
00000000
03000000
00000000
00000000
00000000
00000000
,
00200000
00010000
00010000
01300000
,
00020000
00000000
00000000
00030000
00000000
00000000
00000000
00000000
,
00010000
00001000
00000010
00000100
,
00000001
00000001
00001000
00001000
,
00001001
00000000
00000001
00000000
,
00001100
00000000
00000010
00000000
,
00000100
00010000
00001000
00010000
,
00001000
00100000
00010000
10000000
,
10010000
00000000
01000000
00000000
,
10010000
00000000
00000000
00100000
,
00100000
00010000
00100000
00010000
,
01000000
00010000
01000000
00010000
,
20000000
00000000
00000000
00010000
,
30010000
00000000
00000000
00000000
,
00001000
00010000
00000100
00001000
,
00000010
00000010
00000010
00001000
,
00000002
00000000
00000000
00001000
,
00001003
00000000
00000000
00000000
,
00000010
00001000
00000010
00000100
,
00000010
00001000
00000100
00010000
,
00001000
00100000
00010000
01000000
,
00100000
10000000
01000000
10000000
,
00100000
00100000
01000000
01000000
,
00100000
01000000
00100000
00000000
,
00001000
00010000
00001000
00000000
,
00000200
00001000
00001300
00000000
,
00000010
00001000
00000010
00001000
,
00000100
00001000
00000100
00001000
,
00000200
00000000
00000000
00010000
,
00010300
00000000
00000000
00000000
,
00001000
00100000
00010000
01000000
,
00100000
00100000
00100000
10000000
,
00020000
00000000
00000000
00100000
,
00130000
00000000
00000000
00000000
,
01000000
00010000
01000000
00010000
,
00100000
00010000
00100000
00010000
,
00200000
00000000
00000000
00001000
,
00301000
00000000
00010000
00001000
,
00010000
00000100
00001000
00000010
,
00001000
00000010
00000100
00000001
,
00000020
00000000
00000000
00000100
,
00000130
00000000
00001000
00000010
,
00001010
00000000
00000000
00000000
;

//---------------dance-double - ----------------
#NOTES:
     dance-double:
     :
     Medium:
     4:
     0.225300,0.282115,0.048978,0.088161,0.000000,161.000000,156.000000,5.000000,9.000000,0.000000,0.000000,0.225300,0.282115,0.048978,0.088161,0.000000,161.000000,156.000000,5.000000,9.000000,0.000000,0.000000:
00000000
00000000
00000000
00000000
,
00000000
00000000
00000000
00000000
,
00000000
00000000
00000000
00000000
,
00000000
00000000
00000000
00000000
,
00000100
00000000
00001000
00000000
00000010
00000100
00000010
00000100
,
00000020
00000000
00000000
00001030
00000000
00000000
00000000
00000000
,
00001000
00000000
00010000
00000000
01000000
00100000
01000000
00100000
,
02000000
00000000
00000000
13000000
00000000
00000000
00010000
00000000
,
01000000
01000000
00010000
00100000
,
00001000
00001000
00010000
00001000
,
00010000
00000000
00000000
00000100
00000000
00000000
00000000
00000000
,
00001000
00000000
00000000
00000100
00000000
00000000
00000000
00000000
,
00000010
00000100
00000100
00000010
,
00000001
00001000
00000100
00010000
,
00001000
00000000
00000000
00100000
00000000
00000000
00000000
00000000
,
00010000
00000000
00000000
10000000
00000000
00000000
00100000
01000000
,
00100000
00100000
00100000
10010000
,
10000000
01000000
00010000
00001000
,
00000200
00000001
00000000
00001000
,
00001300
00000000
00000000
00000000
,
00000100
00000100
00000100
00001001
,
00000001
00000010
00001000
00010000
,
00200000
10000000
00000000
00010000
,
00310000
00000000
01000000
00100000
,
10000000
01000000
00000000
00100000
00000000
00010000
00000000
00100000
,
00010000
00100000
00000000
00001000
00000000
00010000
00001000
00010000
,
00000000
00000100
00000000
00001000
00000000
00000100
00001000
00000100
,
00001000
00000000
00000000
00000000
00000001
00000000
00000000
00000010
,
00000200
00000000
00000000
00001300
00000100
00001000
00000000
00001000
,
00000020
00000000
00000030
00001000
,
00000100
00000000
00010000
00000000
00000000
00100000
00000000
00000000
,
02000000
00000000
13000000
00000000
,
10000000
00100000
01000000
00010000
,
10000000
00100000
00010000
00001000
,
00000020
00000001
00000000
00001000
,
00001030
00000000
00000000
00000001
00000000
00000000
00000000
00000000
,
00000001
00000010
00000100
00001000
,
00000001
00000100
00001000
00010000
,
02000000
10000000
00000000
00010000
,
03010000
00000000
00000000
10000000
00000000
00000000
00000000
00000000
,
00100000
01000000
00010000
00100000
,
00001000
00010000
00000100
00001000
,
00000010
00000010
00000010
00001010
,
00001000
00000000
00000000
00000010
00000000
00000000
00000000
00000000
,
00000100
00000010
00001000
00000100
,
00010000
00010000
00001000
00001000
,
01000000
01000000
01000000
01010000
,
00010000
00000000
00000000
00100000
00000000
00000000
01000000
00000000
,
11000000
00000000
00000000
00000000
;

//---------------dance-double - ----------------
#NOTES:
     dance-double:
     :
     Hard:
     6:
     0.302266,0.376153,0.156731,0.205709,0.000000,216.000000,200.000000,16.000000,21.000000,0.000000,0.000000,0.302266,0.376153,0.156731,0.205709,0.000000,216.000000,200.000000,16.000000,21.000000,0.000000,0.000000:
00000000
00000000
00000000
00000000
,
00000000
00000000
00000000
00000000
,
00000000
00000000
00000000
00000000
,
00000000
00000000
00000000
00000000
,
00000001
00000000
00000010
00000000
00000100
00001000
00000100
00001000
,
00000200
00000000
00000000
00001300
00000000
00000000
00000000
00000000
,
00010000
00000000
00100000
00000000
01000000
10000000
01000000
10000000
,
02000000
00000000
00000000
13000000
00000000
00000000
00100000
00000000
,
10000000
01000000
10000000
00000000
00100000
00000000
00100000
00000000
,
01000000
00010000
01000000
00000000
00010000
00000000
00010000
00000000
,
00100000
00001000
00000000
00000000
00010000
00000000
00000000
00000000
,
00000100
00010000
00000000
00000000
00001000
00000000
00000000
00000000
,
00000100
00001000
00000100
00000000
00001000
00000000
00000010
00000000
,
00000100
00000001
00000100
00000000
00000001
00000010
00000100
00000000
,
00010000
00000000
00000000
00001000
00000000
00000000
00000000
00000000
,
00011000
00000000
00000000
00010000
00100000
00000000
00010000
10000000
,
00010000
00100000
00010000
01000000
00010000
00000000
11000000
00000000
,
10000000
01000000
00100000
00000000
00001000
00000000
00010000
00000000
,
00010000
00001000
00022000
00000000
00033000
00000000
00000100
00001000
,
00000020
00000000
00000000
00000100
00000130
00000000
00000001
00000000
,
00000100
00000010
00000100
00000001
00000100
00000000
00000010
00001000
,
00000100
00001000
00000100
00000000
00010000
00000000
00001000
00000000
,
00010000
00001000
00022000
00000000
00033000
00000000
01000000
00010000
,
02000000
00000000
00000000
00100000
03100000
00000000
10000000
00000000
,
01000000
10000000
00000000
00100000
00000000
01000000
00100000
01000000
,
00010000
00000000
00100000
00010000
00000000
00001000
00010000
00001000
,
00010000
00000000
00000100
00001000
00000000
00000010
00000100
00000001
,
00000020
00000000
00000000
00000000
00000130
00000000
00001000
00010000
,
00001000
00000000
00000000
00100000
00010000
01000000
00000000
00100000
,
01000000
00000000
00000000
00000000
00000000
00100000
10000000
01000000
,
00100000
00010000
01000000
00000000
00000000
00010000
00000000
00000000
,
00200000
00000000
00300000
00000000
,
00011000
00001100
00000110
00000011
,
00000001
00000100
00000010
00001000
00000001
00000000
00001000
00000000
,
00002002
00000000
00003003
00000100
,
00002000
00000000
00000000
00010000
00013000
00000000
00000000
00000000
,
00011000
00110000
01100000
11000000
,
10000000
01000000
00100000
00010000
10000000
00000000
00010000
00000000
,
20020000
00000000
00000000
00000000
30030000
00100000
00010000
00000000
,
00002000
00000000
00000000
00010000
00013000
00000000
00001000
00000000
,
00000100
00001000
00000100
00000000
00000100
00000010
00000100
00000000
,
00000100
00001000
00000100
00000010
00000100
00000000
00001000
00000000
,
00000020
00000200
00000330
00001001
,
00000200
00000000
00000000
00001000
00001300
00000000
00010000
00000000
,
00100000
01000000
00100000
00000000
00100000
00010000
00100000
00000000
,
00100000
01000000
00100000
00010000
00100000
00000000
00001000
00000000
,
00020000
00000000
00032000
00000000
00003000
00000000
00010000
00000100
,
00001000
00000000
00000000
00000010
00000100
00000000
00000001
00000000
,
00001001
00000000
00000000
00000000
;
