#TITLE:Something Good Can Work;
#SUBTITLE:(The Twelves Remix);
#ARTIST:Two Door Cinema Club;
#TITLETRANSLIT:;
#SUBTITLETRANSLIT:;
#ARTISTTRANSLIT:;
#GENRE:House;
#CREDIT:;
#BANNER:somethinggoodcanworkremix-bn.png;
#BACKGROUND:somethinggoodcanworkremix-bg.png;
#LYRICSPATH:;
#CDTITLE:;
#MUSIC:Something Good Can Work (The Twelves Remix).ogg;
#OFFSET:-0.770000;
#SAMPLESTART:40.730000;
#SAMPLELENGTH:12.000000;
#SELECTABLE:YES;
#BPMS:0.000000=120.000000
;
#STOPS:
;
#BGCHANGES:;
#KEYSOUNDS:;
#ATTACKS:;

//---------------dance-single - ----------------
#NOTES:
     dance-single:
     :
     Challenge:
     7:
     0.409264,0.409794,0.194699,0.194699,0.000000,309.000000,288.000000,21.000000,21.000000,0.000000,0.000000,0.409264,0.409794,0.194699,0.194699,0.000000,309.000000,288.000000,21.000000,21.000000,0.000000,0.000000:
0000
0000
0000
0000
,
0000
0000
0000
0000
,
0000
0000
0000
0000
,
0000
0000
0000
0000
0000
0100
0010
0100
,
0010
1000
0010
0000
0100
0001
1000
0000
,
0002
0000
0010
0000
0100
0000
1003
0010
,
0100
0001
0000
0010
0100
1000
0001
0000
,
0100
0001
0000
1000
0001
0100
0010
0100
,
0010
1000
0100
0000
0010
0001
1000
0000
,
2000
0000
0010
0000
0100
0000
3001
1000
,
0010
0100
0000
0001
0010
0100
1000
0010
,
1000
0100
0000
0010
0001
1000
0100
1000
,
0100
0010
0100
1000
0100
0000
1001
0000
,
0010
0100
0010
0001
0010
0000
1001
0000
,
0100
0001
0000
1000
0001
0100
0010
0000
,
0010
1000
0000
0001
0100
0010
1000
0010
,
1000
0100
1000
0010
1000
0000
0101
0000
,
0001
0010
0001
0100
0001
0000
1100
0000
,
0010
0100
0000
0010
1000
0100
0010
0000
,
0001
0100
0000
1001
0000
1001
0000
0010
,
0100
1000
0100
0010
0100
1000
0100
0010
,
0100
1000
0010
0100
0001
1000
0010
0100
,
0002
0000
2000
0000
3003
0010
0100
0010
,
0200
0002
0000
0303
0200
2000
0000
3300
,
0010
1000
0010
0100
0010
1000
0010
0100
,
0010
1000
0100
0010
0001
1000
0100
0010
,
0002
0000
2000
0000
3003
0010
0100
0001
,
0020
2000
0000
3030
0020
0002
0000
0033
,
0100
0001
1000
0011
,
0100
1000
0010
1100
,
0010
1000
0001
0110
,
0001
0000
1000
0000
0010
1000
0100
0001
,
0100
2000
0000
3010
0100
0001
0010
0000
,
0100
0020
0000
0031
1000
0100
0010
0000
,
0100
0020
0000
0130
1000
0001
0010
0000
,
0100
0010
0001
0010
0100
1000
0100
1000
,
0001
0010
0100
1000
0001
0010
0100
1000
,
0010
0000
1100
0000
0101
0000
1000
0100
,
0002
0100
1003
1001
,
2000
0100
3001
1001
,
1000
0100
0010
0001
1000
0100
0010
0001
,
1000
0011
1001
0100
,
2000
0010
3001
1001
,
0002
0010
1003
1001
,
0100
0001
0010
0001
1000
0100
0010
0100
,
1000
0010
0100
0001
1000
0010
0100
0001
,
0010
0100
1000
0000
0001
0000
0101
0000
,
1000
0000
1100
0000
0010
0100
0100
0000
,
0010
0100
0001
0100
0010
1000
0001
1000
,
0010
0100
0001
1000
0010
0100
0001
1000
,
0010
1000
0100
0000
1000
0000
1010
0000
,
0001
0000
0011
0000
1000
0000
0001
1000
,
0100
0000
0000
0000
;

//---------------dance-double - ----------------
#NOTES:
     dance-double:
     :
     Challenge:
     8:
     0.484760,0.484429,0.203970,0.092714,0.088078,366.000000,344.000000,22.000000,10.000000,0.000000,0.000000,0.484760,0.484429,0.203970,0.092714,0.088078,366.000000,344.000000,22.000000,10.000000,0.000000,0.000000:
// measure 0
00000000
00000000
00000000
00000000
,  // measure 1
00000000
00000000
00000000
00000000
,  // measure 2
00000000
00000000
00000000
00000000
,  // measure 3
00000000
00000000
00000000
00000000
00000000
00010000
10000000
00010000
,  // measure 4
00100000
00010000
01000000
00100000
10000000
01000000
00100000
00010000
,  // measure 5
00001000
00000100
00000010
00000100
00001000
00000010
00000100
00000001
,  // measure 6
00000010
00000100
00001100
00000000
00000001
00000000
00001000
00000100
,  // measure 7
00000001
00000000
00000101
00000000
00000100
00010000
00000100
00010000
,  // measure 8
00001000
00010000
01000000
00100000
00010000
01000000
00100000
10000000
,  // measure 9
01000000
00100000
00010000
00100000
00001000
00010000
00000010
00001000
,  // measure 10
00000001
00001000
00001100
00000000
00000010
00000000
00000001
00000010
,  // measure 11
00001000
00000010
00000001
00000000
00000010
00000100
00001000
00000010
,  // measure 12
00010000
00001000
01000000
00000000
00100000
00010000
00100000
00000000
,  // measure 13
00010000
10000000
01000000
00000000
00100000
00001000
00010000
00000000
,  // measure 14
00000100
00001000
00000100
00000010
00000100
00001000
00000100
00000000
,  // measure 15
00010000
00000100
00010000
00001000
00010000
00000010
00010000
00000010
,  // measure 16
00000100
00000001
00000010
00000000
00000100
00001000
00000001
00000000
,  // measure 17
00000100
00001000
00000100
00000000
00000001
00000010
00000100
00001000
,  // measure 18
00010000
00000100
00001000
00000000
00110000
00000000
01010000
00000000
,  // measure 19
00100000
00020000
00000000
10000000
00000000
01000000
00000000
00130000
,  // measure 20
01000000
10000000
01000000
00100000
01000000
00010000
01000000
00100000
,  // measure 21
01000000
00010000
01000000
00010000
01000000
00010000
01000000
00010000
,  // measure 22
00100000
00001000
00011000
00000000
00001100
00000000
00000110
00000010
,  // measure 23
00000001
00002000
00000000
00000000
00003010
00000002
00000000
00000000
,  // measure 24
00000013
00001000
00000010
00000100
00000010
00000001
00000010
00000100
,  // measure 25
00000010
00001000
00000010
00001000
00000010
00001000
00000010
00001000
,  // measure 26
00000100
00010000
00011000
00000000
01010000
00000000
01100000
00100000
,  // measure 27
10000000
02000000
00000000
00000000
03100000
00020000
00000000
00000000
,  // measure 28
01030000
00000000
00010000
00100000
00000000
00000000
00010000
01000000
00000000
00000000
00010000
00000000
10000000
00000000
00000000
00000000
,  // measure 29
01000000
00000000
00100000
00010000
00000000
00000000
00100000
00001000
00000000
00000000
00001000
00000000
00011000
00000000
00000000
00000000
,  // measure 30
00000100
00000000
00000010
00000001
00000000
00000000
00000010
00000100
00000000
00000000
00000001
00000000
00001001
00000000
00000000
00000000
,  // measure 31
00000001
00000000
00001000
00000100
00000000
00000000
00001000
00000010
00000000
00000000
00010000
00000000
00000100
00000000
00010000
00000000
,  // measure 32
00000100
00020000
00001000
00000000
00000100
00030100
00010000
00001000
,  // measure 33
00100000
02000000
10000000
00000000
03100000
00100000
01000000
00010000
,  // measure 34
00100000
00020000
01000000
00000000
00100000
00130000
00001000
00000000
,  // measure 35
00010000
00000000
00000100
00000000
00000100
00001000
00000100
00000000
00001000
00000001
00001000
00000001
00001000
00000000
00000001
00000000
,  // measure 36
00001000
00000010
00000100
00000001
00001000
00000010
00000100
00000001
,  // measure 37
00000010
00000100
00001000
00010000
00100000
00010000
01000000
00100000
,  // measure 38
10000000
01000000
01010000
00000000
10000000
01000000
01010000
00000000
,  // measure 39
00010000
01000000
11000000
00000000
00010000
01000000
11000000
00000000
,  // measure 40
10000000
01000000
00100000
00010000
10000000
01000000
00100000
00010000
,  // measure 41
00001000
00000100
00010000
00000100
00001000
00000010
00000100
00000001
,  // measure 42
00001000
00000100
00000101
00000000
00001000
00000100
00000101
00000000
,  // measure 43
00000001
00000100
00001100
00000000
00000001
00000100
00001100
00000000
,  // measure 44
00000001
00000010
00000100
00001000
00000001
00000010
00000100
00001000
,  // measure 45
00000100
00010000
00001000
01000000
00010000
00100000
01000000
10000000
,  // measure 46
00010000
00000000
00100000
00010000
00100000
00000000
00000000
00000000
00010000
00000000
10000000
00010000
10000000
00000000
00000000
00000000
,  // measure 47
00010000
00000000
00100000
00010000
00100000
00000000
00000000
00000000
00010000
00000000
10000000
00010000
10000000
00000000
00000000
00000000
,  // measure 48
00100000
01000000
00010000
10000000
00100000
01000000
00010000
10000000
,  // measure 49
01000000
00100000
00001000
00010000
00000100
00001000
00000010
00000100
,  // measure 50
00000001
00000000
00000010
00000100
00000010
00000000
00000000
00000000
00000001
00000000
00001000
00000100
00001000
00000000
00000000
00000000
,  // measure 51
00000001
00000000
00000010
00000100
00000010
00000000
00000000
00000000
00000001
00000000
00001000
00000100
00001000
00000000
00000001
00000000
,  // measure 52
00000022
00000033
00000000
00000000
;
