#TITLE:Someone Great;
#SUBTITLE:;
#ARTIST:LCD Soundsystem;
#TITLETRANSLIT:;
#SUBTITLETRANSLIT:;
#ARTISTTRANSLIT:;
#GENRE:Dance;
#CREDIT:;
#BANNER:someonegreat-bn.png;
#BACKGROUND:someonegreat-bg.png;
#LYRICSPATH:;
#CDTITLE:;
#MUSIC:Someone Great.ogg;
#OFFSET:-0.010000;
#SAMPLESTART:25.190001;
#SAMPLELENGTH:12.000000;
#SELECTABLE:YES;
#BPMS:0.000000=113.010002
;
#STOPS:
;
#BGCHANGES:;
#KEYSOUNDS:;
#ATTACKS:;

//---------------dance-single - ----------------
#NOTES:
     dance-single:
     :
     Hard:
     7:
     0.354669,0.369399,0.130141,0.290314,0.095103,248.000000,235.000000,13.000000,29.000000,0.000000,0.000000,0.354669,0.369399,0.130141,0.290314,0.095103,248.000000,235.000000,13.000000,29.000000,0.000000,0.000000:
0000
0000
0000
0000
,
0000
0000
0000
0000
,
0000
0000
0000
0000
,
0000
0000
0000
0000
,
0010
0000
0000
0000
1000
0000
0100
0000
0010
0000
0001
0000
0000
0001
0000
0000
,
0001
0000
0000
0000
0001
0000
0010
0000
0100
0000
1000
0000
0000
1000
0000
0000
,
1000
0000
0000
0000
0001
0000
0100
0000
0010
0000
1000
0000
0000
1000
0000
0000
,
1000
0000
0000
0000
1000
0000
0010
0000
0100
0000
0001
0000
0000
0001
0000
0000
,
0001
0000
0000
0000
0100
0000
0010
0000
1000
0000
0010
0000
0000
0010
0000
0000
,
0010
0000
0000
0000
0100
0000
0001
0000
0010
0000
0001
0000
0000
0001
0000
0000
,
0001
0000
0000
0000
1000
0000
0001
0000
0100
0000
0010
0000
0000
0010
0000
0000
,
0010
0000
1000
0001
1000
0100
0000
0100
,
1000
0010
0100
0001
0010
0010
0001
1000
,
0020
0000
0130
0001
1000
0010
0000
0010
,
0200
0000
0302
0000
0003
0000
0100
0010
,
2000
0000
0000
0000
3000
0000
0000
0001
2000
0000
0000
0000
3000
0000
0010
0000
,
1000
0100
0010
0100
1000
1000
0001
0100
,
0020
0000
0130
0001
1000
0010
0000
0010
,
2000
0000
3020
0000
0030
0000
0010
0100
,
0002
0000
0000
0000
0003
0000
0000
1000
0002
0000
0000
0000
0003
0000
1000
0000
,
0010
1000
0100
0010
0001
0001
1000
0010
,
0200
0000
0301
0010
0100
0010
0000
0001
,
2000
0000
3002
0000
0003
0000
0010
0100
,
0020
0000
0000
0000
0030
0000
0000
0100
0020
0000
0000
0000
0030
0000
0001
0000
,
1000
0010
0100
0010
1000
1000
0001
0100
,
0002
0000
1003
0100
0010
0100
0000
0100
,
2000
0000
3020
0000
0030
0000
0100
0010
,
0200
0000
0000
0000
0300
0000
0000
0010
0200
0000
0000
0000
0301
0000
0000
0000
,
1100
0000
0110
0010
0010
0001
0000
0001
,
1000
0000
0010
0100
0010
0000
1000
0001
,
0011
0000
0110
0100
0100
1000
0000
1000
,
0001
0000
1000
0001
1000
0000
0010
0000
,
1001
0000
0110
0010
1000
0001
0000
0001
,
0100
0000
0010
0100
0010
0000
1000
0001
,
0101
0000
1010
1000
0100
1000
0000
1000
,
0010
0000
1000
0100
1000
0000
0002
0000
,
1003
0000
0000
0000
0010
0000
0100
0000
0001
0000
0100
0000
0000
0010
0000
0000
,
0100
0000
0000
0000
0001
0000
0010
0000
0100
0000
1000
0000
0000
0010
0000
0000
,
1000
0000
0000
0000
0010
0000
1000
0000
0010
0000
0100
0000
0000
0001
0000
0000
,
0010
0000
0000
0000
0100
0000
0001
0000
0100
0000
0010
0000
0000
0100
0000
0000
,
0010
0000
0000
0000
0110
0000
0000
0000
0100
0000
0001
0000
0000
1000
0000
0000
,
0001
0000
0000
0000
0110
0000
0000
0000
0010
0000
1000
0000
0000
0001
0000
0000
,
1000
0000
0000
0000
1001
0000
0000
0000
0010
0000
0100
0000
0000
0010
0000
0000
,
0100
0000
0000
0000
1001
0000
0000
0000
0001
0000
0010
0000
0000
0100
0000
0000
,
1001
0200
0000
0320
0000
0230
0000
0320
,
0000
0230
0000
0320
0000
0230
0000
0320
,
0000
0030
0000
0000
0000
0000
0000
0000
;

//---------------dance-single - ----------------
#NOTES:
     dance-single:
     :
     Medium:
     5:
     0.271722,0.277049,0.000000,0.210227,0.000000,190.000000,190.000000,0.000000,21.000000,8.000000,0.000000,0.271722,0.277049,0.000000,0.210227,0.000000,190.000000,190.000000,0.000000,21.000000,8.000000,0.000000:
0000
0000
0000
0000
,
0000
0000
0000
0000
,
0000
0000
0000
0000
,
0000
0000
0000
0000
,
0010
0000
1000
0100
1000
0000
0010
0000
,
0010
0000
1000
0100
1000
0000
0000
0000
,
0100
0000
0001
0010
0001
0000
0100
0000
,
0100
0000
0001
0010
0001
0000
0000
0000
,
1000
0000
0100
0010
0100
0000
1000
0000
,
1000
0000
0100
0010
0100
0000
0000
0000
,
0001
0000
1000
0010
1000
0000
0001
0000
,
0001
0000
1000
0010
1000
0000
0000
0000
,
0010
0000
1000
0000
0001
1000
0001
0000
,
2000
0000
3010
0000
0000
0000
0000
0010
,
0100
0000
0001
0010
0001
0000
1000
0100
,
2000
0000
3000
0000
M002
0000
0003
1000
,
010M
0000
1000
0000
0010
1000
0010
0000
,
0100
0000
0001
0000
0010
0000
0000
0001
,
1000
0000
0010
1000
0010
0000
0100
0010
,
0200
0000
0300
0000
0M20
0000
0030
1000
,
00M1
0000
0100
0001
0100
0000
0001
0000
,
0010
0000
0100
0000
0010
0000
0000
0100
,
0010
0000
0001
0100
0001
0000
1000
0010
,
2000
3000
M020
0030
,
01M0
0000
0010
1000
0010
0000
1000
0000
,
0001
0000
0100
0000
0000
0000
0000
0010
,
0100
0000
0001
0010
0001
0000
0100
0001
,
0200
0300
0M02
1003
,
001M
0000
0010
0000
0010
1000
0000
1000
,
0000
0000
0001
1000
0001
0000
2000
0000
,
3001
0000
0001
0000
0001
0100
0000
0100
,
0000
0000
1000
0001
1000
0000
0002
0000
,
0103
0000
0100
0000
0100
0010
0000
0010
,
0000
0000
0100
0010
0100
0000
0020
0000
,
1030
0000
1000
0000
1000
0001
0000
0001
,
0000
0000
0001
1000
0001
0000
2000
0000
,
3001
0000
0010
0001
0010
0000
0001
0000
,
0001
0000
0010
0001
0010
0000
0000
1000
,
1000
0000
0100
1000
0100
0000
1000
0000
,
1000
0000
0100
1000
0100
0000
0000
0001
,
1000
0000
1000
0000
1000
0010
1000
0000
,
1000
0000
1000
0010
1000
0000
1000
0000
,
0001
0000
0001
0100
0001
0000
0001
0000
,
0001
0000
0001
0100
0001
0000
0001
0000
,
1000
0200
0000
0320
0000
0230
0000
0320
,
0000
0230
0000
0320
0000
0230
0000
0320
,
0000
0030
0000
0000
0000
0000
0000
0000
;

//---------------dance-single - ----------------
#NOTES:
     dance-single:
     :
     Easy:
     2:
     0.108689,0.184699,0.000000,0.170184,0.000000,76.000000,76.000000,0.000000,17.000000,0.000000,0.000000,0.108689,0.184699,0.000000,0.170184,0.000000,76.000000,76.000000,0.000000,17.000000,0.000000,0.000000:
0000
0000
0000
0000
,
0000
0000
0000
0000
,
0000
0000
0000
0000
,
0000
0000
0000
0000
,
1000
1000
0010
0000
,
1000
0000
0000
0000
,
0001
0001
0100
0000
,
0001
0000
0000
0000
,
0100
0100
0010
0000
,
0100
0000
0000
0000
,
0010
0010
1000
0000
,
0010
0000
0000
0000
,
1000
0000
0001
0000
,
0000
0000
0000
0000
,
0100
0000
0000
0000
,
0020
0030
0002
0003
,
1000
0000
0010
0000
,
0000
0000
0000
0000
,
0100
0000
0000
0000
,
0020
0030
0002
0003
,
1000
0000
0010
0000
,
0000
0000
0000
0000
,
1000
0000
0000
0000
,
0020
0030
0200
0300
,
0001
0000
0010
0000
,
0000
0000
0000
0000
,
0001
0000
0000
0000
,
2000
3000
0002
0103
,
0010
0010
0010
0000
,
0000
0000
0000
0000
,
0001
0001
0001
0000
,
0000
0000
0000
0000
,
1000
1000
1000
0000
,
0000
0000
0000
0000
,
0100
0100
0100
0000
,
0000
0000
0000
2000
,
3010
0010
1000
0000
,
0010
0000
0000
0000
,
0100
0100
0001
0000
,
0100
0000
0000
0000
,
0001
0001
0010
0001
,
0010
0000
0000
0000
,
1000
1000
0010
1000
,
0010
0000
0000
0000
,
0000
0200
0000
0320
0000
0230
0000
0320
,
0000
0230
0000
0320
0000
0230
0000
0320
,
0000
0030
0000
0000
0000
0000
0000
0000
;

//---------------dance-single - ----------------
#NOTES:
     dance-single:
     :
     Beginner:
     1:
     0.070076,0.115124,0.040043,0.010011,0.000000,49.000000,45.000000,4.000000,1.000000,0.000000,0.000000,0.070076,0.115124,0.040043,0.010011,0.000000,49.000000,45.000000,4.000000,1.000000,0.000000,0.000000:
0000
0000
0000
0000
,
0000
0000
0000
0000
,
0000
0000
0000
0000
,
0000
0000
0000
0000
,
0001
0000
0000
0000
,
1001
0000
0000
0000
,
1000
0000
0000
0000
,
1001
0000
0000
0000
,
0010
0000
0000
0000
,
0110
0000
0000
0000
,
0100
0000
0000
0000
,
0110
0000
0000
0000
,
0001
0000
0100
0000
,
0000
0000
0000
0000
,
0010
0000
0000
0000
,
0010
0000
0000
0000
,
1000
0000
0100
0000
,
0000
0000
0000
0000
,
0010
0000
0000
0000
,
0010
0000
0000
0000
,
1000
0000
0001
0000
,
0000
0000
0000
0000
,
0100
0000
0000
0000
,
0100
0000
0000
0000
,
0001
0000
1000
0000
,
0000
0000
0000
0000
,
0010
0000
0000
0000
,
0010
0000
0000
0000
,
1000
0000
1000
0000
,
0000
0000
0000
0000
,
0100
0000
0100
0000
,
0000
0000
0000
0000
,
0010
0000
0010
0000
,
0000
0000
0000
0000
,
0001
0000
0001
0000
,
0000
0000
0000
0000
,
0001
0000
0100
0000
,
0000
0000
0000
0000
,
0001
0000
1000
0000
,
0000
0000
0000
0000
,
1000
1000
0000
0000
,
0010
0010
0000
0000
,
0100
0100
0000
0000
,
0001
0001
0000
0000
,
2000
0000
0000
0000
,
0000
0000
0000
0000
,
3000
0000
0000
0000
;

//---------------dance-double - ----------------
#NOTES:
     dance-double:
     :
     Hard:
     9:
     0.532003,0.507924,0.570616,0.080086,0.365395,372.000000,315.000000,57.000000,8.000000,0.000000,0.000000,0.532003,0.507924,0.570616,0.080086,0.365395,372.000000,315.000000,57.000000,8.000000,0.000000,0.000000:
// measure 0
00000000
00000000
00000000
00000000
,  // measure 1
00000000
00000000
00000000
00000000
,  // measure 2
00000000
00000000
00000000
00000000
,  // measure 3
00000000
00000000
00000000
00000000
,  // measure 4
00101000
00000000
00000000
00000000
00100000
00010000
00001000
00010000
00100000
00000000
01000000
00000000
00000000
10000000
00000000
00000000
,  // measure 5
01100000
00000000
00000000
00000000
01000000
00010000
00001000
00010000
01000000
00000000
00001000
00000000
00000000
00010000
00000000
00000000
,  // measure 6
00011000
00000000
00000000
00000000
00000100
00001000
00010000
00001000
00000100
00000000
00001000
00000000
00000000
00000010
00000000
00000000
,  // measure 7
00000110
00000000
00000000
00000000
00000010
00001000
00010000
00001000
00000010
00000000
00000100
00000000
00000000
00000001
00000000
00000000
,  // measure 8
00000101
00000000
00000000
00000000
00000100
00001000
00010000
00001000
00000100
00000000
00010000
00000000
00000000
01000000
00000000
00000000
,  // measure 9
01010000
00000000
00000000
00000000
10000000
00100000
01000000
00100000
10000000
00000000
00010000
00000000
00000000
10000000
00000000
00000000
,  // measure 10
10100000
00000000
00000000
00000000
00100000
00010000
00001000
00010000
00100000
00000000
00010000
00000000
00000000
00001000
00000000
00000000
,  // measure 11
00001010
00000000
00000000
00000000
00000001
00000100
00000010
00000100
00000001
00000000
00001000
00000000
00000000
00000010
00000100
00000000
,  // measure 12
00001000
00001000
00010000
00010000
00100000
00100000
10000000
10000000
,  // measure 13
10010000
00000000
00000000
01000000
00010000
01000000
00100000
01000000
00010000
00000000
00100000
00000000
00000000
01000000
00000000
00000000
,  // measure 14
11000000
00000000
00000000
00000000
01010000
00000000
00000000
00001000
00010000
00000000
00000000
00000000
00010100
00000000
00001000
00000000
,  // measure 15
00000010
00000000
00000000
00000000
00001001
00000000
00000010
00000100
00000010
00000000
00000000
00000000
00000100
00000000
00010000
00000000
,  // measure 16
00001000
00001000
00000100
00000100
00000001
00000001
00000100
00000100
,  // measure 17
00001100
00000000
00000000
00010000
00001000
00010000
00000100
00010000
00001000
00000000
00100000
00000000
00000000
00000000
00010000
00000000
,  // measure 18
00110000
00000000
00000000
00000000
10100000
00000000
00000000
01000000
00100000
00000000
00000000
00000000
01001000
00000000
00010000
00000000
,  // measure 19
01000000
00000000
00000000
00000000
00101000
00000000
00010000
00001000
00010000
00000000
00000000
00000000
00001000
00000000
00100000
00000000
,  // measure 20
01000000
01000000
10000000
10000000
01000000
01000000
00010000
00010000
,  // measure 21
00011000
00000000
00000000
00000100
00001000
00000100
00000010
00000100
00001000
00000000
00000001
00000000
00000000
00000000
00000010
00000000
,  // measure 22
00000110
00000000
00000000
00000000
00010100
00000000
00000000
00001000
00000100
00000000
00000000
00000000
00011000
00000000
00100000
00000000
,  // measure 23
00010000
00000000
00000000
00000000
01100000
00000000
10000000
00010000
10000000
00000000
00000000
00000000
00100000
00000000
10000000
00000000
,  // measure 24
01000000
01000000
00010000
00010000
00001000
00001000
00000010
00000010
,  // measure 25
00000011
00000000
00000000
00000100
00001000
00000100
00000001
00000100
00001000
00000000
00000100
00000000
00000000
00000000
00000001
00000000
,  // measure 26
00001100
00000000
00000000
00000000
00010010
00000000
00000000
00010000
00001000
00000000
00100000
00000000
00001000
00000000
01000000
00000000
,  // measure 27
00110000
00000000
01000000
00000000
10000000
00000000
00100000
01000000
00100000
00000000
00000000
00000000
01010000
00000000
00000000
00000000
,  // measure 28
10000000
01000000
00010000
00001000
00000010
00000001
00000100
00001000
,  // measure 29
00010000
00000000
11000000
00110000
00011000
00000000
00000110
00000000
,  // measure 30
00000001
00000100
00001000
00010000
00100000
10000000
01000000
00010000
,  // measure 31
00001000
00000000
00000101
00001010
00011000
00000000
00110000
00000000
,  // measure 32
00010000
00100000
10000000
00100000
00010000
00001000
00000100
00000001
,  // measure 33
00000100
00000000
00001100
00010100
00011000
00000000
01010000
00000000
,  // measure 34
00010000
01000000
10000000
01000000
00010000
00001000
00000010
00000001
,  // measure 35
00000010
00000000
00001010
00001100
00010100
00000000
00011000
00000000
,  // measure 36
01010000
00000000
00000000
10000000
01000000
10000000
00100000
10000000
00010000
00000000
01000000
00000000
00000000
00010000
00000000
00000000
,  // measure 37
00110000
00000000
00000000
00100000
01000000
00100000
00010000
00100000
00001000
00000000
00010000
00000000
00000000
00000100
00000000
00000000
,  // measure 38
00001100
00000000
00000000
00000001
00000010
00000001
00000100
00000001
00001000
00000000
00000010
00000000
00000000
00010000
00000000
00000000
,  // measure 39
00010010
00000000
00000000
00000100
00000010
00000100
00001000
00000100
00010000
00000000
00001000
00000000
00000000
00100000
00000000
00000000
,  // measure 40
00101000
00000000
00000000
00000000
00110000
00000000
00000000
00010000
01000000
00000000
00100000
10000000
00000000
00100000
01000000
00000000
,  // measure 41
01010000
00000000
00000000
00000000
00011000
00000000
00000000
00000100
00001000
00000000
00000010
00000100
00000000
00000001
00000010
00000000
,  // measure 42
00000011
00000000
00000000
00000000
00001100
00000000
00000000
00000100
00010000
00000000
00001000
00000100
00000000
00001000
00010000
00000000
,  // measure 43
00011000
00000000
00000000
00000000
00110000
00000000
00000000
01000000
10000000
00000000
00100000
01000000
00000000
00010000
00100000
00000000
,  // measure 44
00011000
00002000
00000000
00023000
00000000
00032000
00000000
00023000
,  // measure 45
00000000
00032000
00000000
00023000
00000000
00032000
00000000
00023000
,  // measure 46
00000000
00030000
00000000
00000000
00000000
00000000
00000000
00000000
;

//---------------dance-double - ----------------
#NOTES:
     dance-double:
     :
     Medium:
     6:
     0.337507,0.346312,0.380411,0.410443,0.000000,236.000000,198.000000,38.000000,41.000000,0.000000,0.000000,0.337507,0.346312,0.380411,0.410443,0.000000,236.000000,198.000000,38.000000,41.000000,0.000000,0.000000:
00000000
00000000
00000000
00000000
,
00000000
00000000
00000000
00000000
,
00000000
00000000
00000000
00000000
,
00000000
00000000
00000000
00000000
,
10000000
00000000
01000000
00100000
00002000
00020000
00000000
00033000
,
00011000
00000000
00000100
00001000
00000020
00000200
00000000
00000330
,
00001001
00000000
00000010
00001000
00000200
00020000
00000000
00030300
,
00010100
00000000
00001000
00100000
00020000
02000000
00000000
03030000
,
01010000
00000000
10000000
01000000
00200000
00020000
00000000
00330000
,
00110000
00000000
00001000
00010000
00000020
00000200
00000000
00000330
,
00000110
00000000
00000100
00000001
00002000
00000020
00000000
00003030
,
00001010
00000000
00000100
00010000
00001000
00010000
00000000
00001000
,
01000000
00010000
01000000
00010000
01000000
00000000
10010000
00000000
,
00100000
00000000
01000000
00010000
10000000
00000000
00100000
01000000
,
00200000
00000000
00320000
00000000
00030000
00000000
00001000
00010000
,
00001000
00000000
00000000
00000000
00011000
00000000
00000000
00000100
,
00001000
00000010
00001000
00000010
00001000
00000000
00000110
00000000
,
00000001
00000000
00000100
00000001
00001000
00000000
00000100
00001000
,
00000200
00000000
00002300
00000000
00003000
00000000
00010000
00001000
,
00010000
00000000
00000000
00000000
00011000
00000000
00000000
00100000
,
00010000
01000000
00010000
01000000
00010000
00000000
01010000
00000000
,
10000000
00000000
00100000
10000000
00010000
00000000
01000000
00010000
,
02000000
00000000
03020000
00000000
00030000
00000000
00001000
00010000
,
00001000
00000000
00000000
00000000
00011000
00000000
00000000
00000100
,
00010000
00001000
00010000
00001000
00010000
00000000
00010100
00000000
,
00001000
00000000
00000010
00000100
00000001
00000000
00000100
00000010
,
00002000
00000000
00003200
00000000
00000300
00000000
00010000
00001000
,
00010000
00000000
00011000
00001000
,
00101000
00000000
00110000
00000000
00100000
01000000
00000000
01100000
,
00000000
00000000
10000000
00010000
10000000
00000000
00010000
00000000
,
01100000
00000000
01010000
00000000
01000000
00001000
00000000
01001000
,
00000000
00000000
00010000
00001000
00010000
00000000
00000010
00000000
,
00001100
00000000
00001010
00000000
00001000
00000001
00000000
00001001
,
00000000
00000000
00000100
00001000
00000100
00000000
00010000
00000000
,
00011000
00000000
00101000
00000000
00001000
01000000
00000000
01001000
,
00000000
00000000
01000000
00100000
01000000
00000000
00100000
00000000
,
10200000
00000000
01300000
00000000
00020000
00200000
00000000
00330000
,
00201000
00000000
00310000
00000000
00100000
00000000
00001000
00010000
,
00000200
00000000
00001000
00000000
00000001
00000000
00001300
00000100
,
00010000
00000000
00001000
01000000
00010000
01000000
00000000
00000000
,
10010000
00000000
01100000
00000000
02000000
00020000
00000000
03030000
,
01010000
00000000
00110000
00000000
00002000
00020000
00000000
00033000
,
00001100
00000000
00001010
00000000
00000020
00000200
00000000
00000330
,
00001001
00000000
00000110
00000000
00000010
00010000
00001000
00000000
,
00011000
00002000
00000000
00023000
00000000
00032000
00000000
00023000
,
00000000
00032000
00000000
00023000
00000000
00032000
00000000
00023000
,
00000000
00030000
00000000
00000000
00000000
00000000
00000000
00000000
;

//---------------dance-double - ----------------
#NOTES:
     dance-double:
     :
     Easy:
     2:
     0.131571,0.184699,0.010011,0.240259,0.000000,92.000000,91.000000,1.000000,24.000000,0.000000,0.000000,0.131571,0.184699,0.010011,0.240259,0.000000,92.000000,91.000000,1.000000,24.000000,0.000000,0.000000:
00000000
00000000
00000000
00000000
,
00000000
00000000
00000000
00000000
,
00000000
00000000
00000000
00000000
,
00000000
00000000
00000000
00000000
,
10000000
10000000
00000000
00000000
,
00010000
00000000
00000000
00100000
,
00001000
00001000
00000000
00000000
,
00010000
00000000
00000000
00000000
,
00000100
00000100
00000000
00000000
,
00001000
00000000
00000000
00000001
,
00000010
00000010
00000000
00000000
,
00000100
00000000
00000000
00000000
,
00001000
00010000
00001000
00010000
,
00001000
00000000
00000000
00000000
,
00200000
00300000
00000000
00010000
,
02000000
03000000
02000000
03000000
,
00001000
00100000
00001000
00100000
,
00001000
00000000
00000000
00000000
,
00020000
00030000
00000000
00000000
,
00000020
00000030
00000020
00000030
,
00000100
00000001
00000100
00000001
,
00000100
00000000
00000000
00000000
,
00000020
00000030
00000000
00000000
,
00020000
00030000
00020000
00030000
,
00001000
00010000
00001000
00010000
,
00001000
00000000
00000000
00000000
,
00200000
00300000
00000000
00000000
,
00020000
00030000
20000000
30100000
,
01000000
01000000
00010000
00010000
,
00100000
00000000
00000000
00001000
,
00010000
00010000
00000010
00000010
,
00000100
00000000
00000000
00000001
,
00001000
00001000
00000100
00000100
,
00010000
00000000
00000000
00001000
,
00100000
00100000
00010000
00010000
,
01000000
00000000
00000000
00000000
,
02200000
00000000
00000000
03300000
,
00000000
00000000
00000000
00100000
,
00002000
00000000
00000000
00000000
00000000
00000000
00000000
00020000
,
00000000
00000000
00000000
00033000
00000000
00000000
00000000
00000000
,
00100000
00100000
00000000
00000000
,
00001000
00001000
00000000
00000000
,
00000100
00000100
00000000
00000000
,
00001000
00001000
00000000
00000000
,
00000000
00020000
00000000
00032000
00000000
00023000
00000000
00032000
,
00000000
00023000
00000000
00032000
00000000
00023000
00000000
00032000
,
00000000
00003000
00000000
00000000
00000000
00000000
00000000
00000000
;
