#VERSION:0.83;
#TITLE:Solitude Sun;
#SUBTITLE:;
#ARTIST:DJ Sharpnel;
#TITLETRANSLIT:;
#SUBTITLETRANSLIT:;
#ARTISTTRANSLIT:;
#GENRE:Hardcore;
#ORIGIN:;
#CREDIT:;
#BANNER:solitudesun-bn.png;
#BACKGROUND:solitudesun-bg.png;
#PREVIEWVID:;
#JACKET:;
#CDIMAGE:;
#DISCIMAGE:;
#LYRICSPATH:;
#CDTITLE:;
#MUSIC:Solitude Sun.ogg;
#OFFSET:-1.392000;
#SAMPLESTART:50.751999;
#SAMPLELENGTH:12.000000;
#SELECTABLE:YES;
#BPMS:0.000=174.900;
#STOPS:76.000=5.146;
#DELAYS:;
#WARPS:;
#TIMESIGNATURES:0.000=4=4;
#TICKCOUNTS:0.000=4;
#COMBOS:0.000=1;
#SPEEDS:0.000=1.000=0.000=0;
#SCROLLS:0.000=1.000;
#FAKES:;
#LABELS:0.000=Song Start;
#BGCHANGES:;
#KEYSOUNDS:;
#ATTACKS:
;

//---------------dance-single - ----------------
#NOTEDATA:;
#CHARTNAME:;
#STEPSTYPE:dance-single;
#DESCRIPTION:;
#CHARTSTYLE:;
#DIFFICULTY:Hard;
#METER:9;
#RADARVALUES:0.609125,0.680256,0.168311,0.130908,0.308570,456.000000,438.000000,18.000000,14.000000,0.000000,0.000000,0.000000,0.000000,0.000000,0.609125,0.680256,0.168311,0.130908,0.308570,456.000000,438.000000,18.000000,14.000000,0.000000,0.000000,0.000000,0.000000,0.000000;
#CREDIT:;
#NOTES:
0000
0000
0000
0000
,
0000
0000
0000
0000
,
0000
0000
0000
0000
,
0000
0000
0000
0000
,
1000
0000
0000
0000
0100
0000
0000
0000
0001
0000
0000
0100
1000
0000
0000
0000
,
0001
0000
0000
0000
0100
0000
0000
0000
1000
0000
0000
0100
0001
0000
0000
0000
,
0100
0000
0000
0000
0010
0000
0000
0000
1000
0000
0000
0010
0100
0000
0000
0000
,
0001
0000
0000
0000
0100
0000
0000
0000
0010
0000
0000
0100
0001
0000
0000
0000
,
0100
1000
0010
0100
0001
0010
0001
1000
,
0010
1000
0100
0010
0001
0100
0010
1000
,
0001
1000
0100
0010
0100
1000
0010
0100
,
0110
0000
0000
0000
1000
0000
0000
0001
1000
0000
0000
1000
0001
0000
0100
0000
,
0110
0000
0000
0000
1000
0000
0000
0010
0000
0000
0100
0000
0000
0000
0001
0000
,
0000
1000
0000
0000
0100
0000
0000
1000
0000
0000
0010
0000
0000
0000
0001
0000
,
0000
0100
0000
0000
1000
0000
0000
0100
0000
0000
0010
0000
0000
0000
0001
0000
,
0100
1000
0100
0000
0001
0100
0001
0010
,
0100
0000
0000
0000
0010
0000
0000
0001
0000
0000
1000
0000
0000
0000
0100
0000
,
0000
1000
0000
0000
0010
0000
0000
0100
0000
0000
0001
0000
0000
0000
0100
0000
,
0000
1000
0000
0000
0100
0000
0000
0001
0000
0000
0010
0000
0000
0000
0100
0000
,
0020
0030
0000
0000
1200
0000
0000
0000
0010
0000
0000
0000
0001
0000
0000
0000
,
0010
1000
0010
0001
,
0310
0021
0100
1000
,
0100
0001
0100
1000
,
0130
0000
0001
0100
0010
0000
0000
1000
,
0100
0010
0001
0100
0010
0000
0000
0010
,
1000
0100
0010
1000
0010
0000
0000
0100
,
0001
0010
1000
0010
0001
0000
0000
0001
,
0100
0010
1000
0100
0001
0000
0000
0100
,
1000
0001
0010
0100
0001
1000
0010
0100
,
1000
0010
0100
0001
0010
0100
0010
0001
,
1000
0001
0010
0100
1000
0100
0010
1000
,
0010
0000
0001
0000
1000
0000
0000
0000
0001
0000
0000
1000
0001
0000
0000
0001
,
1000
0010
0110
0000
0010
1000
0100
0000
,
0010
1000
0100
0000
0010
0001
0100
0000
,
0010
0001
0200
0000
0300
0000
1000
0010
,
1000
0000
0100
0000
0010
0000
0000
0010
0000
0000
0010
0000
0100
0000
1000
0010
,
1000
0000
0001
0000
0100
0000
0000
0100
0000
0000
0100
0000
0010
0000
1000
0001
,
1000
0001
0011
0000
0001
1000
0100
0000
,
0001
1000
0100
0000
0001
1000
0010
0000
,
0001
1000
0010
0100
0010
1000
0001
0000
,
0010
0100
0101
0000
2200
0000
0000
0000
,
3300
0001
0000
0020
,
0230
0000
0000
0000
0301
0010
0000
0010
0001
0000
0010
0000
0000
0000
0001
0000
,
1000
1100
0000
1000
0001
0100
0220
0000
,
0330
0000
0000
0000
0010
1000
0000
0010
0100
0000
0001
0000
1000
0000
0010
0000
,
0000
0000
0100
0000
0001
0100
0000
0100
0001
0000
0010
0000
0100
0000
1000
0000
,
0000
0000
0001
0000
1000
0010
0000
0100
0010
0000
1000
0000
0001
0000
0100
0000
,
0000
0000
0001
0000
1000
0100
0000
0000
1000
0100
0000
0000
0010
0001
0000
0000
,
0010
0001
0000
0000
0001
1000
0000
0100
0010
0000
0100
0000
1000
0000
0001
0000
,
0000
0000
0001
0000
1000
0001
0000
0001
1000
0000
0100
0000
0010
0000
0001
0000
,
0000
0000
1000
0000
0010
0100
0000
0100
0001
0000
1000
0000
0010
0000
0100
0000
,
0000
0000
1000
0000
0001
0100
0000
0000
0001
0100
0000
0000
0010
1000
0000
0000
,
0010
1000
0000
0000
0010
0100
0000
1000
0010
0000
1000
0000
0001
0000
0100
0000
,
0001
0000
1000
0000
0001
0010
0000
0100
0001
0000
1000
0000
0010
0000
0100
0000
,
0010
0000
1000
0000
0001
1000
0000
1000
0001
0000
0100
0000
0010
0000
1000
0000
,
0100
0000
0010
0000
0001
0010
0001
0000
1000
0000
0000
0000
0010
0100
0010
0000
,
1000
0000
0000
0000
0001
1000
0000
1000
0001
0000
0100
0000
1000
0000
0100
0000
,
0001
0000
0100
0000
0010
0001
0000
0010
1000
0000
0010
0000
0001
0000
0010
0000
,
1000
0000
0010
0000
0100
0001
0000
1000
0001
0000
0100
0000
1000
0000
0100
0000
,
0001
0000
0100
0000
1001
0000
0000
0000
0010
0000
0000
1000
0001
0000
0000
0001
,
1000
0001
0101
0000
1000
0100
0001
0000
,
1000
0010
0001
0000
0001
0100
1000
0000
,
0001
0010
2000
0000
3000
0000
0010
0100
,
0001
0000
1000
0000
0010
0000
0000
0010
0000
0000
0010
0000
0100
0000
0001
0010
,
0001
0000
0100
0000
1000
0000
0000
1000
0000
0000
1000
0000
0100
0000
0001
1000
,
0001
1000
1010
0000
1000
0100
0010
0000
,
0001
0100
0010
0000
1000
0100
0010
0001
,
0100
0010
0100
0001
1000
0010
1000
0000
,
0001
1000
1001
0000
0220
0000
0000
0000
,
0330
1000
0000
1001
,
1100
0000
0000
0000
0010
0001
0000
0001
0010
0000
0001
0000
0000
0000
1000
0000
,
0001
0101
0000
0001
1000
0100
0020
0000
,
0000
0000
0000
0030
;

//---------------dance-single - ----------------
#NOTEDATA:;
#CHARTNAME:;
#STEPSTYPE:dance-single;
#DESCRIPTION:;
#CHARTSTYLE:;
#DIFFICULTY:Medium;
#METER:6;
#RADARVALUES:0.407419,0.538595,0.177661,0.280518,0.000000,305.000000,286.000000,19.000000,30.000000,0.000000,0.000000,0.000000,0.000000,0.000000,0.407419,0.538595,0.177661,0.280518,0.000000,305.000000,286.000000,19.000000,30.000000,0.000000,0.000000,0.000000,0.000000,0.000000;
#CREDIT:;
#NOTES:
0000
0000
0000
0000
,
0000
0000
0000
0000
,
0000
0000
0000
0000
,
0000
0000
0000
0000
,
0010
1000
0020
0130
,
0100
0001
0200
0310
,
1000
0010
2000
3001
,
0001
0010
0002
1003
,
1001
0000
0001
0100
0001
0100
0001
0000
,
1001
0000
1000
0100
1000
0100
1000
0000
,
1001
0000
0001
0010
0001
0010
0001
0000
,
1001
0000
0000
0000
,
1000
0100
1000
0100
,
0010
0001
0010
0001
0010
0000
0001
0000
,
0100
0010
0100
0010
0100
0000
0010
0000
,
0100
0010
1000
0000
0010
0100
0001
0000
,
0001
0100
0001
0100
,
0010
1000
0010
1000
0010
0000
1000
0000
,
1000
0001
1000
0001
1000
0000
0001
0000
,
0200
0300
0000
0000
0100
0000
0000
0000
0100
0000
0000
0000
0100
0000
0000
0000
,
0100
0100
0100
0100
,
0100
0100
0100
0100
,
0100
0100
0100
0100
,
0100
0000
0100
0000
0001
0000
0000
1000
,
0001
1000
0010
0000
0100
0000
0000
0001
,
1000
0001
0100
0000
0010
0000
0000
1000
,
0010
1000
0001
0000
0100
0000
0000
0001
,
1000
0001
0100
0000
0010
0000
0000
0010
,
1000
0010
0100
0000
0010
0000
0000
0010
,
0100
0010
0001
0000
0010
0000
0100
0000
,
1000
0001
0100
0010
,
0100
0010
0000
0000
,
0000
1000
2100
0010
,
0100
3020
0000
0000
,
0130
0010
0200
0000
0000
0000
0301
1000
,
0001
1000
0002
0000
0000
1003
0000
0000
,
0000
0000
2000
0000
0000
3001
0000
0000
,
0000
0001
0012
0100
,
0010
0203
0000
0000
,
0310
0100
0010
0000
0000
0000
0000
0000
,
1000
0001
1000
0000
0002
0000
0000
0000
,
0003
0100
0000
0100
,
0100
0000
0010
1000
0010
1000
0000
0001
,
1000
0001
0000
0100
0001
0100
0001
0000
,
0000
0201
0001
0001
,
0301
1200
1000
1000
,
1300
0201
0001
0001
,
0301
0000
1000
0001
1000
0001
1000
0001
,
1000
0001
0020
0000
0001
0000
0001
0000
,
0031
1020
1000
1000
,
1030
0021
0001
0001
,
0031
0000
0100
0010
0100
0010
0100
0010
,
0100
0010
1000
0000
0100
0000
1000
0000
,
1100
0001
0100
0001
,
0101
0100
0010
0100
,
0110
0000
1000
0100
1000
0100
1000
0100
,
1000
0100
0010
0000
0001
0000
0010
0000
,
0011
0001
1000
0001
,
1001
1000
0100
1000
,
1100
1000
0000
0000
,
0000
0001
0210
0001
,
0010
0302
0000
0003
,
1000
0010
2000
0000
0000
0000
3001
0100
,
0001
0100
0002
0000
0000
1003
0000
0000
,
0000
0000
2000
0000
0000
3001
0000
0000
,
0000
0010
0120
1000
,
0100
2030
0000
0000
,
3001
0010
0002
0000
0000
0000
0000
0000
,
0103
1000
0200
0000
2300
0000
0000
0000
,
3000
0001
0000
0100
,
0010
0000
0100
0001
0100
0001
0000
1000
,
0010
1000
0000
0001
0100
0001
0200
0000
,
0300
0000
0000
0000
;

//---------------dance-single - ----------------
#NOTEDATA:;
#CHARTNAME:;
#STEPSTYPE:dance-single;
#DESCRIPTION:;
#CHARTSTYLE:;
#DIFFICULTY:Easy;
#METER:3;
#RADARVALUES:0.228422,0.306115,0.037402,0.065454,0.000000,171.000000,167.000000,4.000000,7.000000,0.000000,0.000000,0.000000,0.000000,0.000000,0.228422,0.306115,0.037402,0.065454,0.000000,171.000000,167.000000,4.000000,7.000000,0.000000,0.000000,0.000000,0.000000,0.000000;
#CREDIT:;
#NOTES:
0000
0000
0000
0000
,
0000
0000
0000
0000
,
0000
0000
0000
0000
,
0000
0000
0000
0000
,
0010
0000
0000
0100
,
0001
0000
0000
0010
,
0100
0000
0000
1000
,
0100
0000
0000
1000
,
0001
0100
0100
0000
,
0001
1000
1000
0000
,
0100
0001
0001
0000
,
0020
0000
0000
0000
,
0130
1000
0010
0000
,
1001
0000
0000
0000
,
1000
0001
0010
0000
,
0100
0010
0100
0010
,
0100
0010
0001
0000
,
0011
0000
0000
0000
,
1000
0100
0001
0000
,
0010
0100
0000
0100
,
0001
0100
0000
0010
,
1000
0010
0000
1000
,
0001
1000
0000
0001
,
0100
0001
1000
0000
,
0000
1000
0001
0000
,
0000
0010
0100
0000
,
0000
0100
0010
0000
,
0000
1000
0010
0000
,
0000
0100
0001
0000
,
0000
0001
0000
1000
,
0010
0100
0001
0010
,
0100
1000
0000
0000
,
0000
1000
0100
0100
,
0100
0100
0000
0000
,
1000
0001
0000
0001
,
1000
0002
0000
0000
,
0003
0200
0000
0000
,
0300
0001
0010
0010
,
0010
0010
0000
0000
,
0001
0100
0000
0000
,
0010
1000
0010
0000
,
0000
0000
0000
1000
,
1000
1000
0000
0000
,
0001
0000
1000
0000
,
0000
0010
1000
0100
,
0000
1100
0000
0000
,
0000
0001
0010
0100
,
0000
1000
1000
0001
,
0001
0001
0100
0001
,
0000
0110
0000
0000
,
0000
0001
1000
0100
,
0000
0010
0010
0100
,
0100
0100
1000
0001
,
0000
1000
0010
0100
,
0000
0001
0100
0010
,
1000
0001
0001
1000
,
1000
1000
0100
0010
,
0000
0001
0010
0100
,
1000
0002
0000
0000
,
0000
0103
0000
0000
,
0000
0100
0010
0010
,
0010
0010
0000
0000
,
1000
0001
0000
0001
,
1000
0002
0000
0000
,
0003
2000
0000
0000
,
3000
0010
1000
1000
,
1000
1000
0000
0000
,
0001
0100
0000
0000
,
0010
0100
0010
0000
,
0000
0000
0000
1000
,
1000
0001
0000
0000
,
1000
0000
0010
0200
,
0000
0000
0000
0300
;

//---------------dance-single - ----------------
#NOTEDATA:;
#CHARTNAME:;
#STEPSTYPE:dance-single;
#DESCRIPTION:;
#CHARTSTYLE:;
#DIFFICULTY:Beginner;
#METER:1;
#RADARVALUES:0.105528,0.167726,0.000000,0.000000,0.000000,79.000000,79.000000,0.000000,0.000000,0.000000,0.000000,0.000000,0.000000,0.000000,0.105528,0.167726,0.000000,0.000000,0.000000,79.000000,79.000000,0.000000,0.000000,0.000000,0.000000,0.000000,0.000000,0.000000;
#CREDIT:;
#NOTES:
0000
0000
0000
0000
,
0000
0000
0000
0000
,
0000
0000
0000
0000
,
0000
0000
0000
0000
,
0001
0000
0000
0000
,
0010
0000
0000
0000
,
0100
0000
0000
0000
,
1000
0000
0000
0000
,
1000
0000
0000
0000
,
0100
0000
0000
0000
,
0010
0000
0000
0000
,
0000
0000
0000
0000
,
1000
0000
0000
0000
,
0010
0000
0000
0000
,
1000
0000
0000
0000
,
0010
0010
0000
0000
,
0100
0000
0000
0000
,
0001
0000
0000
0000
,
0100
0000
0000
0000
,
0001
0001
0001
0000
,
0000
1000
0000
0000
,
0000
1000
1000
0000
,
0000
0001
0000
0000
,
0000
0100
0100
0000
,
0000
0010
0000
0000
,
0000
0010
0010
0000
,
0000
0100
0000
0000
,
0000
0001
0000
0000
,
0000
1000
0000
0000
,
0000
0010
0000
0000
,
0000
0000
0000
0000
,
0000
1000
0000
0000
,
0000
0001
0000
0000
,
0100
0100
0000
0000
,
0010
0010
0000
0000
,
0000
1000
0000
0000
,
0000
0001
0000
0000
,
0000
0100
0000
0000
,
0010
0010
0000
0000
,
0000
1000
0000
0000
,
0000
0001
0000
0000
,
0000
0000
0000
0100
,
0100
0000
0000
0000
,
0000
0000
0000
0000
,
0000
0001
0000
0000
,
0000
0010
0000
0000
,
0000
0100
0000
0000
,
0000
1000
1000
0000
,
0000
1000
0000
0000
,
0000
0100
0000
0000
,
0000
0010
0000
0000
,
0000
0001
0001
0000
,
0000
1000
0000
0000
,
0000
0001
0000
0000
,
0000
0100
0000
0000
,
0000
0010
0010
0000
,
0000
0010
0000
0000
,
0000
0100
0000
0000
,
0000
0000
0000
0000
,
0000
0010
0000
0000
,
0000
0100
0000
0000
,
0010
0010
0000
0000
,
1000
1000
0000
0000
,
0000
0001
0000
0000
,
0000
1000
0000
0000
,
0000
0010
0000
0000
,
1000
1000
0000
0000
,
0001
0000
0000
0000
,
1000
0000
0000
0000
,
0000
0000
0000
0010
,
0010
0000
0000
0000
,
0000
0000
0000
1000
;

//---------------dance-double - ----------------
#NOTEDATA:;
#CHARTNAME:;
#STEPSTYPE:dance-double;
#DESCRIPTION:;
#CHARTSTYLE:;
#DIFFICULTY:Hard;
#METER:9;
#RADARVALUES:0.619811,0.670906,0.140259,0.037402,0.402076,464.000000,449.000000,15.000000,4.000000,0.000000,0.000000,0.000000,0.000000,0.000000,0.619811,0.670906,0.140259,0.037402,0.402076,464.000000,449.000000,15.000000,4.000000,0.000000,0.000000,0.000000,0.000000,0.000000;
#CREDIT:;
#NOTES:
00000000
00000000
00000000
00000000
,
00000000
00000000
00000000
00000000
,
00000000
00000000
00000000
00000000
,
00000000
00000000
00000000
00000000
,
10000000
00000000
01000000
00000000
00010000
00001000
00000100
00000000
,
00000001
00000000
00000100
00000000
00001000
00010000
01000000
00000000
,
10000000
00000000
01000000
00000000
00010000
00001000
00000100
00000000
,
00000001
00000000
00000000
00000010
00000000
00000000
00000001
00000000
00001000
00000000
00000000
00000000
00000010
00001000
00000100
00000000
,
00000010
00000001
00000100
00000010
00001000
00000100
00000010
00000000
,
00001000
00010000
00100000
10000000
01000000
00100000
00010000
00000000
,
01000000
00100000
10000000
01000000
00010000
00001000
00000010
00000000
,
00000001
00000000
00000000
00001000
00000001
00000000
00000000
00000001
00001000
00000001
00000000
00001000
00000001
00001000
00000000
00000000
,
00000001
00000000
00000000
00000000
00000100
00000000
00000000
00000001
00000000
00000000
00000100
00000000
00000000
00000000
00001000
00000000
,
00010000
00000000
00000000
00000000
01000000
00000000
00000000
10000000
00000000
00000000
01000000
00000000
00000000
00000000
10000000
00000000
,
00100000
00000000
00000000
00000000
00010000
00000000
00000000
00001000
00000000
00000000
00010000
00000000
00000000
00000000
00001000
00000000
,
00000010
00000001
00000010
00000000
00000001
00001000
00000001
00000000
,
00000100
00000000
00000000
00000000
00001000
00000000
00000000
00010000
00000000
00000000
00001000
00000000
00000000
00000000
00010000
00000000
,
01000000
00000000
00000000
00000000
10000000
00000000
00000000
00010000
00000000
00000000
10000000
00000000
00000000
00000000
01000000
00000000
,
00010000
00000000
00000000
00000000
00001000
00000000
00000000
00000010
00000000
00000000
00000001
00000000
00000000
00000000
00000001
00000000
,
00001000
00020000
00100000
01000000
,
00130000
00002000
00010000
00000100
,
00013000
00020000
00000100
00000010
,
00030100
00002000
00010000
00100000
,
00013000
00000000
00001000
00000100
00000001
00000010
00000000
00001000
,
00010000
00100000
10000000
00000000
00010000
10000000
00000000
10000000
,
01000000
00010000
00001000
00000000
00000010
00000001
00000000
00000001
,
00001000
00000010
00000100
00000000
00001000
00010000
00000000
01000000
,
10000000
00100000
00010000
00000000
00001000
00000100
00000000
00000001
,
00000100
00000010
00001000
00000000
00000100
00000010
00000000
00001000
,
00010000
00100000
10000000
00010000
01000000
00100000
10000000
01000000
,
00010000
00001000
00000100
00000001
00001000
00000010
00000100
00000010
,
00010000
00000000
00001000
00000000
00011000
00000000
00000000
00010000
00001000
00000000
00000000
00001000
00010000
00001000
00000000
00010000
,
00001000
00010000
00000000
00000000
00001000
00000000
00000000
00000000
01000000
00000000
00100000
00000000
10000000
00000000
01000000
00000000
,
00100000
00010000
01000000
00000000
00100000
00000000
01000000
00000000
,
00010000
10000000
11000000
00000000
10000000
00000000
01000000
00010000
,
00001000
00000000
00000010
00000000
00000001
00000000
00000000
00000001
00000000
00000000
00000001
00000000
00000000
00000000
00001000
00000010
,
00001000
00000000
00000001
00000000
00001000
00000000
00000000
00001000
00000000
00000000
00001000
00000000
00000000
00000000
00000001
00000010
,
00000001
00000100
00001000
00000000
00000001
00000100
00000010
00001000
,
00000100
00000010
00001000
00000000
00010000
00000000
00100000
00000000
,
10000000
01000000
00110000
00000000
01000000
00000000
00001000
00000000
,
00010000
00000100
00001010
00000000
00000100
00000000
00000001
00001000
,
00000001
00000100
00000010
00000000
00000000
00000000
00011000
00000000
,
00100000
00000000
00000000
00000000
01000000
10000000
00000000
01000000
10000000
00000000
00100000
00000000
00000000
00000000
01000000
00000000
,
00010000
01010000
00000000
00100000
10000000
10100000
01000000
00000000
,
00100000
00000000
00010000
00000000
10000000
00010000
00000000
10000000
00010000
00000000
01000000
00100000
00000000
00000000
01000000
00000000
,
00000000
00000000
00100000
00000000
01000000
00010000
00000000
01000000
00010000
00000000
00100000
00001000
00000000
00000000
00100000
00000000
,
00000000
00000000
00001000
00000000
00010000
00000100
00000000
00010000
00000100
00000000
00001000
00000010
00000000
00000000
00001000
00000000
,
00000000
00000000
00000001
00000100
00000001
00000100
00000001
00000100
00000001
00000000
00000000
00000000
00000001
00000100
00000001
00000100
,
00000001
00000000
00000000
00000000
00001000
00000010
00000000
00001000
00000010
00000000
00000100
00000001
00000000
00000000
00000100
00000000
,
00000000
00000000
00000010
00000000
00010000
00001000
00000000
00010000
00001000
00000000
00100000
00001000
00000000
00000000
00100000
00000000
,
00000000
00000000
01000000
00000000
10000000
00100000
00000000
10000000
00100000
00000000
01000000
00010000
00000000
00000000
01000000
00000000
,
00000000
00000000
00010000
00100000
00010000
00100000
00010000
00100000
00010000
00000000
00000000
00000000
00010000
00100000
00010000
00100000
,
00010000
00000000
00000000
00000000
10000000
01000000
00000000
00100000
00010000
00000000
01000000
00100000
00000000
00000000
01000000
00000000
,
00000000
00000000
00010000
00000000
01000000
00001000
00000000
00010000
00001000
00000000
00010000
00000100
00000000
00000000
00010000
00000000
,
00000000
00000000
00000010
00000000
00001000
00000100
00000000
00000010
00000001
00000000
00001000
00000001
00000000
00000000
00001000
00000000
,
00000000
00000000
00000010
00000100
00000010
00000100
00000010
00000100
00000010
00000000
00000000
00000000
00000010
00000100
00000010
00000100
,
00000010
00000000
00000000
00000000
00000001
00000100
00000000
00000010
00001000
00000000
00000010
00010000
00000000
00000000
00000010
00000000
,
00000000
00000000
00010000
00000000
00001000
00100000
00000000
00001000
01000000
00000000
00100000
01000000
00000000
00000000
00100000
00000000
,
00000000
00000000
00010000
00000000
10000000
01000000
00000000
00100000
00010000
00000000
10000000
00010000
00000000
00000000
10000000
00000000
,
00000000
00000000
00000000
00000000
00010000
00000000
00000000
10000000
00010000
00000000
00000000
00010000
10000000
00010000
00000000
10000000
,
00010000
10000000
00000000
00000000
00010000
00000000
01000000
00000000
00100000
00000000
00010000
00000000
00001000
00000000
00000100
00000000
,
00000001
00001000
00000010
00000000
00000100
00000001
00000100
00000000
,
00000010
00001000
00001010
00000000
00000100
00000000
00010000
00001000
,
01000000
00000000
00100000
00000000
10000000
00000000
00000000
10000000
00000000
00000000
10000000
00000000
00000000
00000000
00010000
00100000
,
00010000
00000000
10000000
00000000
00010000
00000000
00000000
00010000
00000000
00000000
00010000
00000000
00000000
00000000
10000000
00100000
,
10000000
00010000
10010000
00000000
10000000
01000000
00010000
00001000
,
00000010
00000001
00001000
00000000
00000010
00000100
00000010
00000000
,
00001000
00000001
00000110
00000000
00000100
00000000
00001000
00000000
,
00010000
00100000
10100000
00000000
10010000
00000000
00100000
01000000
,
00010000
10000000
00100000
00000000
00000000
00000000
11000000
00000000
,
01010000
00000000
00000000
00000000
10000000
01000000
00000000
00100000
00001000
00000000
00010000
00000000
00000000
00000000
00001000
00000000
,
00000100
00000001
00000000
00001000
00000010
00000100
00000101
00000000
;

//---------------dance-double - ----------------
#NOTEDATA:;
#CHARTNAME:;
#STEPSTYPE:dance-double;
#DESCRIPTION:;
#CHARTSTYLE:;
#DIFFICULTY:Medium;
#METER:6;
#RADARVALUES:0.404747,0.503179,0.158960,0.056104,0.000000,303.000000,286.000000,17.000000,6.000000,0.000000,0.000000,0.000000,0.000000,0.000000,0.404747,0.503179,0.158960,0.056104,0.000000,303.000000,286.000000,17.000000,6.000000,0.000000,0.000000,0.000000,0.000000,0.000000;
#CREDIT:;
#NOTES:
00000000
00000000
00000000
00000000
,
00000000
00000000
00000000
00000000
,
00000000
00000000
00000000
00000000
,
00000000
00000000
00000000
00000000
,
10000000
01000000
00100000
00010000
,
01000000
00001000
00010000
00000100
,
00001000
00000010
00000100
00000001
,
00001000
00000100
00010000
00001000
,
01000000
00100000
01000000
00000000
00010000
00000000
00010000
00000000
,
10000000
00100000
10000000
00000000
00010000
00000000
00010000
00000000
,
01000000
00001000
00010000
00000000
00000100
00000000
00000010
00000000
,
00000012
00000100
00000010
00001003
,
00000001
00000100
00000001
00000000
00001000
00000000
00000000
00000000
,
00000001
00000100
00001000
00000000
00010000
00000000
00000000
00000000
,
01000000
10000000
01000000
00000000
10000000
00000000
00000000
00000000
,
10100000
01000000
00110000
01000000
,
10000000
00100000
10000000
00000000
00010000
00000000
00000000
00000000
,
10000000
01000000
00010000
00000000
00001000
00000000
00000000
00000000
,
00000100
00000001
00000100
00000000
00000001
00000000
00000000
00000000
,
00002002
00003003
00000100
00000000
00000100
00000000
00010000
00000000
,
00010000
00001000
00001000
01000000
,
01000000
00100000
00100000
10000000
,
10000000
00010000
00010000
01000000
,
01000000
00000000
00001000
00010000
00001000
00000000
00000000
00000000
,
00010000
00001000
00010000
00000000
00000000
00000000
00000000
00000000
,
00000010
00000100
00000010
00000000
00000000
00000000
00000000
00000000
,
00000100
00000010
00000100
00000000
00000000
00000000
00000000
00000000
,
00000001
00000100
00000010
00000000
00000000
00000000
00000000
00000000
,
00010000
00001000
01000000
00000000
00000000
00000000
00000000
00000000
,
00100000
10000000
00010000
00000000
00000000
00000000
01000000
00000000
,
00100000
01000000
00000000
00000000
,
00000000
00011000
00010000
00001000
,
00010000
00000000
00000010
00000000
00000100
00000001
00001000
00000000
,
00000010
00000010
00000100
00000010
,
00001000
00000001
00000100
00000000
00001000
00000000
00010000
00001000
,
00010000
00001000
02000000
00000000
03000000
00000000
00000000
00100000
,
01000000
00000000
00200000
00000000
00300000
00000000
00000000
01000000
,
00100000
00000000
10000000
00000000
00100000
10000000
00010000
00000000
,
01000000
01000000
00100000
01000000
,
00010000
10000000
00010000
00000000
00100000
00000000
00001000
00000000
,
00010000
00000100
00010000
00000000
00000020
00000000
00000000
00000000
,
00000000
00000130
00000000
00000101
,
00001010
00000000
00000001
00000100
00000010
00001000
00000000
00000001
,
00000100
00000010
00000000
00001000
00000010
00000100
00000001
00000000
,
00000000
00000000
00000100
00001000
00010000
00000000
01000000
00000000
,
00000000
00000000
10000000
00010000
10000000
00000000
01000000
00000000
,
00000000
00000000
00010000
00001000
00000100
00000000
00000001
00000000
,
00000000
00001010
00000100
00000011
,
00000100
00000000
00001000
00000010
00000100
00000000
00000001
00000000
,
00000000
00000000
00000010
00001000
00010000
00000000
00100000
00000000
,
00000000
00000000
10000000
01000000
00100000
00000000
00010000
00000000
,
00000000
01010000
00100000
11000000
,
00100000
00000000
00010000
10000000
00010000
00000000
01000000
00000000
,
00001000
00000000
00010000
00000010
00010000
00000000
00000010
00000000
,
00000100
00000000
00000001
00001000
00000001
00000000
00000100
00000000
,
00000010
00010010
00010000
00011000
,
00001000
00000000
01000000
00010000
10000000
00000000
00100000
00000000
,
01000000
00000000
00001000
00010000
00000100
00000000
00001000
00000000
,
00000010
00000000
00000100
00000001
00001000
00000000
00000010
00000100
,
00000001
00001001
00001000
00000001
,
00001000
00000000
00000110
00000000
00000001
00001000
00000100
00000000
,
00000010
00000010
00000100
00001000
,
00000001
00001000
00000001
00000000
00000000
00000000
00001000
00000001
,
00001000
00000001
00001000
00000000
00000100
00000000
00010000
00000000
,
00001000
01000000
00100000
10000000
,
00010000
00000000
10010000
00000000
10000000
01000000
00100000
00000000
,
00010000
00010000
01000000
00010000
,
10000000
00010000
10000000
00000000
00000000
00000000
00000000
00000000
,
00010000
10000000
00010000
00000000
00010000
00000000
01000000
00000000
,
00001000
00011000
00000000
01000000
,
01000000
00000000
00100000
01000000
00010000
10000000
00000000
00100000
,
01000000
00010000
00000000
10000000
00010000
01000000
00100000
00000000
;

//---------------dance-double - ----------------
#NOTEDATA:;
#CHARTNAME:;
#STEPSTYPE:dance-double;
#DESCRIPTION:;
#CHARTSTYLE:;
#DIFFICULTY:Easy;
#METER:3;
#RADARVALUES:0.269832,0.335453,0.037402,0.130908,0.000000,202.000000,198.000000,4.000000,14.000000,0.000000,0.000000,0.000000,0.000000,0.000000,0.269832,0.335453,0.037402,0.130908,0.000000,202.000000,198.000000,4.000000,14.000000,0.000000,0.000000,0.000000,0.000000,0.000000;
#CREDIT:;
#NOTES:
// measure 0
00000000
00000000
00000000
00000000
,  // measure 1
00000000
00000000
00000000
00000000
,  // measure 2
00000000
00000000
00000000
00000000
,  // measure 3
00000000
00000000
00000000
00000000
,  // measure 4
10000000
00010000
10000000
00000000
,  // measure 5
00010000
00100000
00010000
00000000
,  // measure 6
00100000
00001000
00010000
00000000
,  // measure 7
00000010
00001000
00000100
00000000
,  // measure 8
00000010
00000001
00000001
00001000
,  // measure 9
00000100
00001000
00001000
00000001
,  // measure 10
00000010
00000100
00010000
00001000
,  // measure 11
01000000
00200000
10000000
00310000
,  // measure 12
10000000
01000000
00010000
00000000
,  // measure 13
00001000
00000100
00000001
00000000
,  // measure 14
00000001
00000100
00001000
00000000
,  // measure 15
00010000
00010000
01000000
01000000
,  // measure 16
10000000
00100000
00010000
00000000
,  // measure 17
00001000
00000010
00000001
00000000
,  // measure 18
00000001
00000010
00001000
00000000
,  // measure 19
10100000
10000000
10000000
10000000
,  // measure 20
10000000
10000000
10000000
10000000
,  // measure 21
10000000
10000000
10000000
10000000
,  // measure 22
10000000
10000000
10000000
10000000
,  // measure 23
10000000
01000000
00100000
00000000
,  // measure 24
00001000
00010000
00000000
00000000
,  // measure 25
00000100
00000010
00000000
00000000
,  // measure 26
00000001
00001000
00000000
00000000
,  // measure 27
00000100
00010000
00000000
00000000
,  // measure 28
00010000
00001000
00000000
00000000
,  // measure 29
00001000
00100000
00000000
01000000
,  // measure 30
01000000
01000000
00000000
00000000
,  // measure 31
00000000
10000000
00020000
00100000
,  // measure 32
01030000
10000000
01000000
01000000
,  // measure 33
10000000
10000000
00000000
00000000
,  // measure 34
01000000
00010000
00000000
00001000
,  // measure 35
00000100
00000002
00000000
00000000
,  // measure 36
00001003
00000020
00000000
00000000
,  // measure 37
00000130
00001001
00000001
00001000
,  // measure 38
00001000
00000100
00000000
00000000
,  // measure 39
00000010
00000001
00000000
00000000
,  // measure 40
00000100
00001000
00020000
00000000
,  // measure 41
00000000
01030000
00000000
10000000
,  // measure 42
10000000
10000000
00000000
00000000
,  // measure 43
00010000
00000000
01000000
00100000
,  // measure 44
00000000
10000000
00100000
01000000
,  // measure 45
00000000
01000000
00001000
00010000
,  // measure 46
00000000
00010000
00000100
00001000
,  // measure 47
00000000
00000010
00000010
00000100
,  // measure 48
00000100
00000001
00001000
00000100
,  // measure 49
00000000
00000100
00010000
00001000
,  // measure 50
00000000
00001000
01000000
00100000
,  // measure 51
00000000
10000000
10000000
00010000
,  // measure 52
00010000
10000000
01000000
00010000
,  // measure 53
00000000
00001000
00000100
00000001
,  // measure 54
00000000
00000001
00000010
00001000
,  // measure 55
00000000
00020000
00230000
20300000
,  // measure 56
30020000
10030000
01000000
00010000
,  // measure 57
00000000
00001000
00000100
00000001
,  // measure 58
00000000
00000001
00001000
00000001
,  // measure 59
00000000
00002002
00000000
00000000
,  // measure 60
00003003
00000100
00001000
00000010
,  // measure 61
00000010
00000100
00000000
00000000
,  // measure 62
00000010
00000100
00000000
00000100
,  // measure 63
00000010
00020000
00000000
00000000
,  // measure 64
00031000
00200000
00000000
00000000
,  // measure 65
01300000
11000000
10000000
00100000
,  // measure 66
00100000
01000000
00000000
00000000
,  // measure 67
00010000
10000000
00000000
00000000
,  // measure 68
10000000
00010000
02000000
00000000
,  // measure 69
00000000
03001000
00000000
00010000
,  // measure 70
00010000
00000010
00000100
00000000
,  // measure 71
00000100
00000000
00000001
00001000
;
