#TITLE:Softpretty;
#SUBTITLE:;
#ARTIST:Doss;
#TITLETRANSLIT:;
#SUBTITLETRANSLIT:;
#ARTISTTRANSLIT:;
#GENRE:Breakbeat;
#CREDIT:;
#BANNER:softpretty-bn.png;
#BACKGROUND:softpretty-bg.png;
#LYRICSPATH:;
#CDTITLE:;
#MUSIC:Softpretty.ogg;
#OFFSET:-0.020000;
#SAMPLESTART:36.080002;
#SAMPLELENGTH:12.000000;
#SELECTABLE:YES;
#BPMS:0.000000=133.000000
;
#STOPS:
;
#BGCHANGES:;
#KEYSOUNDS:;
#ATTACKS:;

//---------------dance-single - ----------------
#NOTES:
     dance-single:
     :
     Hard:
     7:
     0.429978,0.460817,0.073156,0.146312,0.334427,288.000000,281.000000,7.000000,14.000000,0.000000,0.000000,0.429978,0.460817,0.073156,0.146312,0.334427,288.000000,281.000000,7.000000,14.000000,0.000000,0.000000:
0000
0000
0000
0000
,
0000
0000
0000
0000
,
0000
0000
0000
0000
,
0000
0000
0000
0000
,
1000
0000
0000
0100
0000
0000
0010
0000
0001
0000
0000
0000
1000
0000
0000
0000
,
0001
0000
0000
0010
0000
0000
0100
0000
1000
0000
0000
0000
0001
0000
0000
0000
,
0100
0000
0000
1000
0000
0000
0100
0000
0010
0000
0000
0000
0100
0000
0000
0000
,
0010
0000
0000
0001
0000
0000
0010
0000
0100
0000
0000
0000
0010
0000
0000
0000
,
1000
0000
0000
0010
1000
0000
0000
0000
0001
0000
0100
0000
0010
0000
0000
0000
,
0100
0000
0000
0001
0100
0000
0000
0000
0010
0000
1000
0000
0001
0000
0000
0000
,
0010
0000
0000
0100
0010
0000
0000
0000
0001
0000
0000
0010
0001
0000
0000
0000
,
0010
0000
0100
0000
0100
0000
1000
0000
0010
0000
0000
0010
0000
0000
0010
0000
,
1000
0200
0000
0010
0000
0310
0000
0100
,
1000
0010
0000
2002
0000
3003
0010
0100
,
0001
0020
0000
0100
0000
0130
0000
0010
,
0001
0000
0100
0000
0100
0000
0010
0000
1000
0000
0000
1000
0000
0000
1000
0000
,
0100
0020
0000
0100
0000
1030
0000
0100
,
0010
0001
0000
0202
0000
0303
1000
0010
,
0100
0000
0000
0100
0000
0000
0010
0000
1000
0000
0000
1000
0000
0000
0100
0000
,
0010
0001
0000
0010
0001
0000
0100
0001
0000
0100
0001
0000
1000
0000
0100
0000
,
1000
0000
0000
1000
0000
0000
0100
0000
0000
1000
0000
0000
1000
0000
0100
0000
,
0010
0000
0000
0010
0000
0000
0100
0000
0000
0010
0000
0000
0010
0000
0001
0000
,
0100
0000
0000
0001
0000
0000
0100
0000
0000
0010
0000
0000
1000
0000
0000
0000
,
0100
0000
0000
1000
0000
0000
0100
0000
0000
0010
0000
0000
0001
0000
1000
0000
,
0010
0000
0000
0010
0000
0000
1000
0000
0000
0010
0000
0000
0010
0000
0100
0000
,
0001
0000
0000
0001
0000
0000
0100
0000
0000
0001
0000
0000
0001
0000
0010
0000
,
0100
0000
0000
1000
0000
0000
0100
0000
0000
0010
0000
0000
0001
0000
1000
0000
,
0010
0000
0000
1000
0000
0000
0100
0000
0001
0000
0000
0010
0000
0000
1000
0000
,
0100
0020
0000
1000
0000
0031
0000
0100
,
0001
1000
0000
0022
0000
0033
0100
0001
,
0010
0200
0000
0001
0000
1300
0000
0010
,
1000
0000
0100
0000
0100
0000
0010
0000
0100
0000
0000
0100
0000
0000
0100
0000
,
1000
0020
0000
0100
0000
0130
0000
0010
,
1000
0001
0000
2200
0000
3300
0010
1000
,
0001
0000
0000
0100
0000
0000
0010
0000
1000
0000
0000
0100
0000
0000
0010
0000
,
0100
1000
0000
0100
1000
0000
0010
1000
0000
0010
1000
0000
0001
0000
0100
0000
,
0010
0000
0000
0010
0000
0000
0001
0000
0000
0010
0000
0000
0010
0000
0100
0000
,
0010
0000
0000
0010
0000
0000
1000
0000
0000
0010
0000
0000
0010
0000
0100
0000
,
0001
0000
0000
1000
0000
0000
0010
0000
0000
0100
0000
0000
0010
0000
1000
0000
,
0100
0000
0000
0010
0000
0000
0001
0000
0000
1000
0000
0000
0010
0000
1000
0000
,
0100
0000
0000
0100
0000
0000
0010
0000
0000
0100
0000
0000
0100
0000
1000
0000
,
0100
0000
0000
0100
0000
0000
0010
0000
0000
0100
0000
0000
0100
0000
1000
0000
,
0100
0000
0000
1000
0000
0000
0010
0000
0000
0100
0000
0000
0001
0000
0010
0000
,
0100
0000
1000
0000
0000
0010
0000
0000
0100
0000
0000
0001
0000
0000
1000
0000
,
0010
0000
0000
1000
0010
0000
0000
0000
1000
0000
0000
0000
0100
0000
0000
0000
,
0010
0000
0000
0100
1000
0000
0000
0000
0001
0000
0000
0000
0110
0000
0000
0000
,
0100
0000
0000
0001
0100
0000
0000
0000
0001
0000
1000
0000
0100
0000
0010
0000
,
0100
0000
0000
1000
0010
0000
0000
0000
0100
0000
0000
0000
0011
0000
0000
0000
,
1000
0000
0000
0001
1000
0000
0000
0000
0010
0000
0000
0000
0100
0000
0000
0000
,
0001
0000
0000
0010
0100
0000
0000
0000
1000
0000
0000
0000
1010
0000
0000
0000
,
0100
0000
0000
0001
1000
0000
0000
0000
0010
0000
1000
0000
0010
0000
0100
0000
,
0010
0000
0000
1000
0000
0000
0100
0000
0010
0000
0000
0001
0000
0000
1000
0000
;

//---------------dance-single - ----------------
#NOTES:
     dance-single:
     :
     Medium:
     5:
     0.329948,0.379497,0.146312,0.188115,0.000000,221.000000,207.000000,14.000000,18.000000,0.000000,0.000000,0.329948,0.379497,0.146312,0.188115,0.000000,221.000000,207.000000,14.000000,18.000000,0.000000,0.000000:
0000
0000
0000
0000
,
0000
0000
0000
0000
,
0000
0000
0000
0000
,
0000
0000
0000
0000
,
0010
0000
0100
1000
0000
0010
0000
0000
,
0100
0000
0001
0010
0000
0100
0000
0000
,
1001
0010
0000
0100
,
1010
0100
0000
0001
,
0010
0000
0100
1000
0000
0001
0000
0000
,
0100
0000
0010
0001
0000
1000
0000
0000
,
1100
0100
0000
0010
,
0001
0001
1000
0000
0010
0100
1000
0000
,
0010
2000
0000
0001
0000
0001
0000
0100
,
0000
0001
0000
3001
0000
0000
0100
0000
,
0010
0002
0000
1000
0000
1000
0000
1003
,
0000
0010
0100
0000
0001
0000
0000
0000
,
0010
0200
0000
0010
0000
0010
0000
0001
,
0000
0010
0000
0310
0000
0000
0000
0000
,
0002
1003
0200
1300
,
0010
0000
0001
0000
1000
0100
1000
0100
,
0010
0001
0101
0010
,
0100
1000
1100
0010
,
2000
0100
0001
3100
,
0002
0010
1000
0013
,
0100
1000
0100
0000
0000
1000
0001
0000
,
0100
0001
1001
0010
,
0100
0001
0100
0000
0000
0010
1000
0000
,
2200
0000
0000
0000
3300
0000
0001
1000
,
0100
0020
0000
0001
0000
0001
0000
0100
,
0000
0001
0000
0031
0000
0100
0001
0000
,
0100
0020
0000
1000
0000
1000
0000
1030
,
0000
0001
1000
0000
0010
0000
1001
0000
,
0001
2000
0000
0010
0000
0010
0000
0001
,
0000
0010
0000
3010
0000
1000
0001
0000
,
2200
3300
0202
0303
,
0010
0000
0100
0000
1000
0010
0100
0001
,
1000
0110
0001
0110
,
1000
0100
0010
0000
0000
0000
0001
0000
,
0100
0010
0100
0000
0100
0010
0100
0000
,
0001
0010
0001
0000
0001
0010
0001
0000
,
1000
0100
0010
0000
0000
0001
1000
0000
,
0010
1100
0010
1100
,
0010
0100
0001
0000
0000
1000
0001
0000
,
2000
0000
3002
0000
,
0103
0000
1000
0000
0100
0001
0100
0000
,
0001
1000
0010
0100
,
0010
0000
0001
0000
0010
0100
1000
0001
,
0010
0100
0010
0001
,
1000
0000
0010
0000
0100
0000
0010
1000
,
0100
0000
0010
0000
0100
1000
0100
0000
,
0010
0000
0001
0000
1000
0010
1000
0010
,
0100
0000
0000
0001
1000
0000
0000
0010
;

//---------------dance-single - ----------------
#NOTES:
     dance-single:
     :
     Easy:
     3:
     0.213496,0.243962,0.000000,0.135861,0.000000,143.000000,143.000000,0.000000,13.000000,0.000000,0.000000,0.213496,0.243962,0.000000,0.135861,0.000000,143.000000,143.000000,0.000000,13.000000,0.000000,0.000000:
0000
0000
0000
0000
,
0000
0000
0000
0000
,
0000
0000
0000
0000
,
0000
0000
0000
0000
,
0100
0002
0000
0013
,
0100
2000
0000
3010
,
1000
0001
0000
0010
,
0001
1000
0000
0100
,
1000
0020
0000
0130
,
0010
2000
0000
3001
,
0010
0100
0000
1000
,
0200
0320
0000
0030
,
0000
0000
0000
0100
0000
0100
0000
0001
,
0000
0100
0000
0100
0000
0000
0000
0000
,
0001
0000
0000
1000
0000
1000
0000
1000
,
0000
0000
0010
0100
,
1000
0000
0000
0100
0000
0100
0000
0010
,
0000
0100
0000
0100
0000
0000
0000
0000
,
1000
0000
0001
0000
,
0100
0010
1000
0010
,
0200
0000
0000
0301
,
1000
0010
0000
1000
,
0100
0020
0000
0031
,
0100
1000
0100
1000
,
0100
0002
0000
1003
,
0010
0100
0000
0010
,
0100
2000
0000
3010
,
0200
0000
0000
0310
,
1000
0000
0000
0001
0000
0001
0000
0010
,
0000
0001
0000
0001
0000
0000
0000
0000
,
0100
0000
0000
0010
0000
0010
0000
0010
,
0000
0000
0000
0000
,
1000
0000
0000
0100
0000
0100
0000
1000
,
0000
0100
0000
0100
0000
0000
0000
0000
,
0010
0000
0000
0100
0000
0100
0000
0100
,
0000
0000
0000
1000
,
0010
0100
0010
1000
,
0010
0100
0010
0001
,
0010
1000
0001
0000
,
0100
0001
1000
0000
,
0001
0100
1000
1000
,
0001
0000
1000
0010
,
1000
0100
0001
0001
,
2000
0000
0000
3000
,
0010
1000
0001
0001
,
0100
0001
1000
1000
,
0010
0000
1000
0100
,
1000
0000
0001
0100
,
0001
1000
0100
0100
,
1000
0001
0100
0100
,
0010
0000
0100
0001
,
0200
0000
0000
0000
0000
0000
0000
0301
;

//---------------dance-single - ----------------
#NOTES:
     dance-single:
     :
     Beginner:
     1:
     0.083607,0.135208,0.000000,0.010451,0.000000,56.000000,56.000000,0.000000,1.000000,0.000000,0.000000,0.083607,0.135208,0.000000,0.010451,0.000000,56.000000,56.000000,0.000000,1.000000,0.000000,0.000000:
0000
0000
0000
0000
,
0000
0000
0000
0000
,
0000
0000
0000
0000
,
0000
0000
0000
0000
,
0001
0000
0000
0000
,
0010
0000
0000
0000
,
1000
0000
0000
0000
,
0100
0000
0000
0000
,
0001
0000
0000
0000
,
0010
0000
0000
0000
,
0100
0000
0010
0000
,
0001
0000
1000
0000
,
0100
0000
0000
0000
,
0000
0000
0000
0000
,
0010
0000
0000
0000
,
0001
0000
1000
0000
,
0100
0000
0000
0000
,
0000
0000
0000
0000
,
0010
0000
0000
0000
,
0000
0000
0000
0000
,
1000
0000
0000
0000
,
0001
0000
0000
0010
,
0000
0100
0000
0000
,
1000
0000
0000
0000
,
0100
0100
0000
0000
,
0010
0000
0000
0000
,
0001
0001
0000
0000
,
1000
0000
0000
0010
,
0010
0000
0000
0000
,
0000
0000
0000
0000
,
1000
0000
0000
0000
,
0000
0000
0010
0000
,
0100
0000
0000
0000
,
0000
0000
0000
0000
,
0001
0000
0000
0000
,
0010
0010
0010
0000
,
1000
0000
0000
0000
,
0100
0000
0000
0010
,
0000
0001
0000
0000
,
0100
0000
0000
0000
,
0010
0010
0000
0000
,
1000
0000
0000
0000
,
0100
0100
0000
0000
,
0010
0000
0000
0000
,
0001
0000
0000
0000
,
1000
0000
0000
0000
,
0001
0000
0000
0000
,
0010
0000
0100
0000
,
1000
0000
0000
0000
,
0010
0000
0000
0000
,
1000
0000
0000
0000
,
0002
0000
0000
0003
;

//---------------dance-double - ----------------
#NOTES:
     dance-double:
     :
     Easy:
     3:
     0.177664,0.243962,0.000000,0.188115,0.000000,119.000000,119.000000,0.000000,18.000000,0.000000,0.000000,0.177664,0.243962,0.000000,0.188115,0.000000,119.000000,119.000000,0.000000,18.000000,0.000000,0.000000:
00000000
00000000
00000000
00000000
,
00000000
00000000
00000000
00000000
,
00000000
00000000
00000000
00000000
,
00000000
00000000
00000000
00000000
,
00000002
00000000
00000003
00000000
,
00000200
00000000
00000300
00000000
,
00002000
00000000
00003000
00000000
,
00020000
00000000
00030000
00000000
,
02000000
00000000
03000000
00000000
,
20000000
00000000
30000000
00000000
,
02000000
00000000
03020000
00000000
,
00032000
00000000
00003100
00000001
,
00001000
00000000
00000000
00000010
00000000
00001000
00000000
00000010
,
00000000
00000100
00000000
00000001
00000000
00000000
00000000
00000000
,
00000100
00000000
00000000
00000010
00000000
00010000
00000000
00000010
,
00000000
00000000
00000000
00000000
,
00010000
00000000
00000000
00001000
00000000
00100000
00000000
01000000
,
00000000
10000000
00000000
00100000
00000000
00000000
00000000
00000000
,
10000000
00000000
00100000
00000000
,
01000000
01000000
00010000
00010000
,
20000000
00000000
30000000
00000000
,
00000000
00000000
00000000
20000000
,
00000000
02000000
00000000
33000000
,
00000000
00000000
00000000
00000000
00000000
00000000
00000000
00100000
,
00001000
00010000
00002000
00000000
00000000
00000000
00003000
00000000
,
00000000
00000000
00000000
00000000
00000000
00000000
00000000
00010000
,
00000100
00001000
00000200
00000000
00000000
00000000
00000000
00000000
,
00000310
00000000
00000000
00000001
00000000
00000000
00000000
00000000
,
00001000
00000000
00000000
00000001
00000000
00001000
00000000
00000010
,
00000000
00000010
00000000
00010000
00000000
00000000
00000000
00000000
,
00001000
00000000
00000000
01000000
00000000
01000000
00000000
00100000
,
00000000
00000000
00000000
00000000
,
10000000
00000000
00000000
00010000
00000000
01000000
00000000
00100000
,
00000000
00010000
00000000
00001000
00000000
00000000
00000000
00000000
,
00000010
00000000
00000001
00000000
,
00001000
00001000
00000001
00000001
,
00000100
00000010
00000100
00000000
,
00000001
00000100
00001000
00000000
,
01000000
00100000
01000000
00000000
,
10000000
00010000
01000000
00000000
,
00100000
00010000
00000000
00000000
,
00001000
00000010
00000001
00000000
,
00000100
00001000
00000000
00000000
,
00020000
00000000
02030000
00000000
,
13000000
00010000
10000000
10000000
,
00010000
00100000
00010000
00010000
,
01000000
00100000
00010000
00001000
,
00000010
00000001
00001000
00000010
,
00000100
00000001
00000001
00000100
,
00000010
00001000
00001000
00000010
,
00000100
00001000
00010000
01000000
,
20000000
00000000
00000000
00000000
00020000
00000000
00000000
30030000
;

//---------------dance-double - ----------------
#NOTES:
     dance-double:
     :
     Medium:
     5:
     0.295610,0.406603,0.073156,0.167214,0.177664,198.000000,191.000000,7.000000,16.000000,0.000000,0.000000,0.295610,0.406603,0.073156,0.167214,0.177664,198.000000,191.000000,7.000000,16.000000,0.000000,0.000000:
00000000
00000000
00000000
00000000
,
00000000
00000000
00000000
00000000
,
00000000
00000000
00000000
00000000
,
00000000
00000000
00000000
00000000
,
20000000
00000000
30000000
02000000
,
00000000
03000000
00000000
00000000
,
00020000
00000000
00030000
00000000
,
00002000
00000000
00003000
00000000
,
00000020
00000000
00000030
00000000
,
00000002
00000000
00000003
00000000
,
00000200
00000000
00002300
00000000
,
00013000
01000000
00000000
01000000
10000000
00000000
00000000
00000000
,
00010000
00100000
00000000
11000000
00000000
00100000
00000000
00010000
,
00000000
01000000
00000000
00100000
00000000
00000000
00000000
00000000
,
00010000
00001000
00000000
00000010
00000000
00000101
00000000
00000010
,
00001000
00000000
00000100
00000000
00000010
00000000
00000001
00000000
00001000
00000000
00000000
00001000
00000000
00000000
00001000
00000000
,
00000001
00000100
00000000
00001010
00000000
00000100
00000000
00001000
,
00000000
00010000
00000000
01000000
00000000
00000000
00000000
00000000
,
10000000
00000000
00000000
10000000
00000000
00000000
00010000
00000000
10000000
00000000
00000000
10000000
00000000
00000000
00010000
00000000
,
01000000
00000000
00000000
01000000
00000000
00000000
00100000
00000000
01000000
00000000
00000000
00000000
01000000
00000000
00000000
00000000
,
00010000
00000000
00000000
10000000
00000000
00000000
00010000
00000000
00000000
10000000
00000000
00000000
00010000
00000000
00000000
00000000
,
10000000
00000000
00000000
00010000
00000000
00000000
10000000
00000000
00000000
00010000
00000000
00000000
10000000
00000000
00000000
00000000
,
01000000
00010000
00001000
00000100
,
00000001
00001000
00000001
00001000
,
00000010
00000000
00000000
00000100
00000000
00000000
00000010
00000000
00000000
00000100
00000000
00000000
00000010
00000000
00000000
00000000
,
00000100
00000000
00000000
00000010
00000000
00000000
00000100
00000000
00000000
00000010
00000000
00000000
00000100
00000000
00000000
00000000
,
00000001
00000010
00001000
00010000
,
00200000
00000000
00000000
00000000
00000000
00000000
00000000
00000000
10300000
00000000
00000000
00010000
00000000
00000000
10000000
00000000
,
00010000
01000000
00000000
10100000
00000000
01000000
00000000
00010000
,
00000000
00001000
00000000
00000010
00000000
00000000
00000000
00000000
,
00000001
00001000
00000000
00000101
00000000
00001000
00000000
00000010
,
00000200
00000000
00000000
00000000
00000000
00000000
00000000
00000000
00000310
00000000
00000000
00001000
00000000
00000000
00000001
00000000
,
00000100
00001000
00000000
00011000
00000000
00100000
00000000
00010000
,
00000000
01000000
00000000
10100000
00000000
00000000
00000000
00000000
,
10000000
00000000
00000000
00010000
00000000
00000000
01000000
00000000
00100000
00000000
00000000
01000000
00000000
00000000
00010000
00000000
,
10000000
10000000
01000000
01000000
,
10000000
00000000
00000000
00100000
00000000
00000000
10000000
00000000
00000000
00100000
00000000
00000000
10000000
00000000
00000000
00000000
,
00010000
00000000
00000000
01000000
00000000
00000000
00010000
00000000
00000000
01000000
00000000
00000000
00010000
00000000
00000000
00000000
,
01000000
00100000
00010000
00001000
,
00000010
00000001
00000100
00000010
,
00001000
00000000
00000000
00000010
00000000
00000000
00001000
00000000
00000000
00000010
00000000
00000000
00001000
00000000
00000000
00000000
,
00000001
00000000
00000000
00000100
00000000
00000000
00000001
00000000
00000000
00000100
00000000
00000000
00000001
00000000
00000000
00000000
,
00000100
00001000
00010000
01000000
,
10000000
00000000
00000000
00100000
00000000
00000000
01000000
00000000
00010000
00000000
00000000
00100000
00000000
00000000
01000000
00000000
,
10000000
00000000
00000000
01000000
00000000
00000000
00100000
00000000
00000000
01000000
00000000
00000000
10000000
00000000
00000000
00000000
,
10000000
00000000
00000000
00100000
00000000
00000000
01000000
00000000
00000000
00100000
00000000
00000000
10000000
00000000
00000000
00000000
,
02000000
00000000
00000000
00000000
03010000
00001000
00010000
00001000
,
00000200
00000000
00000302
00000000
,
00001003
00000000
00000000
00000010
00000000
00000000
00000100
00000000
00000000
00000010
00000000
00000000
00001000
00000000
00000000
00000000
,
00001000
00000000
00000000
00000100
00000000
00000000
00000010
00000000
00000000
00000100
00000000
00000000
00001000
00000000
00000000
00000000
,
00000020
00000000
00000000
00000000
00000130
00001000
00000100
00001000
,
00020000
00000000
00000000
00000000
02030000
00000000
00000000
13000000
;

//---------------dance-double - ----------------
#NOTES:
     dance-double:
     :
     Hard:
     7:
     0.418034,0.460817,0.052254,0.000000,0.365780,280.000000,275.000000,5.000000,0.000000,0.000000,0.000000,0.418034,0.460817,0.052254,0.000000,0.365780,280.000000,275.000000,5.000000,0.000000,0.000000,0.000000:
// measure 0
00000000
00000000
00000000
00000000
,  // measure 1
00000000
00000000
00000000
00000000
,  // measure 2
00000000
00000000
00000000
00000000
,  // measure 3
00000000
00000000
00000000
00000000
,  // measure 4
00000001
00000000
00000000
00000001
00000100
00000000
00000001
00000000
00000000
00000000
00000100
00000000
00001000
00000000
00000000
00000000
,  // measure 5
00010000
00000000
00000000
01000000
00000000
00000000
10000000
00000000
00000000
00000000
01000000
00000000
10000000
00000000
00000000
00000000
,  // measure 6
10000000
00000000
00000000
10000000
01000000
00000000
10000000
00000000
00000000
00000000
01000000
00000000
00010000
00000000
00000000
00000000
,  // measure 7
00001000
00000000
00000000
00000100
00000000
00000000
00000001
00000000
00000000
00000000
00000100
00000000
00000001
00000000
00000000
00000000
,  // measure 8
00001000
00000000
00000000
00001000
00000010
00000000
00001000
00000000
00000000
00000000
00000010
00000000
00000100
00000000
00000000
00000000
,  // measure 9
00001000
00000000
00000000
00010000
00000000
00000000
01000000
00000000
00000000
00000000
00010000
00000000
01000000
00000000
00000000
00000000
,  // measure 10
10000000
00000000
00000000
00010000
00000000
00000000
01000000
00000000
00100000
00000000
00010000
00000000
00001000
00000000
00000000
00000000
,  // measure 11
00000010
00000000
00000000
00000001
00000000
00000000
00001000
00000000
00000010
00000000
00000000
00000010
00000000
00000000
00000100
00000000
,  // measure 12
00000001
00000100
00000000
00001000
00000000
00010000
00000000
01000000
,  // measure 13
00000000
10000000
00000000
11000000
00000000
00000000
00000000
00000000
,  // measure 14
10000000
00010000
00000000
01000000
00000000
00100000
00000000
00010000
,  // measure 15
00000000
00000000
00001000
00000000
00000010
00000000
00000001
00000000
00000100
00000000
00000000
00000010
00000000
00000000
00001000
00000000
,  // measure 16
00000001
00000100
00000000
00001000
00000000
00010000
00000000
01000000
,  // measure 17
00000000
10000000
00000000
01010000
00000000
00000000
00000000
00000000
,  // measure 18
00100000
00000000
00000000
00100000
00000000
00000000
10000000
00000000
01000000
00000000
00000000
01000000
00000000
00000000
10000000
00000000
,  // measure 19
00010000
00100000
00000000
00010000
00100000
00000000
01000000
10000000
00000000
01000000
10000000
00000000
00010000
00000000
10000000
00000000
,  // measure 20
01000000
00000000
00000000
01000000
00000000
00000000
00100000
00000000
00000000
01000000
00000000
00000000
01000000
00000000
10000000
00000000
,  // measure 21
00100000
00000000
00000000
00010000
00000000
00000000
00001000
00000000
00000000
00000010
00000000
00000000
00000001
00000000
00001000
00000000
,  // measure 22
00000001
00000000
00000000
00000001
00000000
00000000
00000100
00000000
00000000
00000001
00000000
00000000
00000001
00000000
00000010
00000000
,  // measure 23
00001000
00000000
00000000
00010000
00000000
00000000
01000000
00000000
00000000
10000000
00000000
00000000
00100000
00000000
01000000
00000000
,  // measure 24
00010000
00000000
00000000
00010000
00000000
00000000
01000000
00000000
00000000
00010000
00000000
00000000
00010000
00000000
10000000
00000000
,  // measure 25
00100000
00000000
00000000
00010000
00000000
00000000
00001000
00000000
00000000
00000010
00000000
00000000
00000001
00000000
00001000
00000000
,  // measure 26
00000010
00000000
00000000
00000010
00000000
00000000
00000100
00000000
00000000
00000010
00000000
00000000
00000010
00000000
00001000
00000000
,  // measure 27
00000001
00000000
00000000
00000100
00000000
00000000
00000010
00000000
00001000
00000000
00000000
00000100
00000000
00000000
00000010
00000000
,  // measure 28
00000001
00000100
00000000
00001000
00000000
00010000
00000000
01000000
,  // measure 29
00000000
10000000
00000000
00110000
00000000
00000000
00000000
00000000
,  // measure 30
01000000
00100000
00000000
00010000
00000000
00001000
00000000
00000011
,  // measure 31
00000000
00000000
00000001
00000000
00001000
00000000
00000010
00000000
00000100
00000000
00000000
00000001
00000000
00000000
00001000
00000000
,  // measure 32
00000010
00000100
00000000
00001000
00000000
00010000
00000000
01000000
,  // measure 33
00000000
10000000
00000000
01100000
00000000
00000000
00000000
00000000
,  // measure 34
10000000
00000000
00000000
00010000
00000000
00000000
01000000
00000000
00100000
00000000
00000000
01000000
00000000
00000000
00010000
00000000
,  // measure 35
10000000
01000000
00000000
10000000
01000000
00000000
00100000
00010000
00000000
00100000
00010000
00000000
10000000
00000000
00010000
00000000
,  // measure 36
10000000
00000000
00000000
01000000
00000000
00000000
00100000
00000000
00000000
00010000
00000000
01000000
00000000
00000000
00100000
00000000
,  // measure 37
10000000
00000000
00000000
01000000
00000000
00000000
00010000
00000000
00000000
00001000
00000000
00000000
00000100
00000000
00000001
00000000
,  // measure 38
00001000
00000000
00000000
00000010
00000000
00000000
00000100
00000000
00000000
00000001
00000000
00000000
00000010
00000000
00000100
00000000
,  // measure 39
00001000
00000000
00000000
00000010
00000000
00000000
00000100
00000000
00000000
00001000
00000000
00000000
00010000
00000000
01000000
00000000
,  // measure 40
10000000
00000000
00000000
00010000
00000000
00000000
01000000
00000000
00000000
00010000
00000000
00000000
10000000
00000000
01000000
00000000
,  // measure 41
00100000
00000000
00000000
00010000
00000000
00000000
01000000
00000000
00000000
00100000
00000000
00000000
00010000
00000000
00001000
00000000
,  // measure 42
00000010
00000000
00000000
00000001
00000000
00000000
00001000
00000000
00000000
00000001
00000000
00000000
00000010
00000000
00000100
00000000
,  // measure 43
00001000
00000000
00000010
00000100
00000010
00000000
00000100
00000000
00000001
00000000
00000000
00001000
00000000
00000000
00000001
00000000
,  // measure 44
00000100
00000000
00000000
00000010
00000000
00000000
00000100
00000000
00000000
00000010
00000000
00000000
00000100
00000000
00001000
00000000
,  // measure 45
00010000
00000000
00000000
01000000
00000000
00000000
00010000
00000000
00000000
01000000
00000000
00000000
00010000
00000000
01000000
00000000
,  // measure 46
10000000
00000000
00000000
00010000
00000000
00000000
01000000
00000000
00100000
00000000
10000000
00000000
00010000
00000000
01000000
00000000
,  // measure 47
00010000
00000000
00000000
10000000
00000000
00000000
00100000
00000000
00010000
00000000
00000000
00001000
00000000
00000000
00000010
00000000
,  // measure 48
00000001
00000000
00000000
00000100
00000000
00000000
00000010
00000000
00000000
00001000
00000000
00000000
00000100
00000000
00000010
00000000
,  // measure 49
00000001
00000000
00000000
00000100
00000000
00000000
00001000
00000000
00000000
00010000
00000000
00000000
01000000
00000000
10000000
00000000
,  // measure 50
00100000
00000000
00000000
01000000
00000000
00000000
00010000
00000000
01000000
00000000
00100000
00000000
10000000
00000000
01000000
00000000
,  // measure 51
00010000
00000000
00000000
00001000
00000000
00000000
00000100
00000000
00000001
00000000
00000000
00001000
00000000
00000000
00000010
00000000
;
