#TITLE:Sir Duke;
#SUBTITLE:;
#ARTIST:Captain Go!!;
#TITLETRANSLIT:;
#SUBTITLETRANSLIT:;
#ARTISTTRANSLIT:;
#GENRE:Eurobeat;
#CREDIT:;
#BANNER:sirduke-bn.png;
#BACKGROUND:sirduke-bg.png;
#LYRICSPATH:;
#CDTITLE:;
#MUSIC:Sir Duke.ogg;
#OFFSET:-0.107000;
#SAMPLESTART:33.852993;
#SAMPLELENGTH:12.000000;
#SELECTABLE:YES;
#BPMS:0.000000=172.000000
;
#STOPS:
;
#BGCHANGES:;
#KEYSOUNDS:;
#ATTACKS:;

//---------------dance-single - ----------------
#NOTES:
     dance-single:
     :
     Challenge:
     9:
     0.734391,0.642329,0.284426,0.010534,0.000000,488.000000,461.000000,27.000000,1.000000,0.000000,0.000000,0.734391,0.642329,0.284426,0.010534,0.000000,488.000000,461.000000,27.000000,1.000000,0.000000,0.000000:
0000
0000
0000
0000
,
0000
0000
0000
0000
,
0000
0000
0000
0000
,
0000
0000
0000
0000
,
0010
0100
0010
1000
0010
0100
0010
0100
,
0010
0001
0010
0100
0010
0001
0010
0001
,
0010
0100
0010
1000
0010
0100
0010
0100
,
0010
1000
0010
0001
0010
1000
0010
0001
,
0010
1000
0001
0000
0100
0000
0110
0000
,
0100
0001
0010
0000
0001
1000
1000
0010
,
0100
0010
1000
0000
0010
0000
1010
0000
,
1000
0001
0100
0001
0001
0010
0001
0100
,
0101
0010
1000
1001
,
0010
0100
0001
0000
0100
0010
0010
1000
,
0010
0100
0001
0000
0001
0010
0100
1000
,
1010
0000
0101
0000
0000
1001
0000
0010
,
1000
0100
0010
0100
0001
0100
0010
0100
,
1000
0100
0010
0100
0001
0200
0000
1300
,
0001
0010
0100
0010
1000
0010
0100
0010
,
0001
0010
0100
0010
1001
0000
0110
0000
,
1001
0000
1000
0100
0010
0001
0100
0001
,
0010
0100
0010
0100
0010
0100
1000
0001
,
1001
0000
0001
0010
0100
1000
0010
1000
,
0100
0010
0100
0010
0100
0010
0001
1000
,
1001
0000
0001
0100
0010
1000
0010
0100
,
0001
1000
0001
1000
0001
1000
0010
0100
,
0110
0000
1000
0010
0100
0001
0100
0010
,
1000
0001
1000
0001
1000
0001
0100
0010
,
0100
0001
0100
0010
0100
0001
0100
0001
,
0100
0010
0100
1000
0100
0010
0100
0010
,
0100
0001
0100
0010
0100
0001
0100
0001
,
0100
1000
0100
0001
0100
1000
0100
0001
,
0010
0100
0010
1000
0010
0100
0010
0100
,
0010
0001
0010
0100
0010
0001
0010
0001
,
0010
0100
0010
1000
0010
0100
0010
0100
,
0010
0001
0010
1000
0010
0001
0010
1000
,
0010
0001
0100
0000
0010
1000
0100
0000
,
1000
0010
0100
0001
0010
0100
1000
0000
,
0001
0100
0010
0000
1000
0010
0100
0000
,
0001
1000
0010
0100
0010
1000
0001
0000
,
0010
0100
1000
0000
0100
0010
0001
0000
,
0010
0100
1000
0010
0100
0001
0010
0000
,
0001
1000
0100
0000
1000
0010
0100
0000
,
0001
0010
0100
0010
0001
1000
0010
0100
,
0110
0000
1010
0000
1000
0100
0010
0000
,
0101
0000
1010
0000
1000
0100
0010
0100
,
1100
0000
0110
0000
0010
0001
1000
0000
,
0011
0000
0110
0000
0100
1000
0100
0010
,
0001
0100
0010
1000
0100
0001
0100
1000
,
0010
0100
0001
0010
0100
1000
0010
1000
,
0010
0001
0010
1000
0100
0001
0100
1000
,
0001
0100
1000
0100
0101
0000
1100
0000
,
0001
1000
0010
0100
0010
1000
0001
1000
,
0100
0010
0100
0010
0100
0010
0001
1000
,
0001
0010
0001
0100
0010
1000
0010
0100
,
0001
1000
0001
1000
0001
1000
0010
0100
,
0010
1000
0001
0100
0001
1000
0010
1000
,
0010
0100
0010
0100
0010
0100
0001
1000
,
0001
0010
0100
1000
0100
0010
0001
0010
,
0001
1000
0001
1000
0001
1000
0010
0100
,
0010
0001
0010
0100
0010
0001
0010
0001
,
0010
0100
0010
1000
0010
0100
0010
0100
,
0010
0001
0010
0100
0010
0001
0010
0001
,
0010
1000
0010
0001
0010
1000
0010
0001
,
0100
1000
0100
0010
0100
1000
0100
1000
,
0100
0010
0100
0001
0100
0010
0100
0010
,
0100
1000
0100
0010
0100
1000
0100
1000
,
1100
0101
1100
0101
;

//---------------dance-single - ----------------
#NOTES:
     dance-single:
     :
     Hard:
     8:
     0.617009,0.642329,0.284426,0.368700,0.000000,410.000000,383.000000,27.000000,35.000000,0.000000,0.000000,0.617009,0.642329,0.284426,0.368700,0.000000,410.000000,383.000000,27.000000,35.000000,0.000000,0.000000:
0000
0000
0000
0000
,
0000
0000
0000
0000
,
0000
0000
0000
0000
,
0000
0000
0000
0000
,
0010
0100
0010
1000
0010
0100
0010
0000
,
0100
0010
0100
0001
0100
0010
0100
0000
,
0010
0100
0010
1000
0010
0100
0010
1000
,
0001
0000
1000
0000
0010
0100
0010
0000
,
1000
0000
0100
0000
1000
0001
0010
0100
,
1000
0020
0000
0230
0000
0001
0301
0000
,
0010
0000
0100
0010
0001
0020
0000
0032
,
0000
1003
1000
0000
0001
0000
0010
0000
,
0001
0000
0001
0000
1000
0001
0100
0010
,
0100
0002
0000
0023
0000
0100
0130
0000
,
1000
0000
0100
0000
0010
0010
0000
0010
,
0010
0000
1001
0000
0000
1010
0000
0010
,
1000
0100
0010
0100
1000
0100
0010
0100
,
1000
0100
0010
0100
1000
0200
0000
0310
,
0001
0100
0010
0100
0001
0100
0010
0100
,
0001
0100
0010
0100
0001
0000
1010
0000
,
1001
0000
1000
0100
0010
0100
1000
0001
,
1000
0100
1000
0100
1000
0100
0010
0001
,
1000
0000
0001
0100
0010
0100
0001
1000
,
0001
0100
0001
0100
0001
0100
0010
0000
,
1001
0000
0100
0010
1000
0001
1000
0010
,
0100
0001
0100
0001
0100
0001
1000
0001
,
1000
0000
0010
0100
0001
0000
0100
0010
,
1000
1001
0011
1100
,
0100
0010
0100
1000
0100
0010
0100
0000
,
0010
0100
0010
0001
0010
0100
0010
0000
,
0100
0010
0100
0001
0100
0010
0100
1000
,
0001
1000
0001
1000
,
0010
0100
0010
1000
0010
0100
0010
0000
,
0100
0010
0100
0001
0100
0010
0100
0000
,
0010
0100
0010
0001
0010
0100
0010
1000
,
0001
0110
1001
1100
,
0000
0200
0000
0320
0000
0032
0000
0203
,
0000
2300
0000
3200
0000
0302
0000
2003
,
0000
3020
0000
0230
0000
0302
0000
0203
,
0000
2300
0000
3020
0000
0031
0010
0000
,
1000
0020
0000
2030
0000
3200
0000
0302
,
0000
0203
0000
2300
0000
3020
0000
0230
,
0000
0302
0000
0023
0000
2030
0000
3002
,
0000
0203
0000
2300
0000
3001
1000
0000
,
1001
0000
0010
0100
0001
0010
0001
0100
,
0010
1000
0100
1000
,
0001
0000
0100
0010
1000
0100
1000
0010
,
0100
0010
0001
0010
,
1100
0000
0010
0100
0001
0010
0001
0100
,
0001
1000
0010
0100
,
0010
0100
0001
0010
0001
1000
0100
0010
,
0100
1000
0001
0010
0110
0000
1100
0000
,
1001
0000
0010
0100
0001
1000
0001
0010
,
0001
0100
0001
0100
0001
0100
0010
0000
,
0100
0000
0001
1000
0010
0100
0010
1000
,
0100
0010
0100
0010
0100
0010
0100
0000
,
1001
0000
0010
0100
0001
0010
0100
1000
,
0010
1000
0010
1000
0010
1000
0010
0000
,
0110
1000
1001
0010
,
0110
1001
0110
1001
,
0010
1000
0010
0100
0010
1000
0010
0000
,
0100
0010
0100
0001
0100
0010
0100
0000
,
0010
1000
0010
0100
0010
1000
0010
0000
,
1000
0001
1000
0001
,
0010
0100
0010
0001
0010
0100
0010
0000
,
0100
0010
0100
1000
0100
0010
0100
0000
,
0010
0100
0010
0001
0010
0100
0010
0000
,
1001
1100
0011
1001
;

//---------------dance-single - ----------------
#NOTES:
     dance-single:
     :
     Medium:
     6:
     0.442441,0.535274,0.158014,0.589921,0.000000,294.000000,279.000000,15.000000,56.000000,0.000000,0.000000,0.442441,0.535274,0.158014,0.589921,0.000000,294.000000,279.000000,15.000000,56.000000,0.000000,0.000000:
0000
0000
0000
0000
,
0000
0000
0000
0000
,
0000
0000
0000
0000
,
0000
0000
0000
0000
,
1000
0000
0001
0000
0010
0100
1000
0000
,
0001
0000
1000
0000
0100
0010
0001
0000
,
1000
0000
0001
0000
0010
0100
1000
0000
,
1010
0101
1010
0101
,
0001
0000
1000
0100
1000
0000
0010
0000
,
1000
0100
0000
0010
0000
0001
1000
0000
,
0001
0000
0010
0000
0100
1000
0000
0001
,
0000
0000
0000
0000
,
1000
0000
0001
0100
0001
0000
1000
0000
,
0001
0100
0000
0010
0000
1000
0001
0000
,
0200
0320
2030
3001
,
1001
0000
0110
0000
0000
0010
0000
0100
,
0000
0020
0000
0230
0000
0302
0000
0023
,
0000
0230
0000
1300
0000
2002
0000
3003
,
0000
0020
0000
0230
0000
0302
0000
2003
,
0000
3200
0000
0310
0100
0000
1001
0000
,
0110
0000
0100
0001
0100
0000
0010
0000
,
0100
0001
0100
0001
0000
0000
0000
0000
,
1000
0000
0010
1000
0010
0000
0100
0000
,
0020
0000
0230
0000
0302
0000
1003
0001
,
1000
0000
0100
1000
0100
0000
0010
0000
,
0100
1000
0100
1000
0000
0000
0000
0000
,
0020
0130
0002
1003
,
0020
0230
0302
1003
,
0001
0000
1000
0000
0100
0010
0001
0000
,
1000
0000
0001
0000
0010
0100
1000
0000
,
0001
0000
1000
0000
0100
0010
0001
0000
,
0100
0010
0100
0010
,
1000
0000
0001
0000
0010
0100
1000
0000
,
0001
0000
1000
0000
0100
0010
0001
0000
,
1000
0000
0001
0000
0010
0100
1000
0000
,
0010
0010
0010
0010
,
0000
0200
0000
0320
0000
2030
0000
3002
,
0000
2003
0000
3200
0000
0320
0000
0032
,
0000
0203
0000
2300
0000
3200
0000
0302
,
0000
0023
0000
0230
0000
1300
0001
0000
,
1000
0020
0000
0230
0000
0320
0000
2030
,
0000
3002
0000
0203
0000
0320
0000
0230
,
0000
0302
0000
0023
0000
0230
0000
2300
,
0000
3002
0000
2003
0000
3001
0010
0000
,
0001
0100
1000
0100
,
0001
0010
1000
0010
,
0001
1000
0010
0100
,
0001
0010
0100
1000
,
1000
0100
0001
0100
,
1000
0010
0001
0010
,
1000
0100
0010
0001
,
1000
0001
1001
0110
,
0100
0000
0001
0010
0001
0000
0100
0000
,
0001
0010
0001
0010
0000
0000
0000
0000
,
1000
0010
1000
0000
0010
0000
0100
0000
,
0001
1000
1000
0001
,
1000
0000
0001
0100
0001
0000
0010
0000
,
0001
0100
0001
0100
0000
0000
0000
0000
,
0002
1003
0020
0130
,
0002
2003
3020
0130
,
0001
0000
1000
0000
0100
0010
0001
0000
,
1000
0000
0001
0000
0010
0100
1000
0000
,
0001
0000
1000
0000
0100
0010
0001
0000
,
0100
0010
0100
0010
,
1000
0000
0001
0000
0010
0100
1000
0000
,
0001
0000
1000
0000
0100
0010
0001
0000
,
1000
0000
0001
0000
0010
0100
1000
0000
,
1001
0110
1001
0110
;

//---------------dance-single - ----------------
#NOTES:
     dance-single:
     :
     Easy:
     4:
     0.305495,0.321164,0.000000,0.168549,0.000000,203.000000,203.000000,0.000000,16.000000,0.000000,0.000000,0.305495,0.321164,0.000000,0.168549,0.000000,203.000000,203.000000,0.000000,16.000000,0.000000,0.000000:
0000
0000
0000
0000
,
0000
0000
0000
0000
,
0000
0000
0000
0000
,
0000
0000
0000
0000
,
0100
0100
0001
0100
,
0100
0100
1000
0100
,
0100
0100
0001
0100
,
0010
0100
0010
0100
,
0000
0001
1000
0010
,
0100
0000
0000
0001
,
1000
0100
0010
0000
,
0000
0100
0100
1000
,
1000
0010
0100
0001
,
1000
0000
0000
0001
,
0100
0001
0010
0001
,
0200
0000
0320
0000
0000
1030
0000
0000
,
0000
2000
0000
3200
0000
0320
0000
0230
,
0000
2300
0000
3200
0000
0320
0000
0030
,
0000
0002
0000
0203
0000
0320
0000
0230
,
0000
0302
0000
0003
1000
0000
0001
0000
,
1000
0000
0000
0000
,
0010
0100
0001
0000
,
0000
0001
0000
0000
,
0100
0010
1000
0001
,
1000
0000
0000
0000
,
0100
0010
0001
0000
,
0001
0000
1000
0000
,
0010
0100
0001
1000
,
0010
0010
1000
0010
,
0010
0010
0100
0010
,
0010
0010
0001
0010
,
0100
0010
0100
0010
,
0100
0100
0001
0100
,
0100
0100
0010
0100
,
0100
0100
1000
0100
,
0010
0100
0010
0100
,
0001
0000
0000
0000
,
0100
0000
0000
0000
,
0000
0010
0000
0000
,
1000
0000
0000
0000
,
1000
0000
0000
0000
,
0001
0000
0000
0000
,
0000
0100
0000
0000
,
0010
0000
0000
0000
,
0000
1000
0100
0010
,
0001
1000
0001
0000
,
0000
0001
0010
0100
,
1000
0001
1000
0001
,
1000
0001
0010
0100
,
1000
0010
0100
0001
,
1000
0001
0100
0010
,
0100
0001
2000
3020
,
0130
0001
0010
0100
,
1000
0001
1000
0000
,
0000
1000
0100
0010
,
0001
1000
0001
1000
,
0001
0100
0010
1000
,
0001
1000
0001
0000
,
1000
0100
0010
0001
,
1000
0001
1000
0001
,
0010
0010
0001
0010
,
0010
0010
1000
0010
,
0010
0010
0100
0010
,
0100
0010
0100
0010
,
0100
0100
0001
0100
,
0100
0100
0010
0100
,
0100
0100
1000
0100
,
0010
0010
0010
0010
;

//---------------dance-single - ----------------
#NOTES:
     dance-single:
     :
     Beginner:
     1:
     0.106848,0.249795,0.000000,0.084274,0.000000,71.000000,71.000000,0.000000,8.000000,0.000000,0.000000,0.106848,0.249795,0.000000,0.084274,0.000000,71.000000,71.000000,0.000000,8.000000,0.000000,0.000000:
0000
0000
0000
0000
,
0000
0000
0000
0000
,
0000
0000
0000
0000
,
0000
0000
0000
0000
,
0100
0000
0000
0000
,
0100
0000
0000
0000
,
0100
0000
0000
0000
,
0100
0100
0100
0100
,
0000
0001
0000
0000
,
0000
0000
0000
0000
,
1000
0000
0000
0000
,
0000
0000
0000
0000
,
0010
0010
0000
0000
,
0000
0000
0000
0000
,
0100
0000
0000
0000
,
0001
0001
0000
0000
,
0001
0000
0000
0000
,
0000
0000
0000
0000
,
1000
0000
0000
0000
,
0000
0000
0010
0010
,
0010
0000
0000
0000
,
2000
0000
3000
0000
,
0010
0000
0000
0000
,
0002
0000
0003
0000
,
0010
0000
0000
0000
,
0200
0000
0300
0000
,
0010
0000
0100
0000
,
0010
0010
0010
0010
,
0010
0000
0000
0000
,
0010
0000
0000
0000
,
0010
0000
0000
0000
,
0010
0000
0000
0000
,
0100
0000
0000
0000
,
0100
0000
0000
0000
,
0100
0000
0000
0000
,
0100
0000
0000
0000
,
0001
0000
0000
0000
,
0000
0000
0000
0000
,
1000
0000
0000
0000
,
0000
0000
0000
0000
,
0010
0000
0000
0000
,
0000
0000
0000
0000
,
1000
0000
0000
0000
,
0000
0000
0000
0000
,
0001
0000
0000
0000
,
0020
0000
0030
0000
,
0000
0010
0000
0000
,
0100
0000
0000
0000
,
1000
0000
0000
0000
,
0002
0000
0003
0000
,
0100
0000
0000
0000
,
0000
0000
0010
0010
,
0010
0000
0000
0000
,
2000
0000
3000
0000
,
0000
0010
0000
0000
,
0002
0000
0003
0000
,
0100
0000
0000
0000
,
0020
0000
0030
0000
,
1000
0000
0001
0000
,
1000
0000
0000
0000
,
0010
0000
0000
0000
,
0010
0000
0000
0000
,
0010
0000
0000
0000
,
0010
0000
0000
0000
,
0100
0000
0000
0000
,
0100
0000
0000
0000
,
0100
0000
0000
0000
,
0100
0100
0100
0100
;

//---------------dance-double - ----------------
#NOTES:
     dance-double:
     :
     Challenge:
     9:
     0.719342,0.642329,0.252823,0.042137,0.010534,478.000000,454.000000,24.000000,4.000000,0.000000,0.000000,0.719342,0.642329,0.252823,0.042137,0.010534,478.000000,454.000000,24.000000,4.000000,0.000000,0.000000:
00000000
00000000
00000000
00000000
,
00000000
00000000
00000000
00000000
,
00000000
00000000
00000000
00000000
,
00000000
00000000
00000000
00000000
,
10000000
00100000
10000000
01000000
10000000
00100000
10000000
00100000
,
00010000
00001000
00000100
00000001
00000010
00000100
00000010
00000100
,
00001000
00000010
00001000
00000100
00001000
00000010
00001000
00000010
,
00000100
00000001
00000010
00001000
00010000
00100000
10000000
01000000
,
00100000
00000000
00010000
01000000
00100000
10000000
00100000
01000000
,
00010000
10000000
00000000
01100000
00000000
10000000
01000000
00100000
,
00010000
01000000
00100000
10000000
01000000
00020000
00000000
00032000
,
00000000
00000000
00003010
00000000
00000001
00000000
00000010
00000001
00000000
00000010
00000001
00000000
00000010
00000000
00000001
00000000
,
00001000
00000000
00000001
00000100
00000010
00001000
00000010
00000100
,
00000001
00001000
00000000
00000110
00000000
00001000
00000001
00000100
,
00001000
00010000
01000000
10000000
00100000
01000000
00010000
10000000
,
10010000
00000000
01001000
00000000
00000000
00011000
00000000
00010000
,
00001000
00100000
00001000
01000000
00001000
00100000
00001000
01000000
,
00001000
00100000
00001000
01000000
00002000
00020000
00000000
00033000
,
00010000
00000100
00010000
00000010
00010000
00000100
00010000
00000010
,
00010000
00000100
00010000
00000010
00000100
00000000
00001001
00000000
,
00000110
00000000
00000001
00000100
00000010
00001000
00000100
00000010
,
00000001
00001000
00000001
00001000
00000001
00001000
00000010
00000100
,
00001000
00000000
00010000
01000000
00010000
01000000
10000000
01000000
,
10000000
00000000
00010000
00000000
01100000
00000000
10010000
00010000
,
10000000
00000000
00010000
01000000
00100000
10000000
01000000
00100000
,
00010000
10000000
00010000
10000000
00010000
10000000
01000000
00010000
,
00001000
00000000
00000010
00000001
00000010
00000001
00001000
00000001
,
00001001
00000110
00010010
00011000
,
00001000
00010000
00100000
10000000
00100000
00010000
00001000
00000000
,
00010000
00001000
00000100
00000001
00000100
00001000
00010000
00000000
,
00001000
00010000
01000000
10000000
01000000
00010000
00001000
00000100
,
00000001
00000010
00000100
00001000
00000010
00000100
00001000
00010000
,
00001000
00010000
00100000
10000000
00100000
00010000
00001000
00000000
,
00010000
00001000
00000100
00000001
00000100
00001000
00010000
00000000
,
00001000
00010000
01000000
10000000
01000000
00010000
00001000
00100000
,
01000000
10000000
00100000
01000000
00010000
00100000
00010000
10000000
,
10010000
00000000
10000000
01000000
00100000
00000000
00010000
01000000
,
00100000
00000000
00010000
00001000
00000010
00000001
00000001
00000000
,
00000100
00000010
00001000
00000000
00000010
00000100
00000001
00000000
,
00000010
00001000
00010000
00100000
10000000
00100000
00010000
00000000
,
10100000
00000000
00010000
01000000
00100000
00000000
10000000
01000000
,
00010000
00000000
00001000
00000010
00000001
00000100
00000100
00000000
,
00000010
00001000
00000100
00000000
00000010
00000001
00000100
00001000
,
00010000
01000000
10000000
01000000
00010000
00001000
00001000
00000000
,
00011000
00000000
00100000
00010000
01000000
00010000
00100000
00000000
,
00001000
00010000
00001000
00010000
00001000
00100000
00100000
00000000
,
00001000
00010000
00000100
00000010
00000100
00010000
00001000
00100000
,
01000000
10000000
01000000
10000000
00100000
01000000
00010000
00100000
,
00101000
00000000
00001000
00010000
00000100
00010000
00001000
00000000
,
00010000
00000010
00010000
00000010
00010000
00000100
00000100
00000000
,
00000010
00000001
00000100
00000010
00000100
00000001
00000010
00000100
,
00010000
00001000
00100000
01000000
11000000
00000000
10010000
00000000
,
01100000
00000000
10000000
01000000
00100000
00010000
01000000
00100000
,
10000000
00100000
10000000
00100000
10000000
01000000
00010000
00001000
,
00000010
00000000
00000001
00000100
00000010
00001000
00000100
00000010
,
00000001
00000100
00001000
00000100
00000001
00000010
00001000
00010000
,
00100000
00000000
10000000
00010000
01000000
00100000
10000000
01000000
,
00100000
00010000
00100000
00010000
00100000
01000000
00010000
00001000
,
00000010
00000001
00000100
00000010
00001000
00000100
00000010
00000001
,
00001000
00000001
00000100
00000010
00001000
00000001
00000100
00000010
,
00001000
00000100
00000001
00000100
00001000
00000010
00000001
00000010
,
00001000
00000100
00000010
00001000
00010000
00100000
10000000
01000000
,
00100000
00010000
01000000
00100000
10000000
01000000
00100000
00010000
,
10000000
01000000
00010000
01000000
10000000
01000000
00010000
01000000
,
10000000
00100000
00010000
00100000
10000000
01000000
00010000
01000000
,
10000000
00010000
01000000
00100000
00010000
00001000
00000010
00000001
,
00001000
00000010
00000100
00000001
00000010
00000100
00001000
00000010
,
00000110
00001001
00000110
00001001
;

//---------------dance-double - ----------------
#NOTES:
     dance-double:
     :
     Hard:
     8:
     0.629048,0.642329,0.410838,0.337098,0.000000,418.000000,379.000000,39.000000,32.000000,0.000000,0.000000,0.629048,0.642329,0.410838,0.337098,0.000000,418.000000,379.000000,39.000000,32.000000,0.000000,0.000000:
00000000
00000000
00000000
00000000
,
00000000
00000000
00000000
00000000
,
00000000
00000000
00000000
00000000
,
00000000
00000000
00000000
00000000
,
10000000
01000000
10000000
00100000
10000000
01000000
10000000
00000000
,
00010000
00100000
00010000
01000000
00010000
00100000
00010000
00000000
,
10000000
01000000
00010000
00000000
00001000
00000100
00000001
00000000
,
00000101
00000011
00001100
00001010
,
00001001
00000000
00000001
00000100
00000010
00000000
00001000
00000100
,
00000010
00000002
00000000
00002003
00000000
00000010
00003010
00000000
,
00000100
00000000
00000001
00000010
00001000
00010000
00000000
00200000
,
00000000
10300000
00010000
00000000
01000000
00000000
00010000
00000000
,
10010000
00000000
00100000
01000000
00010000
00000000
01000000
00100000
,
10000000
00020000
00000000
02030000
00000000
00100000
03100000
00000000
,
00010000
00001000
00000010
00000001
00000100
00000010
00001000
00000001
,
00000200
00000000
00000020
00000000
00000330
00000110
00000000
00000001
,
00001000
00000100
00001000
00000010
00001000
00000100
00001000
00000010
,
00001000
00000100
00010000
00001000
00100000
00020000
00000000
00030000
,
00010000
00100000
00010000
01000000
00010000
00100000
00010000
01000000
,
00001000
00010000
00000100
00000010
00000110
00000000
00000011
00000000
,
00001001
00000000
00000001
00000100
00000010
00001000
00000001
00000000
,
00001000
00000010
00001000
00000010
00001000
00000010
00000100
00000001
,
00000100
00000000
00000001
00001000
00000010
00000100
00000010
00001000
,
00000001
00000000
00000100
00000000
00001000
00000000
00010000
00100000
,
10000000
00000000
00010000
01000000
00100000
10000000
00010000
00000000
,
10000000
00100000
10000000
00100000
10000000
00100000
01000000
00010000
,
01000000
00000000
00100000
10000000
00010000
10000000
00100000
00000000
,
00010000
00001000
00000010
00000001
,
00000100
00000010
00000100
00000001
00000100
00000010
00000100
00000000
,
00000010
00001000
00000010
00000100
00000010
00001000
00000010
00000000
,
00010000
00001000
00010000
00000100
00010000
00001000
00010000
00000100
,
00010100
00011000
00101000
01100000
,
10000000
00100000
10000000
01000000
10000000
00100000
10000000
00000000
,
00010000
00100000
00010000
01000000
00010000
00100000
00010000
00000000
,
01000000
00001000
01000000
00100000
01000000
00001000
01000000
00100000
,
01100000
00011000
00000110
00000011
,
00000001
00000200
00000000
00000320
00000000
00002030
00000000
00003200
,
00000000
00000320
00000000
00000032
00000000
00000103
00001000
00010000
,
01000000
20000000
00000000
30200000
00000000
02300000
00000000
03020000
,
00000000
00230000
00000000
02300000
00000000
03010000
00001000
00000100
,
00000001
00002000
00000000
00003020
00000000
00000230
00000000
00000302
,
00000000
00000023
00000000
00000230
00000000
00001300
00000010
00000100
,
00001000
00020000
00000000
02030000
00000000
23000000
00000000
30200000
,
00000000
02300000
00000000
03020000
00000000
10030000
00010000
00000000
,
10010000
00000000
01010000
00000000
10000000
01000000
00100000
00000000
,
00010000
01000000
00010000
01000000
00100000
10000000
10000000
00000000
,
11000000
00000000
00100000
00001000
00010000
00000000
00011000
00000000
,
00000100
00001000
00000010
00000100
00000001
00000010
00000100
00000000
,
00001100
00000000
00001001
00000000
00000100
00000001
00000010
00000000
,
00000001
00001000
00000001
00001000
00000010
00000100
00000010
00000000
,
00001000
00000100
00000010
00000000
00001000
00010000
00100000
00000000
,
10000000
00010000
10000000
00010000
10010000
00000000
01100000
00000000
,
10010000
00000000
10000000
01000000
00100000
01000000
10000000
00000000
,
00100000
00010000
00001000
00000010
00000001
00000100
00000010
00001000
,
00001001
00000010
00000100
00000010
,
00001000
00000100
00000001
00000000
00000001
00000100
00001000
00000000
,
00000001
00000100
00000010
00000100
00000001
00000000
00001001
00000000
,
00000001
00000100
00001000
00010000
01000000
00000000
10000000
00010000
,
01000000
00100000
10010000
01000000
,
01100000
00101000
00011000
00010010
,
00000010
00000100
00000001
00001000
00000100
00000010
00000001
00000000
,
00000100
00001000
00010000
00000000
01000000
10000000
01000000
00000000
,
00100000
00010000
10000000
00100000
01000000
00010000
10000000
00000000
,
10010000
01100000
10010000
01100000
,
01000000
00010000
10000000
00100000
01000000
00010000
10000000
00000000
,
01000000
00010000
00001000
00000000
00000010
00000001
00000010
00000000
,
00000001
00000100
00000010
00001000
00000100
00000010
00000001
00000100
,
00001000
00010000
01000000
10010000
;

//---------------dance-double - ----------------
#NOTES:
     dance-double:
     :
     Medium:
     6:
     0.499627,0.499589,0.337098,0.389769,0.000000,332.000000,300.000000,32.000000,37.000000,0.000000,0.000000,0.499627,0.499589,0.337098,0.389769,0.000000,332.000000,300.000000,32.000000,37.000000,0.000000,0.000000:
00000000
00000000
00000000
00000000
,
00000000
00000000
00000000
00000000
,
00000000
00000000
00000000
00000000
,
00000000
00000000
00000000
00000000
,
10000000
00000000
01000000
00000000
10000000
01000000
10000000
00000000
,
01000000
00010000
00001000
00000100
,
00000001
00000000
00000100
00000000
00000001
00000100
00000001
00000000
,
00001000
00001000
00000001
00000001
,
00000100
00000000
00000010
00000100
00000010
00000100
00000010
00000000
,
00001000
00000001
00000000
00001001
00000000
00000000
00000001
00000100
,
00000001
00000000
00000100
00000000
00001000
00010000
00000000
02000000
,
00000000
13000000
00010000
00000000
10000000
00000000
00010000
00000000
,
10010000
00000000
10000000
00100000
10000000
00100000
10000000
00000000
,
00010000
01000000
00000000
01010000
00000000
00000000
10000000
01000000
,
10000000
00000000
01000000
00000000
00010000
00001000
00000000
00000200
,
00000000
00000300
00000000
00000002
00000000
00000003
00000000
00000001
,
00001000
00000001
00000000
00000100
00000000
00000101
00000000
00001001
,
00000000
00001000
00000000
00000010
00000000
00010010
00000000
00010000
,
00001000
00010000
00000000
00001000
00000000
00011000
00000000
01001000
,
00000000
01000000
00000000
00100000
20000000
00000000
30020000
00000000
,
10030000
00000000
00100000
01000000
00100000
01000000
00100000
00000000
,
20000000
00000000
00000000
30010000
00000000
00000000
01000000
00100000
,
01000000
00000000
00010000
00100000
00010000
00100000
00010000
00000000
,
10000000
01000000
00010000
00001000
,
00000010
00000000
00000001
00000100
00000001
00000100
00000001
00000000
,
00002000
00000000
00000000
00003010
00000000
00000000
00001000
00000001
,
00000010
00000000
00000001
00000100
00000001
00000100
00000001
00000000
,
00000100
00001000
00010000
01000000
,
10000000
00000000
00100000
00000000
10000000
00100000
10000000
00000000
,
00100000
00010000
00001000
00000010
,
00000001
00000000
00000010
00000000
00000001
00000010
00000001
00000000
,
00001001
00000101
00001001
00001100
,
00000001
00000000
00000100
00000000
00000001
00000100
00000001
00000000
,
00000100
00001000
00010000
01000000
,
10000000
00000000
01000000
00000000
10000000
01000000
10000000
00000000
,
10100000
01010000
11000000
00110000
,
00010000
02000000
00000000
03200000
00000000
20300000
00000000
32000000
,
00000000
03020000
00000000
00032000
00000000
00003020
00000000
00000032
,
00000000
00002003
00000000
00003020
00000000
00000230
00000000
00000302
,
00000000
00000023
00000000
00002030
00000000
00013000
00001000
00000000
,
00010000
00002000
00000000
00203000
00000000
02300000
00000000
23000000
,
00000000
30200000
00000000
02300000
00000000
03020000
00000000
20030000
,
00000000
32000000
00000000
03020000
00000000
00032000
00000000
00003020
,
00000000
00000032
00000000
00002003
00000000
00003010
00000100
00000000
,
00000101
00001001
00000010
00001000
,
00000001
00000100
00000001
00000100
00000001
00000000
00000100
00000000
,
00001000
00000000
00010000
00001000
00010000
00000000
00001000
00100000
,
00001000
00100000
01000000
10000000
,
11000000
10100000
01000000
00010000
,
10000000
00100000
10000000
00100000
10000000
00000000
00010000
00000000
,
01000000
00100000
01000000
00100000
01000000
00000000
00010000
00000000
,
10000000
00010000
01010000
00110000
,
10010000
00000000
10000000
01000000
10000000
01000000
10000000
00000000
,
01000000
00000000
00010000
00000000
00001000
00000000
00000010
00000001
,
00000010
00000000
00000001
00000100
00000001
00000100
00000001
00000000
,
00000100
00001000
00010000
01000000
,
10000000
00010000
00100000
00110000
,
00010000
10000000
00010000
10000000
00010000
00000000
01000000
00100000
,
20000000
31000000
00020000
00031000
,
00000010
00000010
00000001
00000001
,
00001000
00000000
00000001
00000000
00001000
00000001
00001000
00000000
,
00000010
00000100
00001000
00010000
,
01000000
00000000
10000000
00000000
01000000
10000000
01000000
00000000
,
11000000
10010000
01010000
10010000
,
10000000
00000000
00010000
00000000
10000000
00010000
10000000
00000000
,
01000000
00010000
00001000
00000100
,
00000001
00000000
00000010
00000000
00000001
00000010
00000001
00000000
,
00000011
00001100
00001001
00000101
;

//---------------dance-double - ----------------
#NOTES:
     dance-double:
     :
     Easy:
     5:
     0.376225,0.463904,0.126412,0.021069,0.000000,250.000000,238.000000,12.000000,2.000000,0.000000,0.000000,0.376225,0.463904,0.126412,0.021069,0.000000,250.000000,238.000000,12.000000,2.000000,0.000000,0.000000:
// measure 0
00000000
00000000
00000000
00000000
,  // measure 1
00000000
00000000
00000000
00000000
,  // measure 2
00000000
00000000
00000000
00000000
,  // measure 3
00000000
00000000
00000000
00000000
,  // measure 4
10000000
00100000
10000000
10000000
,  // measure 5
00010000
01000000
00100000
00100000
,  // measure 6
10000000
01000000
00100000
00001000
,  // measure 7
00010000
00010000
00001000
00001000
,  // measure 8
00010000
00000010
00000100
00000010
,  // measure 9
00001000
00000001
00000000
00000001
00000000
00000000
00000100
00000000
,  // measure 10
00000010
00001000
00000010
00000100
,  // measure 11
00000001
00000100
00000010
00010000
,  // measure 12
00001000
00100000
01000000
00100000
,  // measure 13
00010000
10000000
00000000
10000000
00000000
00000000
00100000
00000000
,  // measure 14
01000000
00010000
10000000
00100000
,  // measure 15
10000000
00000000
10000000
00000000
00000000
00010000
00000000
00000000
,  // measure 16
00000000
01000000
00000000
01000000
00000000
00010000
00000000
00010000
,  // measure 17
00000000
01000000
00000000
01000000
00000000
00011000
00000000
00000000
,  // measure 18
00000000
00000100
00000000
00000100
00000000
00001000
00000000
00001000
,  // measure 19
00000000
00000100
00000000
00000100
00020000
00000000
00032000
00000000
,  // measure 20
00013000
00000100
00000010
00000001
,  // measure 21
00001000
00000001
00000000
00001000
00000000
00000000
00000000
00000000
,  // measure 22
00000000
00000001
00000100
00000010
,  // measure 23
00001000
00000100
00001000
00000100
,  // measure 24
00010000
00001000
00100000
01000000
,  // measure 25
10000000
00010000
00000000
10000000
00000000
00000000
00000000
00000000
,  // measure 26
00100000
01000000
00010000
01000000
,  // measure 27
00001000
00001000
00010000
00010000
,  // measure 28
00000100
00001000
00000100
00000010
,  // measure 29
00000001
00000100
00000001
00001000
,  // measure 30
00000100
00000100
00010000
00010000
,  // measure 31
00001000
01000000
00001000
01000000
,  // measure 32
00100000
10000000
00010000
01000000
,  // measure 33
00010000
00100000
01000000
10000000
,  // measure 34
00100000
00100000
01000000
01000000
,  // measure 35
00001000
00001000
00010000
00010000
,  // measure 36
00000000
00000010
00000100
00000001
,  // measure 37
00001000
00000001
00000000
00001000
00000000
00000000
00000000
00000000
,  // measure 38
00000000
00000100
00010000
00001000
,  // measure 39
01000000
01000000
00100000
00100000
,  // measure 40
00000000
10000000
01000000
00100000
,  // measure 41
00010000
10000000
00000000
00010000
00000000
00000000
00000000
00000000
,  // measure 42
00000000
01000000
00001000
00010000
,  // measure 43
00000100
00000100
00001000
00001000
,  // measure 44
00001001
00000001
00000100
00000010
,  // measure 45
00001000
00000100
00000000
00000010
00000000
00000000
00000000
00000000
,  // measure 46
00000000
00000001
00000100
00000010
,  // measure 47
00010000
00010000
00001000
00001000
,  // measure 48
01000000
00100000
10000000
00010000
,  // measure 49
01000000
00100000
00000000
10000000
00000000
00000000
00000000
00000000
,  // measure 50
10000000
00010000
01000000
00100000
,  // measure 51
01000000
01000000
00001000
00001000
,  // measure 52
00010000
00000010
00000100
00000001
,  // measure 53
00000100
00000010
00000000
00000100
00000000
00000000
00000000
00000000
,  // measure 54
00000001
00001000
00001000
00000001
,  // measure 55
00000100
00001000
00010000
01000000
,  // measure 56
10000000
00100000
01000000
00010000
,  // measure 57
10000000
00100000
00000000
10000000
00000000
00000000
00000000
00000000
,  // measure 58
10010000
00000000
01100000
00000000
,  // measure 59
10010000
10010000
01100000
01100000
,  // measure 60
10000000
01000000
10000000
01000000
,  // measure 61
00010000
00001000
00010000
00001000
,  // measure 62
00000100
00000001
00000100
00000001
,  // measure 63
00001000
00000001
00001000
00000001
,  // measure 64
00000001
00000100
00000001
00000100
,  // measure 65
00001000
00010000
00001000
00010000
,  // measure 66
01000000
10000000
01000000
10000000
,  // measure 67
10100000
10100000
01010000
01010000
;
