#VERSION:0.83;
#TITLE:Seventeen Years;
#SUBTITLE:;
#ARTIST:Ratatat;
#TITLETRANSLIT:;
#SUBTITLETRANSLIT:;
#ARTISTTRANSLIT:;
#GENRE:Rock;
#ORIGIN:;
#CREDIT:;
#BANNER:seventeenyears-bn.png;
#BACKGROUND:seventeenyears-bg.png;
#PREVIEWVID:;
#JACKET:;
#CDIMAGE:;
#DISCIMAGE:;
#LYRICSPATH:;
#CDTITLE:;
#MUSIC:Seventeen Years.ogg;
#OFFSET:-0.080000;
#SAMPLESTART:49.920010;
#SAMPLELENGTH:12.000000;
#SELECTABLE:YES;
#BPMS:0.000=115.500;
#STOPS:;
#DELAYS:;
#WARPS:;
#TIMESIGNATURES:0.000=4=4;
#TICKCOUNTS:0.000=4;
#COMBOS:0.000=1;
#SPEEDS:0.000=1.000=0.000=0;
#SCROLLS:0.000=1.000;
#FAKES:;
#LABELS:0.000=Song Start;
#BGCHANGES:;
#KEYSOUNDS:;
#ATTACKS:
;

//---------------dance-single - ----------------
#NOTEDATA:;
#CHARTNAME:;
#STEPSTYPE:dance-single;
#DESCRIPTION:;
#CHARTSTYLE:;
#DIFFICULTY:Hard;
#METER:7;
#RADARVALUES:0.401644,0.423330,0.256564,0.256564,0.016035,263.000000,239.000000,24.000000,24.000000,0.000000,0.000000,0.000000,0.000000,0.000000,0.401644,0.423330,0.256564,0.256564,0.016035,263.000000,239.000000,24.000000,24.000000,0.000000,0.000000,0.000000,0.000000,0.000000;
#CREDIT:;
#NOTES:
0000
0000
0000
0000
,
0000
0000
0000
0000
,
0000
0000
0000
0000
,
0000
0000
0000
0000
,
0000
0010
1000
0001
0100
0010
0010
1000
,
0100
0000
1000
0100
1100
0000
0101
0000
,
0000
0000
1000
0001
1000
0000
0010
0000
0100
0000
0000
0000
0010
0000
1000
0000
,
0001
0100
0010
0000
0110
0000
1001
0000
,
0200
0000
0000
0000
0310
1000
0010
0100
,
0020
0000
0000
0000
1030
0100
0020
0000
,
0032
0000
1000
0000
1003
0100
0010
0001
,
2000
0000
0000
0010
3010
0010
1000
0001
,
0200
0000
0000
0000
0301
0100
0010
1000
,
0002
0000
0000
0000
1003
0100
0002
0000
,
0203
2000
0000
3300
1000
0001
0100
0010
,
2000
0000
0000
3001
1001
0000
1001
0000
,
0000
0100
0001
0100
0010
0100
1000
0200
,
0000
0310
1000
0010
0100
0010
0002
0000
,
0003
1000
0010
1000
0001
1000
0100
2000
,
0000
3001
0100
0001
0010
0002
2000
0000
,
3003
0001
0100
0010
1000
0010
0100
0002
,
0000
1003
0010
0100
0010
1000
0002
0000
,
0003
0100
0001
1000
0010
1000
0001
0010
,
0000
0010
0001
1000
1100
0000
1010
0000
,
0100
0001
1000
0010
0100
0001
0011
0000
,
0100
0010
1000
0100
1010
0000
1000
0001
,
0000
0000
0010
0100
0010
0000
0100
0000
0001
0000
0000
0000
1100
0000
0000
0000
,
0010
0100
0001
0010
0011
0000
1010
0000
,
0000
0001
1000
0100
0001
0000
1010
0000
,
0001
0100
0010
1000
1010
0000
0101
0000
,
0000
0000
1000
0001
1000
0000
0010
0000
0110
0000
0000
0000
0101
0000
0000
0000
,
0010
0100
0001
1000
1100
0000
0011
0000
,
0001
0100
0100
0100
0001
0010
0100
0000
,
0010
0001
0001
0001
0010
0001
1000
0000
,
0001
1000
1000
1000
0001
1000
0100
0000
,
1000
0100
0100
0100
1000
0010
0100
0000
,
0110
0100
0001
1000
0010
1000
0001
0000
,
1001
0001
1000
0010
0100
0001
0100
0000
,
0011
0001
0100
0010
1000
0001
0100
0000
,
1010
1000
0100
0001
0100
1000
0010
0010
,
0200
0000
0001
0001
0010
0000
1300
0000
,
0200
0000
1000
1000
0010
0000
0301
0000
,
0020
0000
1000
1000
1030
0000
0200
0000
,
0320
0000
0032
0000
,
1003
0000
0000
0000
;

//---------------dance-single - ----------------
#NOTEDATA:;
#CHARTNAME:;
#STEPSTYPE:dance-single;
#DESCRIPTION:;
#CHARTSTYLE:;
#DIFFICULTY:Medium;
#METER:5;
#RADARVALUES:0.287107,0.352775,0.160352,0.331395,0.000000,188.000000,173.000000,15.000000,31.000000,0.000000,0.000000,0.000000,0.000000,0.000000,0.287107,0.352775,0.160352,0.331395,0.000000,188.000000,173.000000,15.000000,31.000000,0.000000,0.000000,0.000000,0.000000,0.000000;
#CREDIT:;
#NOTES:
0000
0000
0000
0000
,
0000
0000
0000
0000
,
0000
0000
0000
0000
,
0000
0000
0000
0000
,
0000
0001
0100
0000
0011
0000
1000
1000
,
1000
0000
0000
0000
1000
0100
0010
0000
,
0000
1000
0010
0000
1100
0000
0010
0010
,
0010
0000
0000
0000
0100
0001
1000
0000
,
0022
0000
0033
0000
0001
1000
0001
0000
,
2200
0000
3300
0000
1000
0001
1000
0000
,
0012
0000
0013
0000
0001
0100
0010
0000
,
2020
0000
3030
0001
1000
0000
0010
0100
,
0220
0000
0330
0000
1000
0100
0010
0000
,
0202
0000
0303
0000
0001
0100
0010
0000
,
2200
0000
3300
0000
1000
0001
0100
0010
,
2000
0000
0000
0001
3001
0000
1001
0000
,
0000
0001
0100
0001
0010
0001
0100
0001
,
0000
1000
0010
1000
0100
1000
0020
0000
,
0030
0010
0100
0010
1000
0010
0100
0010
,
0000
0100
0001
0100
0020
0000
0230
0000
,
0300
0001
0100
0001
1000
0001
0100
0001
,
0000
1000
0001
1000
0010
1000
0002
0000
,
0003
0001
0100
0010
1000
0000
0001
0000
,
0000
0100
0010
1000
0001
0000
1001
0000
,
2000
0000
0000
0000
,
3020
0000
0130
0001
1000
0000
0011
0000
,
0002
0000
0000
0000
,
0203
0000
0310
1000
0001
0000
1010
0000
,
0200
0000
0000
0000
,
0302
0000
1003
0010
0100
0000
1001
0000
,
0020
0000
0000
0000
,
2030
0000
3001
1000
0100
0000
1001
0000
,
0000
0010
0000
0010
,
0000
0100
0000
0100
,
0000
0010
0000
0010
,
0000
0100
0000
0100
,
0001
0100
0010
0000
1000
0010
0100
0000
,
0001
0010
0100
0000
1000
0100
0010
0000
,
0001
1000
0010
0000
0100
0001
1000
0000
,
0010
1000
0100
0000
1000
0100
1000
0001
,
2000
0000
0001
0001
0001
0000
3000
0000
,
0020
0000
0100
0100
0100
0000
0030
0000
,
0200
0000
0310
1000
0001
0000
0000
0000
,
0020
0000
0230
0000
,
0301
0000
0000
0000
;

//---------------dance-single - ----------------
#NOTEDATA:;
#CHARTNAME:;
#STEPSTYPE:dance-single;
#DESCRIPTION:;
#CHARTSTYLE:;
#DIFFICULTY:Easy;
#METER:2;
#RADARVALUES:0.151189,0.211665,0.053451,0.138972,0.000000,99.000000,94.000000,5.000000,13.000000,0.000000,0.000000,0.000000,0.000000,0.000000,0.151189,0.211665,0.053451,0.138972,0.000000,99.000000,94.000000,5.000000,13.000000,0.000000,0.000000,0.000000,0.000000,0.000000;
#CREDIT:;
#NOTES:
0000
0000
0000
0000
,
0000
0000
0000
0000
,
0000
0000
0000
0000
,
0000
0000
0000
0000
,
0000
0010
0100
0000
,
0002
0003
0001
0001
,
0000
0010
1000
0000
,
0020
0030
0010
0010
,
0000
0000
0001
0100
,
0000
0000
0010
1000
,
0000
0000
1000
0100
,
0000
0000
1001
1001
,
0000
0000
0001
1000
,
0000
0000
0010
0100
,
0000
0000
0100
0001
,
0000
0000
0110
0110
,
0000
0010
1000
0100
,
0000
0010
0001
0100
,
0000
0010
1000
0001
,
0000
0100
0001
1000
,
0000
0001
0100
1000
,
0000
0100
0001
1000
,
0000
1000
0010
0001
,
0000
0010
2000
3002
,
2003
0000
0000
0000
,
3010
0100
0010
0010
,
0200
0000
0000
0000
,
0301
1000
0010
0010
,
0020
0000
0000
0000
,
1030
0001
0100
0100
,
0002
0000
0000
0000
,
1003
0010
1000
1010
,
0000
1000
0000
0001
,
0000
1000
0000
0001
,
0000
1000
0000
0001
,
0000
1000
0000
0001
,
0001
0010
0100
0000
,
1000
0100
0000
0000
,
0001
1000
0000
0000
,
0100
0000
1000
0001
,
2000
0000
0000
0000
,
3200
0000
0000
0000
,
0320
0000
0000
0000
,
0032
0000
2003
0000
,
3010
0000
0000
0000
;

//---------------dance-single - ----------------
#NOTEDATA:;
#CHARTNAME:;
#STEPSTYPE:dance-single;
#DESCRIPTION:;
#CHARTSTYLE:;
#DIFFICULTY:Beginner;
#METER:1;
#RADARVALUES:0.096211,0.141110,0.032070,0.000000,0.000000,63.000000,60.000000,3.000000,0.000000,0.000000,0.000000,0.000000,0.000000,0.000000,0.096211,0.141110,0.032070,0.000000,0.000000,63.000000,60.000000,3.000000,0.000000,0.000000,0.000000,0.000000,0.000000,0.000000;
#CREDIT:;
#NOTES:
0000
0000
0000
0000
,
0000
0000
0000
0000
,
0000
0000
0000
0000
,
0000
0000
0000
0000
,
0000
0000
0100
0000
,
0000
0000
0010
0000
,
0000
0000
0010
0000
,
0000
0000
1000
0000
,
0000
0000
0001
0000
,
0001
0000
0100
0000
,
0100
0000
0010
0000
,
0010
0000
1001
0000
,
0000
0000
1000
0000
,
0100
0000
0010
0000
,
0001
0000
0001
0000
,
0000
0000
0110
0000
,
0010
0000
1000
0000
,
0000
0001
0000
0000
,
0100
0000
0001
0000
,
0000
0000
1000
0000
,
0000
0010
0000
0100
,
0000
0000
0001
0000
,
0000
0100
0000
0010
,
0000
0000
1000
0000
,
1000
0000
0000
0000
,
0001
0000
1000
0000
,
0010
0000
0000
0000
,
0100
0000
0010
0000
,
1000
0000
0000
0000
,
0100
0000
0010
0000
,
0001
0000
0000
0000
,
0001
0000
0010
0000
,
0000
0100
0000
0100
,
0000
0100
0000
0100
,
0000
0100
0000
0100
,
0100
0000
0000
0000
,
0001
0000
0100
0000
,
1000
0000
0000
0000
,
0100
0000
0001
0000
,
0010
0000
0000
0000
,
0001
0000
0000
0000
,
1000
0000
0000
0000
,
0001
0000
0000
0000
,
0010
0000
0100
0000
,
1001
0000
0000
0000
;

//---------------dance-double - ----------------
#NOTEDATA:;
#CHARTNAME:;
#STEPSTYPE:dance-double;
#DESCRIPTION:;
#CHARTSTYLE:;
#DIFFICULTY:Easy;
#METER:3;
#RADARVALUES:0.206167,0.237856,0.021380,0.224493,0.000000,135.000000,133.000000,2.000000,21.000000,0.000000,0.000000,0.000000,0.000000,0.000000,0.206167,0.237856,0.021380,0.224493,0.000000,135.000000,133.000000,2.000000,21.000000,0.000000,0.000000,0.000000,0.000000,0.000000;
#CREDIT:;
#NOTES:
00000000
00000000
00000000
00000000
,
00000000
00000000
00000000
00000000
,
00000000
00000000
00000000
00000000
,
00000000
00000000
10000000
10000000
,
10000000
00100000
10000000
00000000
,
00010000
00000000
00100000
00100000
,
00100000
00001000
00100000
00000000
,
00001000
00010000
00000100
00000100
,
00000200
00000300
00000010
00000001
,
00002000
00003000
00000100
00000100
,
00020000
00031000
00100000
01000000
,
20000000
30000000
10000000
00010000
,
20000000
30000000
00100000
01000000
,
00002000
00003000
00010000
00010000
,
00000020
00000030
00000200
00000310
,
00000100
00000000
00000101
00000101
,
00000000
00000010
00001000
00000001
,
00001000
00000010
00020000
00032000
,
00103000
00010000
10000000
00010000
,
00200000
00301000
00010000
00010000
,
00000100
00001000
00000001
00001000
,
00000100
00010000
00001000
00002000
,
01003000
00010000
10000000
00010000
,
01000000
00001000
00010000
00010000
,
00000020
00000000
00000000
00000030
,
00000100
00000000
00000001
00001000
00000001
00000000
00001000
00000000
,
00000200
00000000
00000000
00000300
,
00010000
00000000
00001000
00010000
00001000
00000000
00001000
00000000
,
00200000
00000000
00000000
00000000
,
01300000
00000000
10000000
00010000
10000000
00000000
01000000
00000000
,
00200000
00000000
00000000
00000000
00000000
00000000
00301000
00010000
,
00001000
00010000
00000100
00000100
,
00000000
00000010
00000000
00000010
,
00000000
00000001
00000000
00000001
,
00000000
00001000
00000000
00001000
,
00000000
00000100
00000000
00010000
,
00001000
00100000
01000000
10000000
,
00100000
01000000
00010000
10000000
,
01000000
00100000
00001000
00010000
,
00000200
00000000
00000320
00000000
,
00000031
00001000
00000001
00000001
,
00001000
00000001
00001000
00001000
,
00000100
00010000
00001000
01000000
,
00200000
00000000
20300000
00000000
,
30020000
00000000
00030000
00000000
;

//---------------dance-double - ----------------
#NOTEDATA:;
#CHARTNAME:;
#STEPSTYPE:dance-double;
#DESCRIPTION:;
#CHARTSTYLE:;
#DIFFICULTY:Medium;
#METER:5;
#RADARVALUES:0.288634,0.382708,0.021380,0.192423,0.000000,189.000000,187.000000,2.000000,18.000000,0.000000,0.000000,0.000000,0.000000,0.000000,0.288634,0.382708,0.021380,0.192423,0.000000,189.000000,187.000000,2.000000,18.000000,0.000000,0.000000,0.000000,0.000000,0.000000;
#CREDIT:;
#NOTES:
00000000
00000000
00000000
00000000
,
00000000
00000000
00000000
00000000
,
00000000
00000000
00000000
00000000
,
00000000
00000000
00000000
00000000
,
10000000
01000000
10000000
00100000
10000000
01000000
10000000
00000000
,
01000000
00010000
00002000
00003100
,
00000001
00000010
00000001
00001000
00000001
00000010
00000001
00000000
,
00000100
00001000
00020000
01030000
,
00000000
00000000
00000000
00000000
10000000
01000000
10000000
01000000
,
00000000
00000000
00000000
00000000
00100000
00001000
00020000
00000000
,
00030000
00000000
00000000
00000000
00000100
00001000
00000100
00001000
,
00000000
00000000
00000000
00000010
00000100
00000000
00000100
00000000
,
00000000
00000000
00000000
00000000
00000001
00001000
00000001
00001000
,
00000000
00000000
00000000
00000000
00000100
00010000
00002000
00000000
,
00000000
01003000
00000000
00000000
00100000
10000000
00100000
10000000
,
00000000
00000000
00000000
10000000
00010000
00000000
00010000
00000000
,
00000000
10000000
01000000
00100000
01000000
10000000
01000000
10000000
,
00000000
00010000
01000000
00000000
00001000
00000000
00010000
00000000
,
00000000
00000100
00001000
00000001
00001000
00000100
00000010
00000001
,
00000000
00001000
00000001
00000000
00000200
00000000
00000310
00000000
,
00000000
00001000
00000100
00000010
00000100
00001000
00000100
00001000
,
00000000
00000010
00010000
00000000
00001000
00000000
00001000
00000000
,
00000000
00100000
01000000
10000000
01000000
00100000
00010000
10000000
,
00000000
00010000
01000000
00000000
00100000
00000000
00100000
00000000
,
20000000
00000000
00000000
30000000
,
00020000
00000000
01030000
00001000
00010000
00000000
00001000
00010000
,
00000200
00000000
00000000
00000300
,
00000020
00000000
00000031
00001000
00000001
00000000
00001100
00000000
,
00000002
00000000
00000000
00000003
,
00002000
00000000
00003100
00010000
00001000
00000000
00010000
00001000
,
00200000
00000000
00000000
00000000
00000000
01300000
10000000
01000000
,
00200000
00000000
00310000
10000000
00010000
00000000
11000000
00000000
,
00100000
10000000
00100000
10000000
00100000
10000000
00100000
00000000
,
00010000
01000000
00010000
01000000
00010000
01000000
00010000
00000000
,
00100000
00001000
00100000
00001000
00100000
00001000
00100000
00000000
,
00001000
00010000
00001000
00010000
00001000
00010000
00001000
00000000
,
00010000
00000000
00000100
00000100
00000100
00000000
00000010
00000000
,
00000001
00000000
00001000
00001000
00001000
00000000
00000100
00000000
,
00010000
00000000
00001000
00001000
00001000
00000000
00100000
00000000
,
02000000
00000000
23000000
00000000
,
30100000
00000000
00010000
00001000
00000010
00000000
00000001
00000000
,
00000100
00000000
00001000
00010000
01000000
00000000
10000000
00000000
,
00010000
00000000
01000000
00100000
01000000
00000000
00010000
00000000
,
20000000
00000000
32000000
00000000
,
03020000
00000000
00000000
00030000
;

//---------------dance-double - ----------------
#NOTEDATA:;
#CHARTNAME:;
#STEPSTYPE:dance-double;
#DESCRIPTION:;
#CHARTSTYLE:;
#DIFFICULTY:Hard;
#METER:8;
#RADARVALUES:0.494802,0.502304,0.342085,0.192423,0.037416,324.000000,292.000000,32.000000,18.000000,0.000000,0.000000,0.000000,0.000000,0.000000,0.494802,0.502304,0.342085,0.192423,0.037416,324.000000,292.000000,32.000000,18.000000,0.000000,0.000000,0.000000,0.000000,0.000000;
#CREDIT:;
#NOTES:
// measure 0
00000000
00000000
00000000
00000000
,  // measure 1
00000000
00000000
00000000
00000000
,  // measure 2
00000000
00000000
00000000
00000000
,  // measure 3
00000000
00000000
00000000
00000000
,  // measure 4
10000000
01000000
01000000
00100000
00010000
00010000
01000000
00100000
,  // measure 5
00010000
00001000
00000010
00000001
00001000
00000100
00000011
00000000
,  // measure 6
00001001
00000000
00000001
00000100
00000001
00000000
00000100
00000000
00001000
00000000
00010000
00000000
01000000
00000000
10000000
00000000
,  // measure 7
00100000
00000000
01000000
00000000
00100000
00000000
01000000
00000000
00010000
10000000
00010000
00000000
10010000
00000000
00000000
00000000
,  // measure 8
12000000
00000000
03010000
00010000
00001000
00000100
00000001
00000100
,  // measure 9
00002000
00000000
00013000
00010000
00000010
00000100
00000102
00000000
,  // measure 10
00002003
00000000
00003020
00000000
00000130
00001000
00010000
01000000
,  // measure 11
22000000
00000000
00000000
00000000
33000000
00000000
10000000
00000000
00010000
00100000
00010000
00000000
10000000
00000000
01000000
00000000
,  // measure 12
12000000
00000000
03010000
00010000
00001000
00000010
00000001
00000010
,  // measure 13
00002000
00000000
00013000
00010000
00100000
10000000
00200000
00000000
,  // measure 14
10300000
00020000
01000000
01030000
00100000
00010000
00001000
00000010
,  // measure 15
00000011
00000000
00000001
00001000
00000110
00000000
00001001
00000000
,  // measure 16
00000001
00000010
00001000
00010000
00100000
00010000
00001000
00010000
,  // measure 17
00200000
10000000
10300000
01000000
00100000
00010000
00110000
00000000
,  // measure 18
10000000
01000000
00010000
00001000
00000100
00001000
00010000
00001000
,  // measure 19
00000100
00000000
00000001
00000000
00000010
00000000
00000100
00000000
00001000
00000100
00001000
00000000
00001100
00000000
00000000
00000000
,  // measure 20
00000001
00000100
00001000
00010000
01000000
00010000
00001000
00010000
,  // measure 21
02000000
10000000
13000000
00100000
01000000
00010000
01010000
00000000
,  // measure 22
10010000
10000000
00100000
00010000
00001000
00000010
00000001
00000100
,  // measure 23
00000010
00001000
00000100
00000010
00000011
00000000
00001001
00000000
,  // measure 24
00010100
00010000
00001000
00100000
01000000
01000000
10000000
10000000
,  // measure 25
00100000
00010000
00001000
00000010
00000011
00000001
00001000
00001010
,  // measure 26
00000010
00000000
00000100
00001000
00010000
00000000
01000000
00000000
10000000
00000000
10000000
00000000
00010000
00000000
00010000
00000000
,  // measure 27
10000000
01000000
00010000
00001000
00001100
00000000
00000101
00000000
,  // measure 28
00001001
00000001
00001000
00000010
00000100
00000100
00001000
00001000
,  // measure 29
00010000
01000000
10000000
00100000
01100000
00010000
10010000
00000000
,  // measure 30
11000000
00000000
10000000
00100000
10000000
00000000
01000000
00000000
00010000
00000000
00010000
00000000
00001000
00000000
00001000
00000000
,  // measure 31
00000100
00000001
00001000
00000010
00001010
00000000
00000101
00000000
,  // measure 32
00000001
00000100
00001000
00000100
00001000
00001000
00010000
00010000
,  // measure 33
01000000
10000000
01000000
00010000
01000000
01000000
10000000
10000000
,  // measure 34
00100000
00010000
00001000
00010000
00100000
00100000
00010000
00010000
,  // measure 35
00001000
00000010
00000001
00000010
00001000
00001000
00000100
00000100
,  // measure 36
00000001
00001000
00000010
00000100
00001000
00010000
00001000
00010000
,  // measure 37
01000000
10000000
00100000
00010000
00001000
00000100
00001000
00000100
,  // measure 38
00000001
00000010
00001000
00010000
01000000
10000000
01000000
10000000
,  // measure 39
10010000
00000000
00100000
00000000
01000000
00000000
00100000
00000000
10010000
00000000
01000000
00000000
00100000
00000000
01000000
00010000
,  // measure 40
00002000
00000000
00003100
00000100
00000100
00000000
00000101
00000000
,  // measure 41
00000002
00000000
00000013
00001000
00010000
00000000
10100000
00000000
,  // measure 42
20000000
00000000
31000000
01000000
01000000
00000000
00010000
00000000
,  // measure 43
00001000
00000100
00000001
00000000
00001000
00000010
00000100
00000000
,  // measure 44
00022000
00000000
00000000
00033000
;
