#TITLE:Sense Of The Scamper;
#SUBTITLE:;
#ARTIST:Yasushi Asada;
#TITLETRANSLIT:;
#SUBTITLETRANSLIT:;
#ARTISTTRANSLIT:;
#GENRE:;
#CREDIT:;
#BANNER:senseofthescamper-bn.png;
#BACKGROUND:senseofthescamper-bg.png;
#LYRICSPATH:;
#CDTITLE:;
#MUSIC:Sense of the Scamper.ogg;
#OFFSET:-0.020000;
#SAMPLESTART:10.650000;
#SAMPLELENGTH:12.000000;
#SELECTABLE:YES;
#BPMS:0.000000=180.000000
;
#STOPS:
;
#BGCHANGES:;
#KEYSOUNDS:;
#ATTACKS:;

//---------------dance-single - ----------------
#NOTES:
     dance-single:
     :
     Hard:
     7:
     0.531363,0.553246,0.394060,0.442116,0.000000,387.000000,346.000000,41.000000,46.000000,0.000000,0.000000,0.531363,0.553246,0.394060,0.442116,0.000000,387.000000,346.000000,41.000000,46.000000,0.000000,0.000000:
// measure 0
0000
0000
0000
0000
,  // measure 1
0000
0000
0000
0000
,  // measure 2
0000
0000
0000
0000
,  // measure 3
0000
0000
0000
0000
,  // measure 4
0001
0000
0001
0100
0000
0010
0000
0100
,  // measure 5
0000
0001
1000
0000
0100
0000
0100
0000
,  // measure 6
1000
0000
0010
0000
0100
0001
0100
0002
,  // measure 7
0000
0003
0000
1001
0000
0110
0000
0010
,  // measure 8
0200
0000
0000
0000
0310
1000
0100
0002
,  // measure 9
0000
0000
0103
1000
,  // measure 10
0020
0000
0000
0130
0000
1001
0000
0210
,  // measure 11
0000
0001
0001
0301
,  // measure 12
0010
0000
0010
0000
0010
0100
0010
0002
,  // measure 13
0000
1000
1000
1003
,  // measure 14
0100
0001
0100
1000
0000
1000
0000
1001
,  // measure 15
0000
0010
0100
0000
0100
0010
1000
0001
,  // measure 16
2000
0000
0000
0000
3010
0001
0010
2000
,  // measure 17
0000
0000
3100
0010
,  // measure 18
2002
0000
3003
0100
0010
1000
0100
0001
,  // measure 19
0000
0100
1000
0000
1000
0000
1000
0000
,  // measure 20
1002
0000
0103
0000
0010
0001
0010
2000
,  // measure 21
0000
0100
0100
3100
,  // measure 22
0010
0001
0001
0010
0000
1100
0000
1020
,  // measure 23
0000
0130
0010
0100
0010
0100
0010
0000
,  // measure 24
0100
0000
0001
0100
0000
0010
0000
1000
,  // measure 25
0000
0100
1000
0000
0010
0000
0100
0000
,  // measure 26
0010
0000
1000
0100
0000
0010
0000
0100
,  // measure 27
0000
0001
0100
0000
2000
0000
3002
0000
,  // measure 28
0103
0000
0001
0010
0000
0100
0000
0010
,  // measure 29
0000
0001
1000
0000
0100
0000
1000
0000
,  // measure 30
0010
0100
0100
0010
0000
1000
0001
2000
,  // measure 31
0000
0000
3001
0200
0000
0000
0000
0000
,  // measure 32
0310
0000
0010
0100
0000
0100
0000
0100
,  // measure 33
0000
0100
0001
0000
0001
0000
0001
0000
,  // measure 34
1001
0000
0010
0100
0000
0100
0000
2002
,  // measure 35
0000
3003
0010
0100
0010
0100
0010
1000
,  // measure 36
0002
0000
0203
0000
1300
0100
0001
0100
,  // measure 37
1000
0100
0001
0000
1000
0000
1001
0000
,  // measure 38
2000
0000
3200
0000
0301
0000
0100
1000
,  // measure 39
0000
1000
0100
0001
0000
0100
1000
0000
,  // measure 40
0020
0000
0000
0000
0130
0001
0100
1000
,  // measure 41
0000
0100
0001
0000
1001
0000
0110
0000
,  // measure 42
0010
0000
0010
1000
0000
1000
0010
0001
,  // measure 43
0000
0100
1000
0100
0001
0100
0001
0010
,  // measure 44
0200
0000
0000
0000
0310
0001
0010
0001
,  // measure 45
0000
1000
0100
0000
1100
0000
1001
0000
,  // measure 46
0020
0000
0200
0000
0330
0000
0010
0100
,  // measure 47
0000
0001
1000
0001
0000
0100
0010
0000
,  // measure 48
2200
0000
3300
0000
0100
1000
0100
0001
,  // measure 49
0000
1000
0010
0000
0110
0000
0101
0000
,  // measure 50
0010
0100
0010
0001
0000
1000
0000
2002
,  // measure 51
0000
0000
0000
3003
0010
1000
0010
1000
,  // measure 52
0100
0010
0001
2000
0000
3001
0000
2002
,  // measure 53
0000
3003
0000
0100
0010
0100
0001
0100
,  // measure 54
0010
1000
0100
0020
0000
0130
0000
0220
,  // measure 55
0000
0000
0000
0330
0010
0001
0010
0001
,  // measure 56
0100
1000
0100
0001
0000
1001
0000
0220
,  // measure 57
0000
0000
0000
0000
0000
0000
0000
0330
,  // measure 58
1000
0001
0100
0010
1000
0001
0100
0000
,  // measure 59
0101
0000
0001
0100
0000
0101
0000
0010
,  // measure 60
0000
1000
0010
0000
1000
0000
1000
0000
,  // measure 61
1100
0000
0100
1000
0000
2100
0000
3001
,  // measure 62
0000
0100
0001
0202
0000
0303
0000
0000
,  // measure 63
0110
0000
0100
0010
0000
0110
0000
0100
,  // measure 64
0000
0001
0100
0000
0100
0000
0100
0000
,  // measure 65
0110
0000
0100
0001
0000
0001
0000
0120
,  // measure 66
0000
0031
0100
0201
0000
0310
1000
0010
,  // measure 67
1000
0000
0001
0100
0001
0000
1000
0010
,  // measure 68
1000
0000
0001
0100
0001
0000
1000
0000
,  // measure 69
1001
0000
0010
1000
0010
0000
0100
0001
,  // measure 70
0000
1000
0010
1000
0000
0001
1000
0000
,  // measure 71
1001
0000
0010
0001
0000
0001
0000
1001
,  // measure 72
0000
0100
1000
0000
1000
0000
1001
0000
,  // measure 73
0110
0000
0100
0001
0000
0001
0000
0011
,  // measure 74
0000
0000
0100
1000
0000
1000
0000
1000
,  // measure 75
0010
0100
0010
0100
0000
0001
0000
0110
,  // measure 76
0000
0002
2000
0000
0000
0000
3003
0000
;

//---------------dance-single - ----------------
#NOTES:
     dance-single:
     :
     Challenge:
     9:
     0.653563,0.663895,0.663175,0.221058,0.000000,476.000000,407.000000,69.000000,23.000000,0.000000,0.000000,0.653563,0.663895,0.663175,0.221058,0.000000,476.000000,407.000000,69.000000,23.000000,0.000000,0.000000:
0000
0000
0000
0000
,
0000
0000
0000
0000
,
0000
0000
0000
0000
,
0000
0000
0000
0000
,
0011
0000
0001
1000
0000
1001
0000
1100
,
0000
1000
0010
0000
0110
0000
0100
0000
,
0101
0000
0000
0001
0010
0100
1000
1020
,
0000
0130
0001
0021
0000
0130
0000
1000
,
1001
0000
0100
0000
1000
0010
0100
0010
,
0001
0010
1000
0000
0100
0000
0100
0000
,
1100
0000
0010
0000
0001
0010
1000
0020
,
0000
0031
0100
0000
1100
0000
1001
0000
,
1000
0100
1000
0100
0010
0100
0010
0100
,
1000
0100
1000
0100
0010
0001
0100
0010
,
0100
0100
0010
0110
0000
1001
0000
0210
,
0000
0301
1000
0000
0001
0001
0001
0001
,
0100
0000
0010
0000
1000
0100
0010
0100
,
0001
0100
1000
0000
0010
0000
0010
0000
,
0110
0000
1000
0000
0100
0001
0100
2000
,
0000
3100
0010
0000
0011
0000
0101
0000
,
0001
0100
0001
0100
0010
0100
0010
0100
,
0001
0100
0001
0100
0001
0010
0100
1000
,
0010
0010
0000
1001
0000
0100
0000
0120
,
0000
0100
0130
0000
0010
1000
0010
1000
,
0100
0010
0100
1000
0001
1000
0100
0010
,
0100
1000
0001
1000
0010
0100
0010
0000
,
0100
0001
0100
0010
1000
0010
0100
0001
,
0100
0010
1000
0010
0100
0000
1001
0000
,
0010
1000
0010
0001
0100
0001
0010
1000
,
0010
0001
0100
0001
0010
1000
0010
0000
,
1000
0100
1000
0010
0001
0010
1000
0200
,
0000
0000
0001
0301
0000
0100
1000
0010
,
0100
0001
0010
0001
0000
1001
0000
0220
,
0000
0330
0010
0000
1000
0000
0001
0010
,
0100
0000
0010
0001
0000
1000
0000
2100
,
0000
0001
3001
0000
0100
0010
0100
0010
,
1000
0000
0101
0000
0100
0010
0100
0010
,
1000
0011
0101
1001
,
0001
0000
1000
0010
0000
0010
0000
1000
,
0000
1000
0001
0100
0000
0100
0001
0000
,
1001
0000
0100
0000
0010
0100
0010
0100
,
0000
0001
1000
0000
1010
0000
1001
0000
,
1000
0000
0010
0100
0000
0010
1000
0100
,
0000
0001
0100
1000
0010
0000
0010
0000
,
0020
0000
0130
0000
0100
0001
0100
0001
,
0000
0001
0100
0000
1010
0000
1001
0000
,
0200
0000
0310
0000
0010
1000
0010
1000
,
0000
1000
0001
0100
0000
0010
0100
0000
,
0002
0000
1003
0000
1000
0100
1000
0100
,
0000
0100
0010
0000
0011
0000
1100
0000
,
1000
0010
0100
0101
0000
1010
0000
0202
,
0000
0303
0000
0000
0001
0010
0100
1000
,
0001
0100
0010
1010
0000
0101
0000
2020
,
0000
3030
0000
0001
0100
1000
0100
1000
,
0100
0001
0010
0100
0000
1000
0000
0002
,
0000
1003
0000
0020
0000
0130
0001
1000
,
0100
0001
0100
1000
0000
1100
0000
0101
,
0000
0010
0010
0010
0010
0010
0010
0010
,
0100
1000
0100
0001
0100
1000
0100
0000
,
1100
0000
1000
0010
0000
1010
0000
1100
,
0000
1000
0001
0000
1001
0000
0101
0000
,
0011
0000
0001
1000
0000
0100
0000
1100
,
0000
0001
0000
0101
0000
0100
0010
0000
,
0110
0000
0100
0001
0000
0011
0000
0101
,
0000
0100
0010
0000
1010
0000
1100
0000
,
0110
0000
0100
1000
0000
0010
0000
1010
,
0000
0001
0000
0011
0000
0002
2000
3003
,
0100
0000
0100
0000
0100
1000
1001
0000
,
0010
0000
0010
0000
0010
0001
1001
0000
,
1000
0000
0100
0010
0000
0011
0000
1001
,
0000
0010
0000
0110
0000
0001
0000
1000
,
0100
0010
0001
0101
0000
1100
0000
0001
,
0010
0100
1100
0000
0101
0000
1100
0000
,
0100
0001
0100
1000
0010
0001
0010
1000
,
0000
0001
1000
0001
0000
1000
0001
1000
,
0010
0100
0010
0100
0000
1001
0000
2000
,
0000
0100
0200
0000
0000
0000
3300
0000
;

//---------------dance-single - ----------------
#NOTES:
     dance-single:
     :
     Medium:
     6:
     0.442116,0.516363,0.173002,0.480561,0.000000,322.000000,304.000000,18.000000,50.000000,0.000000,0.000000,0.442116,0.516363,0.173002,0.480561,0.000000,322.000000,304.000000,18.000000,50.000000,0.000000,0.000000:
0000
0000
0000
0000
,
0000
0000
0000
0000
,
0000
0000
0000
0000
,
0000
0000
0000
0000
,
0001
0000
0010
0100
0000
0100
0000
0100
,
0000
0010
0001
0000
1000
0000
1000
0000
,
1000
0000
0010
0000
0100
0010
0200
0020
,
0000
0330
0000
1000
0000
0001
0000
0000
,
0200
0000
0000
0000
0301
0010
0001
0020
,
0000
0000
0130
1000
,
0020
0000
0000
0000
0130
0001
1000
0010
,
0000
0100
0010
1001
,
0100
0010
0000
0010
0100
0001
1000
0010
,
0000
0100
0001
1000
,
0100
1000
0000
0100
0000
0010
0000
0001
,
0000
1000
0001
0000
2000
0000
3001
0000
,
0020
0000
0000
0000
0130
1000
0100
2000
,
0000
0000
0000
3000
0001
0000
1000
0000
,
0002
0000
0000
0000
0103
0001
0010
0002
,
0000
0103
0010
0110
,
1000
0000
1000
0000
0010
0100
0010
2000
,
0000
3001
0010
0100
,
1000
0100
0000
0011
0000
0001
0000
1000
,
0000
0010
0100
0000
1000
0001
1000
0001
,
1000
0010
0000
1000
0000
0010
0000
1000
,
0000
0010
1000
0000
0001
1000
0001
0000
,
0100
0000
0001
0100
0000
0001
0000
0100
,
0000
0001
0100
0000
0001
1000
0001
0000
,
0100
0000
0010
0100
0000
0010
0000
0100
,
0000
0010
0100
0000
0001
1000
0001
0000
,
1010
0000
0100
0001
0000
0010
0000
0002
,
0000
0003
2000
0002
0000
0000
3003
0000
,
0200
0000
0000
0301
0000
0010
0000
0200
,
0000
1300
0001
1000
,
0020
0000
0000
1030
0000
0100
0000
0020
,
0000
0000
0001
0031
,
0200
0000
0000
0000
0310
1000
0010
0200
,
0000
0301
1000
0100
,
2000
0000
0000
0000
3010
0100
0000
0001
,
0000
0001
0000
1000
0000
1000
0000
0000
,
0002
0000
0000
0000
0013
0100
0010
0002
,
0000
1003
0100
0010
,
0002
0000
1003
0001
0000
0100
0000
0200
,
0000
0310
1000
0010
1000
0000
1001
0000
,
2000
0000
0000
0000
3100
0010
0001
2000
,
0000
3010
0100
0001
,
1001
0000
0010
0100
0000
1000
0000
1001
,
0000
0110
0000
1001
0000
0110
0000
0000
,
0020
0000
0000
0000
0130
0001
1000
0020
,
0000
0100
0100
0130
,
0001
0010
0100
1000
0000
0001
0000
1000
,
0000
0000
0001
1000
,
1000
0100
0010
0001
0000
1000
0000
0001
,
0000
0000
0010
0100
,
0010
0100
0001
1000
0000
0002
0000
2000
,
0000
0000
0000
3003
0110
0000
0101
0000
,
0010
0100
1000
0002
0000
0023
0000
0230
,
0000
0000
0000
0300
,
1000
0100
0010
0001
1000
0001
1000
0000
,
0001
0000
0100
0001
0000
0100
0000
0001
,
0000
0100
0001
0000
1000
0000
1000
0000
,
0010
0000
1000
0010
0000
1000
0000
0020
,
0000
0000
0000
0230
0000
0000
0000
0300
,
0001
0000
1000
0001
0000
1000
0000
0001
,
0000
1000
0001
0000
0110
0000
1001
0000
,
0020
0000
0000
0130
1000
0100
0010
0001
,
0000
1000
0001
1000
0000
0020
0200
0330
,
1001
0000
0010
0100
0000
0010
0000
0100
,
0000
0010
0100
0000
1000
0000
1000
0000
,
1001
0000
0100
0010
0000
0100
0000
0002
,
0000
0000
0000
2003
0000
0000
3010
0000
,
2020
0000
3030
1000
0000
0001
0000
1000
,
0000
0001
1000
0000
0010
0000
0010
0000
,
0202
0000
0303
0001
0000
1000
0000
0002
,
0000
0103
0010
0200
0000
0310
0000
1000
,
0200
0000
0000
0010
0000
0310
0000
0001
,
0000
0002
2000
0000
0000
0000
3003
0000
;

//---------------dance-single - ----------------
#NOTES:
     dance-single:
     :
     Easy:
     4:
     0.326782,0.366428,0.230669,0.432505,0.000000,238.000000,214.000000,24.000000,45.000000,0.000000,0.000000,0.326782,0.366428,0.230669,0.432505,0.000000,238.000000,214.000000,24.000000,45.000000,0.000000,0.000000:
0000
0000
0000
0000
,
0000
0000
0000
0000
,
0000
0000
0000
0000
,
0000
0000
0000
0000
,
1000
0000
0000
0010
0000
0010
0000
1000
,
0000
0100
0010
0010
,
0002
0000
0000
0000
2000
0000
3003
1001
,
0000
0000
0000
0010
0000
0010
0000
0000
,
0200
0000
1000
1000
,
1300
0000
0001
1000
,
0200
0000
0000
0000
0310
0000
0000
1001
,
0000
1000
0001
1000
,
0010
0000
0010
0000
0100
0000
0000
1001
,
0000
0010
0010
0100
,
0010
0000
0000
0000
0000
0000
0000
0100
,
0000
0010
0000
0000
1000
0000
1000
0000
,
0020
0000
0100
0100
,
0130
0000
0001
0010
,
0200
0000
0000
0000
1300
0000
0000
1001
,
0000
0010
0100
0001
,
1000
0000
1000
0000
0100
0000
0000
1001
,
0000
0010
0010
0100
,
0001
0000
0000
0000
0000
0000
0000
0100
,
0000
0001
0000
0000
1000
0000
1000
0000
,
1000
0010
1000
0010
,
1000
0010
1000
1000
,
0001
0100
0001
0100
,
0001
0100
0001
0001
,
0100
0010
0100
0010
,
0100
0010
0100
0100
,
0001
0000
0010
0000
0100
0000
0000
2002
,
0000
3003
0000
2002
0000
3003
0000
0000
,
0010
0000
0000
1000
0000
0100
0000
1000
,
0000
0001
0100
0001
,
0010
0000
0000
0100
0000
0010
0000
0200
,
0000
0000
0010
0310
,
0001
0000
0100
1000
,
0100
0001
1000
1000
,
0010
0000
0000
0000
0100
0000
0000
2002
,
0000
3003
0000
2002
0000
3003
0000
0000
,
1000
0000
0010
0001
,
0010
1000
0100
0100
,
0010
0000
0001
0000
0000
0000
0000
2002
,
0000
3003
0000
2002
0000
3003
0000
0000
,
0020
0000
0031
0010
,
1000
0010
0001
0001
,
1000
0000
0010
0000
0000
0000
0000
2002
,
0000
3003
0000
2002
0000
3003
0000
0000
,
0020
0000
0031
0100
,
1000
0100
0001
0001
,
2000
0000
0000
0010
0000
0010
0000
3010
,
0000
0000
0110
0000
,
0002
0000
0000
0100
0000
0100
0000
0103
,
0000
0000
0110
0000
,
0020
0000
0000
1000
0000
1000
0000
1030
,
0000
0000
0110
0000
,
0200
0000
0000
0301
0000
1000
0000
0002
,
0000
0000
0000
0000
,
2000
0000
3003
1001
,
0010
0000
0000
0100
0000
1000
0000
0100
,
0000
0000
0010
0010
,
0001
0000
0000
1000
0000
0001
0000
2002
,
0000
3003
0000
2002
0000
3003
0000
0000
,
0010
0000
0000
0100
0000
0001
0000
0100
,
0000
0000
0001
1000
,
0100
0000
0000
1000
0000
0001
0000
2002
,
0000
3003
0000
2002
0000
3003
0000
0000
,
0010
0010
0010
0010
,
0010
0010
0010
0010
,
0010
0000
0010
0000
0010
0000
0000
2002
,
0000
3003
0000
2002
0000
3003
0000
0000
,
0100
0000
0000
0010
0000
1000
0000
0001
,
0000
0000
0100
0100
,
0100
0000
0000
0100
0000
0001
0000
1000
,
0000
0000
0000
0010
0000
0000
0000
0000
,
0200
0000
0000
0010
0000
0010
0000
0020
,
0000
0330
0110
0000
0000
0000
0000
0000
;

//---------------dance-single - ----------------
#NOTES:
     dance-single:
     :
     Beginner:
     1:
     0.119454,0.183214,0.076890,0.000000,0.000000,87.000000,79.000000,8.000000,0.000000,0.000000,0.000000,0.119454,0.183214,0.076890,0.000000,0.000000,87.000000,79.000000,8.000000,0.000000,0.000000,0.000000:
0000
0000
0000
0000
,
0000
0000
0000
0000
,
0000
0000
0000
0000
,
0000
0000
0000
0000
,
1001
0000
0000
0000
,
0010
0000
0000
0000
,
0100
0000
1000
0000
,
1000
0000
0001
0000
,
0001
0000
0000
0000
,
0000
0000
0100
0100
,
0000
0000
0000
0000
,
0000
0010
0010
0000
,
0100
0000
0000
0000
,
0000
0000
0000
0000
,
1001
0000
0000
0000
,
0010
0000
0000
0000
,
0100
0000
0000
0000
,
0000
0000
0001
0001
,
0000
0000
0000
0000
,
0001
0000
0000
0000
,
1000
0000
0000
0000
,
0000
0000
0000
0000
,
0110
0000
0000
0000
,
1000
0000
0000
0000
,
0001
0000
0000
0000
,
0001
0000
0000
0000
,
0001
0000
0000
0000
,
0001
0000
0100
0000
,
1000
0000
0000
0000
,
1000
0000
0000
0000
,
1000
0000
0000
0000
,
1000
0000
0100
0000
,
0001
0000
0000
0000
,
0000
0000
0000
0000
,
1000
0000
0000
0000
,
0000
0000
0010
0010
,
0010
0000
0000
0000
,
0000
0000
0000
0000
,
0100
0000
0000
0000
,
1001
0000
0000
0000
,
0100
0000
0000
0000
,
0010
0000
0000
0000
,
0001
0000
0000
0000
,
1001
0000
0000
0000
,
0010
0000
0000
0000
,
1000
0000
0000
0000
,
0001
0000
0000
0000
,
0110
0000
0000
0000
,
1000
0000
0000
0000
,
0001
0000
0000
0000
,
0100
0000
0000
0000
,
0000
0000
0000
0000
,
0100
0000
0000
0000
,
0000
0000
0000
0000
,
0100
0000
0000
0000
,
0000
0000
0000
0000
,
1000
0000
0000
0000
,
0001
0000
0000
0000
,
1001
0000
0000
0010
,
0010
0000
0000
0000
,
0000
0000
0100
0100
,
0100
0000
0000
0000
,
0010
0000
1000
0000
,
0010
0000
0000
0000
,
0000
0000
0001
0001
,
0001
0000
0000
0000
,
0100
0000
0001
0000
,
0100
0000
0000
0000
,
0010
0000
0000
0000
,
1000
0000
0000
0000
,
0001
0000
1000
0000
,
0001
0000
0000
0000
,
0100
0000
0000
0000
,
0010
0000
0000
0000
,
1000
0000
0100
0000
,
0010
0000
0000
0000
,
0000
1001
0000
0000
;

//---------------dance-double - ----------------
#NOTES:
     dance-double:
     :
     Easy:
     5:
     0.347377,0.476356,0.048056,0.173002,0.000000,253.000000,248.000000,5.000000,18.000000,0.000000,0.000000,0.347377,0.476356,0.048056,0.173002,0.000000,253.000000,248.000000,5.000000,18.000000,0.000000,0.000000:
00000000
00000000
00000000
00000000
,
00000000
00000000
00000000
00000000
,
00000000
00000000
00000000
00000000
,
00000000
00000000
00000000
00000000
,
00100000
00000000
00000000
00010000
00000000
10000000
00000000
01000000
,
00000000
00010000
00001000
00000100
,
00000001
00000000
00000000
00000000
00001000
00000001
00000000
00000020
,
00000000
00000000
00000000
00000100
00000000
00000130
00000000
00000000
,
00002000
00000000
00010000
00013000
,
00001000
00000100
00010000
00010000
,
00002000
00000000
00000000
00000000
00100000
00000000
00103000
00010000
,
00000000
01000000
00100000
10000000
,
01000000
00100000
01000000
00100000
,
00001000
00010000
00001000
00010000
,
00000100
00001000
00000000
00001000
00000000
00000010
00000000
00000010
,
00000000
00000100
00000001
00000000
00000110
00000000
00000110
00000000
,
00002000
00000000
00010000
00013000
,
00100000
00010000
00001000
00001000
,
02000000
00000000
00000000
00000000
00010000
00000000
03010000
10000000
,
00000000
00100000
01000000
00001000
,
00100000
01000000
00100000
00001000
,
00000100
00000010
00001000
00000001
,
00000010
00000100
00000000
00000100
00000000
00010000
00000000
00010000
,
00000000
00001000
00100000
00000000
01100000
00000000
01100000
00000000
,
10000000
01000000
10000000
00000000
01000000
00000000
01000000
00000000
,
00100000
00001000
00100000
00000000
00010000
00000000
00010000
00000000
,
00000100
00001000
00000100
00000000
00001000
00000000
00001000
00000000
,
00000010
00000100
00000001
00000001
,
00000100
00000010
00000100
00000000
00000010
00000000
00000010
00000000
,
00010000
00001000
00010000
00000000
00001000
00000000
00001000
00000000
,
00100000
00010000
00100000
00000000
00010000
00000000
00010000
02000000
,
00000000
00000000
00000000
00200000
00000000
00000000
03300000
00000000
,
10000000
00000000
00100000
00000000
,
00010000
00000000
00001000
00000010
,
00000001
00000000
00000100
00000000
,
00001000
00000000
00010000
00010000
,
01000000
10000000
00100000
01000000
,
00010000
00100000
00100000
01000000
,
00100000
00000000
00001000
00010000
00000000
00001000
00000000
00001000
,
00000000
00010000
00000000
00010000
00000000
00000000
00000000
00000000
,
00000010
00001000
00000010
00000100
,
00000001
00000001
00000010
00000100
,
00010000
00000000
00001000
00010000
00000000
00001000
00000000
00001000
,
00000000
00010000
00000000
00010000
00000000
00000000
00000100
00000000
,
00020000
00030000
00001000
00100000
,
00010000
00010000
10000000
01000000
,
00100000
00000000
00001000
00010000
00000000
00001000
00000000
00001000
,
00000000
00010000
00000000
00010000
00000000
00000000
00000000
00000000
,
00000100
00001000
00000010
00000100
,
00000010
00000010
00000100
00000001
,
00002000
00000000
00000000
00000100
00000000
00000100
00000000
00003100
,
00000000
00000000
00010000
00000000
,
00002000
00000000
00000000
00100000
00000000
00100000
00000000
00103000
,
00000000
00000000
00010000
00000000
,
20000000
00000000
00000000
01000000
00000000
01000000
00000000
31000000
,
00000000
00000000
00100000
00000000
,
00002000
00000000
00000000
00010000
00000000
00010000
00000000
00013000
,
00000000
00000000
00000000
00000000
,
00002100
00000000
00000000
00003001
,
00000100
00000000
00000000
00000010
00000000
00001000
00000000
00000010
,
00000000
00000000
00001000
00001000
,
00000100
00000000
00000000
00010000
00000000
00001000
00000000
00020000
,
00000000
00000000
00000000
00031000
00000000
00000000
00000000
00000000
,
00100000
00000000
00000000
00010000
00000000
01000000
00000000
00010000
,
00000000
00000000
10000000
10000000
,
00100000
00000000
00000000
01000000
00000000
00100000
00000000
20000000
,
00000000
00000000
00000000
30010000
00000000
00000000
00000000
00000000
,
00100000
00001000
00010000
00000100
,
00000100
00001000
00000010
00000010
,
00000100
00000000
00000001
00000000
00001000
00000000
00000000
00000200
,
00000000
00000000
00000000
00000310
00000000
00000000
00000000
00000000
,
00000100
00000000
00000000
00010000
00000000
00001000
00000000
00100000
,
00000000
00010000
01000000
01000000
,
00100000
00000000
00000000
10000000
00000000
00010000
00000000
20000000
,
00000000
00000000
00000000
30200000
00000000
00000000
00000000
00000000
,
01300000
00000000
00000000
00100000
00000000
00100000
00000000
00001000
,
00000000
00010000
00010000
00000000
00000000
00000000
00000000
00000000
;

//---------------dance-double - ----------------
#NOTES:
     dance-double:
     :
     Medium:
     6:
     0.454474,0.512999,0.297948,0.624730,0.000000,331.000000,300.000000,31.000000,65.000000,0.000000,0.000000,0.454474,0.512999,0.297948,0.624730,0.000000,331.000000,300.000000,31.000000,65.000000,0.000000,0.000000:
00000000
00000000
00000000
00000000
,
00000000
00000000
00000000
00000000
,
00000000
00000000
00000000
00000000
,
00000000
00000000
00000000
00000000
,
10000000
00000000
00100000
01000000
00000000
00010000
00000000
01000000
,
00000000
00001000
00010000
00000000
00010000
00000000
00001000
00000000
,
00010000
00000000
00000010
00000100
00000010
00001000
00000010
00001000
,
00000000
00000100
00010000
00000100
00000000
00010100
00000000
00000000
,
00020000
00000000
00000000
00000000
00001000
00000000
00031000
00100000
,
00000000
00000000
00020000
02030000
,
03200000
00000000
00300000
10000000
01000000
20000000
00000000
32000000
,
00000000
03020000
00032000
00003200
,
00000301
00000000
00000001
00000000
00000001
00000000
00000001
00000002
,
00000000
00000003
00000010
00000000
00000010
00000000
00000010
00000000
,
00000100
00001000
00000100
00001000
00000000
00000100
00000000
00010000
,
00000000
00001000
00010000
00000000
00001000
00000000
00001000
00000000
,
00020000
00000000
00000000
00000000
00000010
00000000
00030010
00000100
,
00000000
00000000
00000002
00002003
,
00003200
00000000
00000300
00010000
00001000
00020000
00000000
02030000
,
00000000
23000000
30200000
02300000
,
03100000
00000000
00100000
00000000
00100000
00000000
00100000
00200000
,
00000000
00300000
01000000
00000000
01000000
00000000
01000000
00000000
,
00100000
00001000
00100000
00001000
00000000
00010000
00000000
00001000
,
00000000
00010000
00000200
00000000
00000010
00000000
00000310
00000000
,
00000001
00000000
00000001
00000100
00000000
00000010
00000000
00000100
,
00000000
00000010
00001000
00000000
00000100
00000000
00001000
00000000
,
00000100
00000000
00000100
00010000
00000000
00001000
00000000
00010000
,
00000000
00001000
01000000
00000000
00100000
00000000
00100000
00000000
,
10000000
00000000
10000000
01000000
00000000
00100000
00000000
01000000
,
00000000
00100000
00010000
00000000
00100000
00000000
00010000
00000000
,
00200000
00000000
00000000
00320000
00000000
00032000
00000000
00003020
,
00000000
00000000
00000100
00000200
00000000
00000330
00000000
00000000
,
00000001
00001000
00000100
00001000
00000000
00001100
00000000
00001100
,
00000000
00010000
00001000
00010000
,
00011000
00000000
00001000
00100000
00000000
00010000
00000000
02020000
,
00000000
03030000
00000000
00000000
01000000
00100000
01000000
00100000
,
02000000
00000000
10000000
00000000
13000000
01000000
10000000
01000000
,
00000000
00010000
00100000
00000000
00011000
00000000
00010100
00000000
,
00000200
00000000
00001000
00001300
00000000
00000000
00000010
00000100
,
00000000
00000000
00000010
00000100
00000000
00000000
00000001
00000000
,
00002002
00000000
00003003
00000000
00000100
00001000
00000100
00001000
,
00000000
00010000
00001000
00000000
00011000
00000000
00110000
00000000
,
01000000
00000000
10000000
00200000
00000000
00300000
01000000
00100000
,
00000000
00000000
01000000
00100000
00000000
00000000
01000000
00000000
,
00022000
00000000
00033000
00000000
00010000
00000100
00010000
00000100
,
00000000
00001000
00000100
00000000
00000011
00000000
00000101
00000000
,
00000100
00000000
00000010
00020000
00000000
00030000
00000100
00001000
,
00000000
00000000
00000100
00001000
00000000
00000000
00000100
00000000
,
00020200
00000000
00030300
00000000
00010000
00001000
00010000
00001000
,
00000000
00100000
00010000
00000000
01100000
00000000
10100000
00000000
,
10000000
01000000
00010000
00002000
00000000
00003200
00000000
00000302
,
00000000
00000003
00000000
00000000
00001001
00000000
00000110
00000000
,
00000001
00000010
00001000
00020000
00000000
00230000
00000000
20300000
,
00000000
30000000
00000000
00000000
01100000
00000000
10010000
00000000
,
10000000
01000000
00010000
00002000
00000000
00003200
00000000
00000302
,
00000000
00000003
00000000
00000000
00000101
00000000
00001010
00000000
,
00000001
00000010
00000100
00002000
00000000
00023000
00000000
00230000
,
00000000
00000000
00000000
00000000
,
01000000
01000000
01000000
01300000
,
10000000
00000000
10000000
01000000
00000000
00100000
00000000
01000000
,
00000000
00100000
00010000
00000000
00100000
00000000
00100000
00000000
,
00001000
00000000
00010000
00000100
00000000
00001000
00000000
00002200
,
00000000
00003300
00000000
00002002
00000000
00003003
00000000
00000000
,
00000001
00000000
00000001
00001000
00000000
00000100
00000000
00001000
,
00000000
00000100
00010000
00000000
00001000
00000000
00001000
00000000
,
00100000
00000000
00010000
01000000
00000000
00100000
00000000
02200000
,
00000000
03300000
00000000
20020000
00000000
30030000
00000000
00000000
,
10000000
00000000
10000000
00000000
10000000
00000000
01000000
00010000
,
00000000
00001000
00000010
00000000
00000001
00000000
00000001
00000000
,
00001000
00000000
00000001
00001000
00000000
00000010
00000000
00002002
,
00000000
00003003
00000000
00000220
00000000
00000330
00000000
00000000
,
00001000
00000100
00001000
00000100
00000000
00010000
00000000
00001000
,
00000000
00100000
00010000
00000000
01010000
00000000
01010000
00000000
,
02000000
00000000
00000000
10000000
00000000
13000000
00000000
01000000
,
00000000
00010000
00100000
00010000
00000000
00100000
00000000
00001000
,
00020000
00000000
00000000
00000100
00000000
00030100
00000000
00002100
,
00000000
00000010
00003010
00000000
00000000
00000000
00000000
00000000
;

//---------------dance-double - ----------------
#NOTES:
     dance-double:
     :
     Hard:
     7:
     0.527244,0.663895,0.470950,0.432505,0.000000,384.000000,335.000000,49.000000,45.000000,0.000000,0.000000,0.527244,0.663895,0.470950,0.432505,0.000000,384.000000,335.000000,49.000000,45.000000,0.000000,0.000000:
00000000
00000000
00000000
00000000
,
00000000
00000000
00000000
00000000
,
00000000
00000000
00000000
00000000
,
00000000
00000000
00000000
00000000
,
00000010
00000000
00000010
00001000
00000000
00000100
00000000
00010000
,
00000000
00000100
00010000
00000000
00001000
00000000
00001000
00000000
,
00100000
00000000
00010000
00000000
01000000
00100000
01000000
00200000
,
00000000
10300000
00000000
10010000
00000000
01100000
00000000
00100000
,
02000000
00000000
00000000
00000000
03100000
00001000
00010000
00002000
,
00000000
00000000
00003010
00000100
,
00000002
00000000
00000000
00000103
00000000
00000010
00000000
00010200
,
00000000
00001000
00001000
00001300
,
00022000
00000000
00000000
00033000
01000000
00100000
10000000
02000000
,
00000000
00100000
00100000
03100000
,
00010000
01000000
00010000
00100000
00000000
00001000
00000000
00011000
,
00000000
00010000
00010000
00000000
00001000
00010000
00000010
00000100
,
00000002
00000000
00000000
00000000
00000013
00001000
00000010
00000002
,
00000000
00000000
00001003
00000010
,
00002020
00000000
00003030
00000100
00010000
00001000
00000000
00201000
,
00000000
00010000
00010000
00310000
,
02020000
00000000
03030000
00000000
00100000
00010000
00100000
02000000
,
00000000
10000000
10000000
13000000
,
00100000
00001000
00000000
00011000
00000000
00010100
00000000
00001010
,
00000000
00000010
00000100
00000000
00000001
00001000
00000100
00000010
,
00000100
00000100
00000000
00010000
00000000
00001000
00000000
00100000
,
00000000
00010000
10000000
00000000
00010000
00000000
00010000
00000000
,
00100000
00000000
00001000
00010000
00000000
00000010
00000000
00000100
,
00000000
00000001
00001000
00000000
00000010
00000000
00000010
00000000
,
00001000
00000000
00000100
00010000
00000000
00001000
00000000
01000000
,
00000000
00010000
10000000
00000000
01000000
00000000
00100000
00000000
,
00011000
00000000
00000100
00001000
00000000
00000020
00000000
00000230
,
00000000
00000300
00000001
00002000
00000000
00000000
00000000
00000000
,
00003100
00001000
00000100
00001000
00000000
00010100
00000000
00011000
,
00000000
00100000
00010000
00000000
10000000
00000000
10000000
00000000
,
10010000
00000000
01000000
00001000
00000000
00020000
00000000
00002000
,
00000000
00033000
00000000
00000000
00010000
00000100
00010000
00000100
,
00020000
00000000
00000000
00000000
00030010
00000100
00000010
00000100
,
00000000
00000001
00001000
00000000
00000100
00000000
00000100
00000000
,
00020200
00000000
00030300
00022000
00000000
00033000
00000000
00101000
,
00000000
00000000
00000000
01010000
00000000
00000000
00010000
00000000
,
20000000
00000000
00000000
00000000
31000000
00010000
01000000
10000000
,
00000000
00100000
01000000
00000000
00010000
00000000
00010000
00000000
,
00100000
00000000
00001000
00010000
00000000
00011000
00000000
00010100
,
00000000
00000000
00000000
00000110
00000000
00000001
00000100
00001000
,
00020000
00000000
00000000
00000000
01030000
10000000
01000000
10000000
,
00000000
10000000
00010000
00000000
01010000
00000000
01100000
00000000
,
02000000
00000000
00000000
00002000
00000000
03003000
00010000
00001000
,
00000000
00010000
00000100
00010000
00000000
00000010
00001000
00000000
,
00000220
00000000
00000330
00000000
00000001
00000010
00001000
00000020
,
00000000
00000031
00001000
00000000
00001100
00000000
00011000
00000000
,
00100000
00001000
00010000
00001000
00000000
00100000
00000000
02020000
,
00000000
00000000
00000000
03030000
00010000
00100000
01000000
10000000
,
01000000
00100000
00001000
00010000
00000000
00001000
00000000
00022000
,
00000000
00033000
00000000
00001000
00000100
00000010
00000001
00000100
,
00000010
00001000
00000100
00010000
00000000
00001000
00000000
00022000
,
00000000
00000000
00000000
00033000
00010000
01000000
00100000
10000000
,
01000000
00100000
00001000
00010000
00000000
00001000
00000000
00010000
,
00000100
00001000
00000100
00001000
00000100
00001000
00000100
00001000
,
00010000
00001000
00010000
00001000
00010000
00001000
00011000
00000000
,
00010100
00000000
00000100
00000010
00000000
00000001
00000000
00000100
,
00000000
00000010
00001000
00000000
00000100
00000000
00010000
00000000
,
00011000
00000000
00100000
00010000
00000000
01000000
00000000
00110000
,
00000000
00010000
00000000
20020000
00000000
30030000
00100000
00000000
,
10100000
00000000
10000000
01000000
00000000
00100000
00000000
00001000
,
00000000
00010000
00001000
00000000
00010000
00000000
00010000
00000000
,
00010010
00000000
00000100
00000001
00000000
00001000
00000000
00001010
,
00000000
00000010
00000000
00000110
00000000
00000100
00000001
00001000
,
00000010
00010000
00001000
00000000
00100000
00010000
10000000
00000000
,
01000000
00100000
00001000
00010000
00000100
00000000
00001100
00000000
,
00000010
00000100
00000001
00000000
00001000
00000100
00010000
00002000
,
00000000
00003000
00001000
00020000
00000000
00000000
00031000
00100000
,
00010000
00000000
00100000
00010000
00000000
01000000
00000000
11000000
,
00000000
01000000
00010000
00000000
00011000
00000000
00010100
00000000
,
00001010
00000000
00000010
00000001
00000000
00000010
00000000
00001010
,
00000000
00010000
00001000
00010000
00000000
00110000
00000000
01000000
,
10000000
00000000
00000000
10010000
00000000
10010000
00000000
01001000
,
00000000
00020000
00002000
00000000
00000000
00000000
00033000
00000000
;

//---------------dance-double - ----------------
#NOTES:
     dance-double:
     :
     Challenge:
     9:
     0.675532,0.663895,0.730453,0.221058,0.000000,492.000000,416.000000,76.000000,23.000000,0.000000,0.000000,0.675532,0.663895,0.730453,0.221058,0.000000,492.000000,416.000000,76.000000,23.000000,0.000000,0.000000:
00000000
00000000
00000000
00000000
,
00000000
00000000
00000000
00000000
,
00000000
00000000
00000000
00000000
,
00000000
00000000
00000000
00000000
,
00011000
00000000
00001000
00000100
00000000
00000011
00000000
00000101
,
00000000
00000100
00000010
00000000
00001010
00000000
00011000
00000000
,
00101000
00000000
01000000
00010000
00100000
00001000
00100000
00201000
,
00000000
00301000
00010000
00021000
00000000
00030100
00000000
00001000
,
00001100
00000000
00000010
00000000
00000001
00001000
00000100
00001000
,
00000010
00010000
00000100
00000000
00010000
00001000
00010000
00000000
,
00011000
00000000
00100000
00010000
01000000
00100000
10000000
00200000
,
00000000
01300000
00010000
00000000
11000000
00000000
10010000
00000000
,
10000000
01000000
00010000
00001000
00000100
00000001
00000100
00000101
,
00000000
00001000
00000100
00010000
00000100
00010000
00000100
00000000
,
00010000
00010000
00001000
00001000
00000000
01001000
00000000
02100000
,
00000000
03010000
10000000
00000000
00010000
00100000
00010000
00100000
,
00220000
00000000
00330000
00000000
10000000
00100000
00010000
00001000
,
00000010
00000001
00000100
00000000
00001000
00000000
00001000
00000000
,
00001010
00000000
00010000
00000000
00001000
00000100
00010000
00001000
,
00000000
00100000
00010000
00000000
00110000
00000000
00101000
00000000
,
00010000
10000000
01000000
00100000
00001000
00010000
00000010
00000100
,
00000001
00001000
00000100
00010000
00000100
00010000
00001000
00010000
,
00001000
00001000
00000000
01001000
00000000
01000000
00000000
00110000
,
00000000
00001000
00010000
00000000
00100000
00010000
00100000
00010000
,
00100000
00001000
00010000
00001000
00010000
00000100
00001000
00000100
,
00001000
00000010
00000100
00000010
00000110
00000000
00000101
00000000
,
00000001
00000010
00000001
00001000
00000100
00010000
00000100
00001000
,
00000100
00001000
00010000
01000000
00100000
00000000
10010000
00000000
,
01000000
00001000
00010000
00001000
00010000
00000010
00000100
00000010
,
00000100
00000001
00000100
00000010
00001010
00000000
00011000
00000000
,
00100000
00010000
01000000
00100000
10000000
01000000
00100000
02000000
,
00000000
03000000
00100000
02000000
00000000
03000000
10000000
01000000
,
00100000
00010000
00000000
00011000
00000000
00010100
00000000
00000220
,
00000000
00000330
00001000
00000100
00000001
00000000
00001100
00000000
,
00011000
00000000
00100000
00010000
00000000
10010000
00000000
10100000
,
00000000
00100000
00100000
00000000
01000000
00001000
00010000
00000100
,
00001000
00000000
00010100
00000000
00001000
00000010
00001000
00000010
,
00000100
00000001
00001000
00000010
00000100
00000000
00010100
00000000
,
00010000
00000000
00100000
00010000
00000000
01000000
00000000
10010000
,
00000000
10000000
00100000
00010000
00000000
00001000
00000010
00000000
,
00000011
00000000
00000100
00000000
00000010
00001000
00000010
00001000
,
00000000
00000100
00010000
00000000
00011000
00000000
01001000
00000000
,
00100000
00000000
10000000
01000000
00000000
00010000
00001000
00000010
,
00000000
00000001
00001000
00000100
00000000
00010000
00001000
01000000
,
02200000
00000000
03300000
00000000
01000000
00010000
00100000
00110000
,
00000000
00100000
00001000
00010000
00000010
00000100
00000010
00000000
,
00002000
00000000
00003100
00010000
00000000
00011000
00000000
00001000
,
00000000
00010000
00001000
00100000
00000000
00001000
01000000
00000000
,
01020000
00000000
10030000
00000000
10000000
01000000
00100000
00010000
,
00000000
00010000
00001000
00000000
00010010
00000000
00001010
00000000
,
00000010
00000100
00000001
00000001
00000000
00001001
00000000
00002200
,
00000000
00003300
00000000
00000000
00010000
00100000
01000000
10000000
,
00010000
01000000
00100000
00100000
00000000
01010000
00000000
20200000
,
00000000
30300000
00000000
00010000
00100000
00001000
00010000
00000010
,
00000100
00000001
00001000
00001000
00000000
00010100
00000000
00011000
,
00000000
01000000
00000000
00010000
00100000
01000000
10000000
00100000
,
01000000
00010000
00100000
00100000
00000000
00011000
00000000
00001020
,
00000000
00001000
00000000
00001000
00000000
00001000
00000000
00001030
,
00000010
00000100
00000010
00000100
00000010
00000100
00000001
00000100
,
00000101
00000000
00000010
00001000
00000000
00001010
00000000
00011000
,
00000000
01000000
00010000
00000000
01010000
00000000
00110000
00000000
,
00011000
00000000
00001000
00000010
00000000
00000110
00000000
00000201
,
00000000
00000310
00010000
00010020
00000000
00000030
00001000
01000000
,
10000000
01000000
00010000
00100000
00000000
00100000
00000000
00101000
,
00000000
00010000
10010000
00000000
10100000
00000000
01010000
00000000
,
00100000
00000000
00001000
00010000
00100000
00010000
00001000
00011000
,
00000000
00000100
00010000
00011000
00000000
00001000
00100000
00010000
,
00100000
00001000
00010000
00000100
00010000
00001000
00000000
00010100
,
00000000
00000010
00000100
00000000
00000001
00001000
00000100
00000000
,
00011000
00000000
00010000
01000000
00000000
01000000
00010000
01010000
,
00000000
10000000
00100000
10100000
00000000
01000000
00001000
00010000
,
00001000
00100000
00000000
01010000
00000000
11000000
00000000
00100000
,
00001000
00010000
00000010
00000000
00000100
00000010
00010000
00001000
,
01000000
00000000
01000000
00100000
00010000
00100000
10000000
00010000
,
00000000
00100000
00010000
01000000
00000000
00001000
00010000
00001000
,
00010000
00000010
00010000
00000010
00000000
00000110
00000000
00001200
,
00000000
00000001
00000002
00000000
00000000
00000000
00000303
00000000
;
