#TITLE:Sapphire;
#SUBTITLE:;
#ARTIST:kors k;
#TITLETRANSLIT:;
#SUBTITLETRANSLIT:;
#ARTISTTRANSLIT:;
#GENRE:Trance;
#CREDIT:;
#BANNER:sapphire-bn.png;
#BACKGROUND:sapphire-bg.png;
#LYRICSPATH:;
#CDTITLE:;
#MUSIC:Sapphire.mp3;
#OFFSET:-0.020000;
#SAMPLESTART:77.119995;
#SAMPLELENGTH:12.000000;
#SELECTABLE:YES;
#BPMS:0.000000=140.000000
;
#STOPS:178.500000=0.427000
;
#BGCHANGES:;
#KEYSOUNDS:;
#ATTACKS:;

//---------------dance-single - ----------------
#NOTES:
     dance-single:
     :
     Hard:
     7:
     0.437076,0.509999,0.233196,0.223868,0.163237,328.000000,303.000000,25.000000,24.000000,0.000000,0.000000,0.437076,0.509999,0.233196,0.223868,0.163237,328.000000,303.000000,25.000000,24.000000,0.000000,0.000000:
0000
0000
0000
0000
,
0000
0000
0000
0000
,
0000
0000
0000
0000
0000
0000
0000
0010
,
0100
0000
0000
0001
0000
0000
0020
0000
0000
0000
0000
0000
1000
0000
0000
0000
,
0000
0000
1000
0000
0000
0030
0000
0010
,
0100
0000
0000
1000
0000
0000
0020
0000
0000
0000
0000
0000
0001
0000
0000
0000
,
0000
0000
0001
0000
0000
1030
0000
0100
,
0010
0001
1000
0000
0100
1000
0010
0000
,
2010
0000
0000
0000
0000
0000
3001
0010
,
0100
1000
0000
0100
1000
0000
0100
1000
0000
0000
0000
0000
0000
0000
0000
0000
,
0001
0010
0000
0001
0010
0000
0001
0010
0000
0001
0010
0000
0000
0000
0000
0000
,
0100
0010
0000
0100
0010
0000
0100
0010
0000
0000
0000
0000
0000
0000
0000
0000
,
0100
0001
0000
0100
0001
0000
0100
0001
0000
0100
0001
0000
0000
0000
0000
0000
,
1000
0010
0000
1000
0010
0000
1000
0010
0000
0000
0000
0000
0000
0000
0000
0000
,
0010
0100
0000
0010
0100
0000
0010
0100
0000
0010
0100
0000
0000
0000
0000
0000
,
0001
0010
0000
0001
0010
0000
0001
0010
0000
0000
0000
0000
0000
0000
0000
0000
,
0100
1000
0000
0100
1000
0000
0100
1000
0000
0100
1000
0000
0001
0000
0001
0000
,
0010
0000
0000
0000
0100
0000
0000
0000
1000
0000
0000
0000
0001
0000
0000
0001
,
0000
0000
0000
0000
1000
0000
0100
0000
0000
0100
0000
0000
0100
0000
0000
0000
,
1000
0000
0000
0000
0001
0000
0000
0000
0100
0000
0000
0000
0010
0000
0000
0010
,
0000
0100
0001
0101
,
1000
0000
0000
0000
0001
0000
0000
0010
0000
0000
0000
0000
0100
0000
0000
0000
,
0100
0000
0000
0000
1000
0000
0001
0000
0000
0001
0000
0000
0001
0000
0000
0000
,
0101
1000
1010
0010
,
2200
0000
0000
0000
3300
0000
0001
1000
,
0010
1000
0010
0100
0010
1000
0010
0000
,
0010
1000
0010
1000
0010
0001
0010
1000
,
0001
0010
0001
0100
0001
0010
0001
0000
,
0001
1000
0001
1000
0001
0100
0001
1000
,
0100
1000
0100
0010
0100
1000
0100
0000
,
0100
1000
0100
1000
0100
0001
0100
1000
,
0001
1000
0010
0100
0001
0010
0001
1000
,
2002
0000
0000
3003
,
1100
0000
1000
2000
0000
0000
0010
0020
,
0000
0000
0000
3030
0001
0010
1000
0010
,
0100
0000
0001
0002
0000
0000
0100
0200
,
0000
0000
0000
0003
1300
0100
0001
0100
,
0010
0000
2000
0200
0000
3000
0302
0200
,
0000
0000
0000
0303
1000
0001
0010
0100
,
0001
0000
0200
2000
0000
0300
3020
2000
,
0000
0000
0000
0030
3001
1000
0010
0100
,
0001
0000
0101
0101
0000
0000
0010
0000
,
1000
0000
1100
1100
0000
0000
0010
0000
,
0001
0000
1001
1001
0000
0000
0010
0000
,
0100
0000
0001
1000
0010
0100
0001
0000
,
0001
0000
0001
0100
1000
0000
1000
0000
,
1000
0000
1000
0100
0001
0001
1000
0000
,
1000
0000
1000
0010
0001
0000
0001
0000
,
0001
0000
0001
0010
1000
1000
0001
0000
,
1100
0000
0010
1000
1100
0000
1000
0000
,
0011
0000
1000
0001
1000
0001
0100
0000
,
1001
0000
0010
0100
1001
0000
1100
0000
,
0001
0001
0001
0000
1000
0100
0010
0000
,
0011
0001
1000
0000
0010
0002
0000
0000
,
0000
0000
1003
0001
0100
0001
1000
0000
,
1010
1000
0100
0000
0010
2000
0000
0000
,
0000
0000
3100
1000
0010
1000
0100
0000
,
1001
1000
0100
0000
1000
0002
0000
0000
,
0000
0000
0013
0100
1000
0010
0100
0000
,
0001
0100
0101
0000
0010
1000
2020
0000
,
0000
0000
3030
0011
;

//---------------dance-single - ----------------
#NOTES:
     dance-single:
     :
     Medium:
     5:
     0.337135,0.396666,0.270507,0.046639,0.000000,253.000000,224.000000,29.000000,5.000000,0.000000,0.000000,0.337135,0.396666,0.270507,0.046639,0.000000,253.000000,224.000000,29.000000,5.000000,0.000000,0.000000:
0000
0000
0000
0000
,
0000
0000
0000
0000
,
0000
0000
0000
0000
0000
0000
0000
0001
,
2000
0010
0000
0010
,
0000
0000
0010
0000
3000
0000
0010
0100
,
0002
0010
0000
0010
,
0000
0000
0010
0000
0003
0000
1000
0010
,
0200
0001
0000
0301
,
0001
0000
0000
0000
0000
0000
0010
0100
,
1000
0001
1000
0000
0101
0000
1000
0000
,
0001
1000
0001
0000
1000
0000
0001
0000
,
0100
0010
0100
0000
1001
0000
0010
0000
,
0100
1000
0100
0000
0010
0000
0001
0000
,
0010
0001
0010
0000
0101
0000
0010
0000
,
0100
0010
0100
0000
0001
0000
1000
0000
,
0100
1000
0100
0000
1010
0000
1000
0000
,
0001
0001
0010
0010
,
1100
1000
1001
1001
,
0001
1000
0110
1000
,
0011
0001
0101
0101
,
0010
0100
1100
0010
,
1010
1000
1100
1100
,
0010
0001
0101
0100
,
1001
0100
1001
0010
,
0200
0000
0000
1300
,
1000
0000
1000
0000
1000
0100
0010
0000
,
0010
0010
0001
0010
,
0001
0000
0001
0000
0001
0100
0010
0000
,
0010
0010
1000
0010
,
1001
0000
0100
0000
0010
0001
1000
0000
,
0100
1000
0100
0000
1000
0000
0001
0000
,
0010
0000
0001
0000
1000
0100
0010
0000
,
0002
0000
0000
1003
,
1001
0000
0010
0100
0000
0000
0010
0100
,
0000
0000
1000
1000
,
0000
0000
0100
0001
0000
0000
0100
0001
,
0000
0000
0010
0010
,
0000
0000
0100
1000
0000
0000
0100
1000
,
0000
0000
0001
0001
,
0000
0000
1000
0001
0000
0000
1000
0001
,
0000
0000
0100
0010
,
0000
0000
1000
0100
1000
0000
1000
0100
,
1000
0000
1000
0010
1000
0000
1000
0010
,
1000
0000
1000
0001
1000
0000
1000
0001
,
1000
0000
0000
0010
,
0010
1001
0100
0010
,
0010
1001
0100
1000
,
1000
0100
0110
1000
,
1000
0100
0110
0001
,
0001
0010
1001
1000
,
1000
0100
1001
0010
,
0010
0100
0101
0010
,
0010
0100
1100
1000
,
0100
0010
0000
0000
0010
0001
0000
0000
,
0000
1000
0001
0000
,
0010
0100
0000
0000
0100
1000
0000
0000
,
0000
1000
0001
0000
,
0001
1000
0000
0000
1000
0010
0000
0000
,
0000
0010
0100
1000
,
0001
0010
0000
0000
0100
1000
0000
0000
,
0000
0000
0010
1001
;

//---------------dance-single - ----------------
#NOTES:
     dance-single:
     :
     Beginner:
     1:
     0.111934,0.170000,0.027984,0.000000,0.000000,84.000000,81.000000,3.000000,0.000000,0.000000,0.000000,0.111934,0.170000,0.027984,0.000000,0.000000,84.000000,81.000000,3.000000,0.000000,0.000000,0.000000:
0000
0000
0000
0000
,
0000
0000
0000
0000
,
0000
0000
0000
0000
,
0001
0001
0000
0000
,
0000
0000
0000
0000
,
0100
0100
0000
0000
,
0000
0000
0000
0000
,
0001
0000
0000
0000
,
0110
0000
0000
0000
,
1000
1000
1000
0000
,
0010
0000
0000
0000
,
0100
0100
0100
0000
,
0001
0000
0000
0000
,
0010
0010
0010
0000
,
0001
0000
0000
0000
,
1000
1000
1000
0000
,
0100
0000
0000
0000
,
1000
0000
0000
0000
,
0001
0000
0100
0000
,
0001
0000
0000
0000
,
0010
0000
1000
0000
,
0010
0000
0000
0000
,
1000
0000
0100
0000
,
1000
0000
0100
0000
,
0010
0000
0000
0000
,
0001
0000
0000
0000
,
0010
0000
0000
0000
,
0001
0000
0000
0000
,
0100
0000
0000
0000
,
1000
0000
0000
0000
,
0010
0000
0000
0000
,
1000
0000
0000
0000
,
1001
0000
0000
0000
,
0000
0010
0000
0010
,
0000
0000
0000
0000
,
0000
0100
0000
0100
,
0000
0000
0000
0000
,
0000
0001
0000
0001
,
0000
0000
0000
0000
,
0000
1000
0000
1000
,
0000
0000
0000
0000
,
0000
0001
0000
1000
,
0000
1000
0000
0001
,
0000
0001
0000
1000
,
0000
0000
0000
0010
,
0000
0000
0000
0010
,
0000
0000
0000
1000
,
0000
0000
0000
1000
,
0000
0000
0000
0100
,
0000
0000
0000
0100
,
0000
0000
0000
0001
,
0000
0000
0000
0001
,
0000
0000
0000
1000
,
1000
0000
0000
0010
,
0010
0000
0000
1000
,
1000
0000
0000
0100
,
0100
0000
0000
0001
,
0001
0000
0000
0010
,
0010
0000
0000
0001
,
0001
0000
0000
0100
,
0100
0000
0000
1001
;

//---------------dance-single - ----------------
#NOTES:
     dance-single:
     :
     Easy:
     3:
     0.235861,0.255000,0.009328,0.205212,0.000000,177.000000,176.000000,1.000000,22.000000,0.000000,0.000000,0.235861,0.255000,0.009328,0.205212,0.000000,177.000000,176.000000,1.000000,22.000000,0.000000,0.000000:
0000
0000
0000
0000
,
0000
0000
0000
0000
,
0000
0000
0000
0000
,
0000
0100
0000
1000
,
0000
0001
0000
1000
,
0000
0100
0000
0001
,
0000
1000
0000
0001
,
0100
0100
0100
0100
,
0020
0000
0000
1030
,
0100
1000
0100
0020
,
0002
0000
0033
1000
,
0001
0010
0001
0100
,
0010
0000
1000
0100
,
0010
0001
0010
0200
,
0020
0000
0330
0001
,
1000
0100
1000
0010
,
0100
0000
0001
1000
,
0001
0010
0100
1000
,
1000
0100
0010
0001
,
0100
0010
1000
0001
,
0001
1000
0010
0100
,
0001
0010
0100
1000
,
1000
0100
0010
0001
,
0100
0001
1000
0010
,
1000
0000
0000
0000
,
0100
0100
0100
0100
,
1000
1000
1000
1000
,
0001
0001
0001
0001
,
0010
0010
0010
0010
,
0100
0010
0100
0010
,
0001
0010
0001
0010
,
0001
1000
0001
1000
,
0002
0000
0000
0013
,
0100
2000
0000
3002
,
0000
0000
0100
0103
,
0000
0002
0000
0023
,
0000
0000
0001
0031
,
0000
2000
0000
3200
,
0000
0000
0010
0310
,
0000
0200
0000
2300
,
0000
0000
0001
3001
,
1000
0001
1000
0001
,
1000
0010
1000
0010
,
1000
0001
1000
0001
,
0000
0000
0000
0010
,
0010
0001
1000
0010
,
0010
0001
1000
0100
,
0100
1000
0001
0100
,
0100
1000
0001
1000
,
1000
0100
0010
1000
,
1000
0100
0010
0001
,
0001
0100
0010
0001
,
0001
0100
0010
1000
,
0200
0000
0320
0000
,
0000
0001
0031
0000
,
0002
0000
2003
0000
,
0000
0010
3010
0000
,
0200
0000
0320
0000
,
0000
0100
0130
0000
,
0002
0000
2000
0000
,
0000
0000
3003
1001
;

//---------------dance-double - ----------------
#NOTES:
     dance-double:
     :
     Easy:
     4:
     0.262512,0.255000,0.018656,0.027984,0.000000,197.000000,195.000000,2.000000,3.000000,0.000000,0.000000,0.262512,0.255000,0.018656,0.027984,0.000000,197.000000,195.000000,2.000000,3.000000,0.000000,0.000000:
00000000
00000000
00000000
00000000
,
00000000
00000000
00000000
00000000
,
00000000
00000000
00000000
00000000
,
10000000
01000000
00010000
00100000
,
00000000
00100000
00000000
00100000
,
00010000
00001000
00000010
00000001
,
00000000
00000001
00000000
00000001
,
00000010
00001000
00000100
00000000
,
00022000
00000000
00033000
00000000
,
00010000
00100000
01000000
10000000
,
10000000
01000000
00100000
00010000
,
00001000
00000100
00000010
00000001
,
00000001
00000010
00000100
00001000
,
00010000
01000000
00100000
10000000
,
10000000
00100000
01000000
00010000
,
00001000
00000010
00000100
00000001
,
00000001
00000100
00000010
00001000
,
00000010
00001000
00000100
00010000
,
00001000
00010000
00100000
01000000
,
10000000
01000000
00100000
00001000
,
00010000
00000100
00001000
00000010
,
00000100
00000001
00001000
00000100
,
00010000
00001000
00010000
01000000
,
00100000
00010000
00100000
00000000
,
01000000
00000000
00000000
10000000
,
00100000
00100000
00100000
00100000
,
01000000
01000000
01000000
01000000
,
00010000
00010000
00010000
00010000
,
00001000
00001000
00001000
00001000
,
00000100
00000100
00000100
00000100
,
00000010
00000010
00000010
00000010
,
00000001
00000001
00000001
00000001
,
00002000
00000000
00000000
00003100
,
00001000
00000000
00000100
00001000
00000000
00000000
00000100
00001000
,
00000000
00000000
00010000
00000000
,
00000000
00000000
00100000
00010000
00000000
00000000
00100000
00010000
,
00000000
00000000
00001000
00000000
,
00000000
00000000
00010000
00001000
00000000
00000000
00010000
00001000
,
00000000
00000000
00000100
00000000
,
00000000
00000000
00000010
00000100
00000000
00000000
00000010
00000100
,
00000000
00000000
00000001
00000000
,
00000010
00001000
00010000
00100000
,
01000000
00100000
00010000
00001000
,
00000100
00001000
00010000
00100000
,
01000000
01000000
01000000
10000000
,
10000000
00100000
10000000
01000000
,
01000000
00100000
01000000
00100000
,
00100000
00010000
00100000
00010000
,
00010000
00001000
00001000
00000010
,
00000010
00000100
00000010
00001000
,
00001000
00000100
00001000
00000001
,
00000001
00000010
00000001
00001000
,
00001000
00000100
00000000
00010000
,
00001000
00010000
00000000
00000000
00001000
00010000
00000000
00000000
,
00000000
00100000
00000000
00000000
,
01000000
10000000
00000000
00000000
01000000
10000000
00000000
00000000
,
00000000
00100000
00000000
00000000
,
00010000
00001000
00000000
00000000
00010000
00001000
00000000
00000000
,
00000000
00000100
00000000
00000000
,
00000010
00000001
00000000
00000000
00000010
00000001
00000000
00000000
,
00000000
00000000
00000000
00001010
;

//---------------dance-single - ----------------
#NOTES:
     dance-single:
     :
     Challenge:
     8:
     0.510366,0.538333,0.093278,0.279835,0.349794,383.000000,373.000000,10.000000,30.000000,0.000000,0.000000,0.510366,0.538333,0.093278,0.279835,0.349794,383.000000,373.000000,10.000000,30.000000,0.000000,0.000000:
// measure 0
0000
0000
0000
0000
,  // measure 1
0000
0000
0000
0000
,  // measure 2
0000
0000
0000
0000
0000
0000
0000
0010
,  // measure 3
1000
0000
0000
0100
0000
0000
0200
0000
0000
0000
0000
0000
0001
0000
0000
0000
,  // measure 4
0000
0000
0001
0000
0000
0000
0301
0100
,  // measure 5
1000
0000
0000
0010
0000
0000
0020
0000
0000
0000
0000
0000
0001
0000
0000
0000
,  // measure 6
0000
0000
0001
0000
0000
0000
1030
0001
,  // measure 7
0100
0000
0000
0010
0000
0000
0100
0000
0001
0000
0000
0000
1000
0000
0000
0000
,  // measure 8
0220
0000
0300
1030
,  // measure 9
0100
1000
0000
0100
1000
0000
0100
1000
0000
0000
0000
0000
0001
0000
0000
0000
,  // measure 10
0010
0100
0000
0010
0100
0000
0010
0001
0000
0010
0001
0000
1000
0000
0100
0000
,  // measure 11
1000
0010
0000
1000
0010
0000
1000
0010
0000
0000
0000
0000
1000
0000
0000
0000
,  // measure 12
0001
0010
0000
0001
0010
0000
0001
1000
0000
0001
1000
0000
0010
0000
1000
0000
,  // measure 13
0100
0010
0000
0100
0010
0000
0100
0010
0000
0000
0000
0000
0001
0000
0000
0000
,  // measure 14
1000
0010
0000
1000
0010
0000
1000
0100
0000
1000
0100
0000
1000
0000
0010
0000
,  // measure 15
0100
0001
0000
0100
0001
0000
0100
0001
0000
0000
0000
0000
1000
0000
0000
0000
,  // measure 16
0001
1000
0000
0001
1000
0000
0010
1000
0000
0010
1000
0000
0001
0000
0010
0000
,  // measure 17
0100
0010
0000
0100
0010
0000
0100
0010
0000
0000
0000
0000
0001
0000
0000
0000
,  // measure 18
0100
0010
0000
0100
0010
0000
0100
0001
0000
0100
0001
0000
1000
0000
0010
0000
,  // measure 19
1000
0100
0000
1000
0100
0000
1000
0100
0000
0000
0000
0000
0010
0000
0000
0000
,  // measure 20
0001
1000
0000
0001
1000
0000
0010
1000
0000
0010
1000
0000
0001
0000
0010
0000
,  // measure 21
0100
1000
0000
0100
1000
0000
0100
1000
0000
0000
0000
0000
0001
0000
0000
0000
,  // measure 22
0010
0001
0000
0010
0001
0000
0010
0100
0000
0010
0100
0000
0010
0000
0001
0000
,  // measure 23
0011
0001
1100
0010
,  // measure 24
2000
0000
0000
0000
0000
0000
3001
0010
,  // measure 25
0001
0100
0001
0100
1000
0100
0001
0100
,  // measure 26
1000
0100
1000
0100
0001
0100
1000
0100
,  // measure 27
0001
0100
1000
0100
0010
0100
1000
0100
,  // measure 28
1000
0100
0010
0100
0001
0100
1000
0100
,  // measure 29
0001
0010
0001
0010
1000
0010
0001
0010
,  // measure 30
1000
0010
1000
0010
0001
0010
1000
0010
,  // measure 31
0001
0010
0100
0010
1000
0010
0001
0010
,  // measure 32
0200
0000
0000
0000
0000
0000
0310
0001
,  // measure 33
1001
0000
0200
2000
0000
3300
0020
0002
,  // measure 34
0000
0033
0000
0000
1000
0100
0010
0001
,  // measure 35
0000
0000
0200
0002
0000
0303
0020
2000
,  // measure 36
0000
3030
0000
0000
0010
0100
0001
1000
,  // measure 37
0000
0000
0020
0002
0000
0033
0200
2000
,  // measure 38
0000
3300
0000
0000
0010
1000
0001
0100
,  // measure 39
0000
0000
0020
0200
0000
0330
0002
2000
,  // measure 40
0000
3003
0000
0000
0100
1000
0001
0010
,  // measure 41
0001
0100
0001
0100
0001
0100
0001
0100
,  // measure 42
0010
1000
0100
0010
0100
0010
0100
0010
,  // measure 43
0001
1000
0100
0010
0001
1000
0010
0100
,  // measure 44
0010
1000
0001
1000
0010
0100
0001
0000
,  // measure 45
0001
0000
0000
0010
0000
0010
0000
0100
1000
0000
0001
0000
1000
0000
0000
0000
,  // measure 46
1000
0000
0000
0100
0000
0100
0000
0010
0001
0000
1000
0000
0010
0000
0000
0000
,  // measure 47
0010
0000
0000
1000
0000
1000
0000
0001
0100
0000
0010
0000
0100
0000
0000
0000
,  // measure 48
0100
0000
0000
0001
0000
0001
0000
0010
0100
0000
0010
0000
0001
0000
0000
0000
,  // measure 49
0001
0000
0000
1000
0000
1000
0000
0100
0010
0000
0100
0000
1000
0000
0000
0000
,  // measure 50
1000
0000
0000
0010
0000
0010
0000
0100
0001
0000
1000
0000
0010
0000
0000
0000
,  // measure 51
0010
0000
0000
1000
0000
1000
0000
0100
1000
0000
0001
0000
0010
0000
0000
0000
,  // measure 52
0010
0000
0000
0000
0001
1000
0000
0001
1000
0000
0100
0000
1100
0000
0000
0000
,  // measure 53
0010
0002
1000
0003
0010
2000
0001
3000
,  // measure 54
1100
0000
0010
0100
0001
1000
0010
0000
,  // measure 55
0100
0020
1000
0030
0010
0200
0001
0300
,  // measure 56
0011
0000
0010
0100
1000
0001
0010
0000
,  // measure 57
0100
2000
0001
3000
0010
0002
0100
0003
,  // measure 58
1100
0000
1000
0010
0100
0001
0010
0000
,  // measure 59
1000
0200
0001
0300
0001
0200
1000
0300
,  // measure 60
1001
0010
0100
0011
;

//---------------dance-double - ----------------
#NOTES:
     dance-double:
     :
     Medium:
     5:
     0.305154,0.368333,0.102606,0.018656,0.013992,229.000000,218.000000,11.000000,2.000000,0.000000,0.000000,0.305154,0.368333,0.102606,0.018656,0.013992,229.000000,218.000000,11.000000,2.000000,0.000000,0.000000:
00000000
00000000
00000000
00000000
,
00000000
00000000
00000000
00000000
,
00000000
00000000
00000000
00000000
00000000
00000000
00000000
00100000
,
01000000
00000000
00000000
01000000
00000000
00000000
01000000
00000000
00000000
00000000
00000000
00000000
00000000
00000000
00000000
00000000
,
00000000
00000000
00000000
00000000
00000000
00000000
00000000
00010000
,
00001000
00000000
00000000
00001000
00000000
00000000
00001000
00000000
00000000
00000000
00000000
00000000
00000000
00000000
00000000
00000000
,
00000000
00000000
00000000
00000000
00000000
00000000
00000000
00000010
,
00000100
00000000
00000000
00000100
00000000
00000000
00000100
00000000
00000000
00000000
00000000
00000000
00000000
00000000
00000000
00000000
,
00002200
00000000
00000300
00003001
,
00000010
00000100
00001000
00000000
00001000
00000000
00000100
00000000
,
00000010
00000001
00000010
00000000
00000001
00000000
00000100
00000000
,
00000010
00001000
00000100
00000000
00001000
00000000
00010000
00000000
,
00100000
01000000
00100000
00000000
01000000
00000000
10000000
00000000
,
00100000
10000000
00010000
00000000
01000000
00000000
00100000
00000000
,
10000000
01000000
10000000
00000000
00100000
00000000
01000000
00000000
,
00100000
01000000
00010000
00000000
00001000
00000000
00000100
00000000
,
00000010
00000001
00000010
00000000
00000001
00000000
00001000
00000000
,
00000100
00001000
00000010
00000100
00000000
00000000
00001000
00000000
,
00010000
00100000
01000000
00000000
10000000
00000000
00000000
00000000
,
10000000
01000000
00100000
00010000
00000000
00000000
00010000
00000000
,
00001000
00000100
00000010
00000000
00000001
00000000
00000000
00000000
,
00000010
00001000
00000100
00001000
00000000
00000000
00000100
00000000
,
00010000
00100000
01000000
00000000
10000000
00000000
00000000
00000000
,
00100000
10000000
01000000
10000000
00100000
00000000
10000000
00000000
,
01000000
00000000
00000000
00100000
,
00010000
00001000
00000100
00000010
,
00000001
00000010
00000100
00000000
00000001
00000010
00000100
00000000
,
00000001
00000100
00000010
00001000
,
00010000
01000000
00100000
00000000
00010000
01000000
00100000
00000000
,
10000000
01000000
00100000
00010000
,
00001000
00000100
00000010
00000000
00001000
00000100
00000010
00000000
,
00000001
00001000
00000010
00000100
,
00001001
00000000
00000000
00010000
,
00000000
00000000
00001000
00010000
00000000
00000000
00001000
00010000
,
00000000
00000000
00100000
01000000
,
00000000
00000000
10000000
00100000
00000000
00000000
10000000
00100000
,
00000000
00000000
01000000
00000000
,
00000000
00000000
00010000
00100000
00000000
00000000
00010000
00100000
,
00000000
00000000
00001000
00000000
,
00000000
00000000
00000100
00001000
00000000
00000000
00000100
00001000
,
00000000
00000000
00000001
00000010
,
00000001
00000000
00000100
00000010
00000100
00000000
00000100
00000010
,
00000100
00000000
00000010
00001000
00000010
00000000
00000010
00001000
,
00000010
00001000
00010000
00100000
,
01000000
10000000
00100000
01000000
,
01000000
10010000
00000000
00100000
,
00100000
01010000
00000000
00001000
,
00001000
00011000
00000000
00000010
,
00000010
00000000
00001100
00000000
00000001
00001000
00000001
00000000
,
00000001
00000110
00000000
00000100
,
00000100
00001010
00000000
00010000
,
00010000
01010000
00000000
00100000
,
00100000
00000000
11000000
00000000
00010000
10000000
00100000
00000000
,
01000000
00010000
00000000
00000000
00100000
00010000
00000000
00000000
,
00000000
00001000
00000100
00000000
,
00000010
00000001
00000000
00000000
00000001
00000100
00000000
00000000
,
00000000
00000010
00001000
00000000
,
00010000
00001000
00000000
00000000
00010000
00100000
00000000
00000000
,
00000000
01000000
10000000
00000000
,
00100000
10000000
00000000
00000000
10000000
01000000
00000000
00000000
,
00000000
00000000
00000000
00110000
;

//---------------dance-double - ----------------
#NOTES:
     dance-double:
     :
     Hard:
     7:
     0.427748,0.481666,0.214540,0.289163,0.069959,321.000000,298.000000,23.000000,31.000000,0.000000,0.000000,0.427748,0.481666,0.214540,0.289163,0.069959,321.000000,298.000000,23.000000,31.000000,0.000000,0.000000:
00000000
00000000
00000000
00000000
,
00000000
00000000
00000000
00000000
,
00000000
00000000
00000000
00000000
00000000
00000000
00000000
10000000
,
01000000
00000000
00000000
00010000
00000000
00000000
00002000
00000000
00000000
00000000
00000000
00000000
00000100
00000000
00000000
00000000
,
00000000
00000000
00000100
00000000
00000000
00000000
00003100
00000001
,
00000010
00000000
00000000
00001000
00000000
00000000
00020000
00000000
00000000
00000000
00000000
00000000
00100000
00000000
00000000
00000000
,
00000000
00000000
00100000
00000000
00000000
00000000
00130000
10000000
,
01000000
00000000
00000000
00100000
00000000
00000000
00010000
00000000
00000000
00000000
00000000
00000000
00000000
00000000
00000000
00000000
,
00000200
00000000
00000000
00001300
,
00000010
00000100
00000000
00000010
00000100
00000000
00000010
00000100
00000000
00000000
00000000
00000000
00000001
00000000
00000010
00000000
,
00000001
00000000
00000100
00000000
00000010
00000000
00001000
00000100
,
00001000
00000100
00000000
00001000
00000100
00000000
00001000
00000100
00000000
00000000
00000000
00000000
00010000
00000000
00000000
00000000
,
00001000
00000000
00010000
00000000
00100000
00000000
01000000
00010000
,
01000000
00010000
00000000
01000000
00010000
00000000
01000000
00010000
00000000
00000000
00000000
00000000
10000000
00000000
00000000
00000000
,
01000000
00000000
00100000
00000000
00010000
00000000
01000000
00100000
,
01000000
00100000
00000000
01000000
00100000
00000000
01000000
00100000
00000000
00000000
00000000
00000000
10000000
00000000
00000000
00000000
,
00010000
00000000
00100000
00000000
00001000
00000000
00010000
00000100
,
00001000
00000000
00001010
00000000
00000101
00000000
00000010
00000100
,
00001000
00000010
00000100
00000000
00000001
00000010
00000001
00000100
,
00000010
00000000
00001100
00000000
00011000
00000000
00010000
00100000
,
01000000
10000000
00100000
00000000
01000000
00010000
00100000
00010000
,
01000000
00000000
00110000
00000000
10010000
00000000
01000000
10000000
,
00100000
10000000
01000000
00000000
00100000
00010000
01000000
00010000
,
00100000
00110000
00011000
00001100
,
00000110
00000000
00001001
00000000
00000010
00000100
00000001
00000010
,
00000100
00000000
00000100
00001000
00000100
00001000
00000100
00000000
,
00000100
00000000
00000100
00000010
00000100
00000010
00000100
00000000
,
00000100
00000000
00000100
00000001
00000100
00000001
00000100
00000000
,
00000100
00000000
00000100
00001000
00000100
00001000
00000100
00000000
,
00011000
00000000
00010000
00100000
00010000
00100000
00010000
00000000
,
00010000
00000000
00010000
10000000
00010000
10000000
00010000
00000000
,
00010000
00000000
00010000
01000000
00010000
01000000
00010000
00100000
,
01000000
10000000
01000000
00100000
00010000
10000000
00100000
01000000
,
00010000
00000000
00200000
00002000
00300000
00003000
00200000
00002000
,
00300000
00003000
00000000
00000000
00001000
00000100
00000010
00000100
,
00000000
00000000
00020000
00000200
00030000
00000300
00020000
00000200
,
00030000
00000300
00000000
00000000
00010000
00100000
01000000
10000000
,
00000000
00000000
00200000
02000000
00300000
03000000
00200000
02000000
,
00300000
03000000
00000000
00000000
00010000
00100000
00010000
01000000
,
00000000
00000000
00002000
00200000
00003000
00300000
00002000
00200000
,
00003000
00300000
00000000
00000000
00001000
00010000
00001000
00000100
,
00000000
00000000
00000010
00000110
00000000
00000000
00000001
00000101
,
00000000
00000000
00000010
00001010
00000000
00000000
00001000
00011000
,
00000000
00000000
00100000
00110000
00000000
00000000
01000000
00000000
,
10000000
00100000
01000000
00010000
,
00010000
00000000
00100000
00010000
10000000
00000000
00010000
00000000
,
00010000
00000000
00100000
00001000
00010000
00001000
00010000
00000000
,
00010000
00000000
00000100
00010000
00001000
00000000
00010000
00000000
,
00010000
00000000
00000100
00001000
00000010
00000100
00000001
00000000
,
00000001
00000000
00000100
00000001
00001000
00000000
00000001
00000000
,
00000001
00000000
00000100
00000010
00001000
00000100
00010000
00000000
,
00010000
00000000
00100000
00001000
00010000
00000000
00010000
00000000
,
00010000
00000000
00100000
00001000
00010000
00001000
00100000
00000000
,
02000000
20000000
03000000
30000000
00200000
02000000
00300000
03000000
,
00010000
00000000
00010000
00100000
01000000
10000000
00100000
00000000
,
02000000
00020000
03000000
00030000
00200000
00020000
00300000
00030000
,
00100000
00000000
00010000
00001000
00000100
00000010
00000001
00000000
,
00000200
00000020
00000300
00000030
00002000
00000200
00003000
00000300
,
00001000
00000000
00000001
00000100
00000010
00001000
00000100
00000000
,
00000010
00000001
00000011
00000000
00000100
00000001
00001001
00000000
,
00001100
00011000
00110000
01100000
;

//---------------dance-double - ----------------
#NOTES:
     dance-double:
     :
     Challenge:
     9:
     0.529022,0.566666,0.251852,0.298491,0.340466,397.000000,370.000000,27.000000,32.000000,0.000000,0.000000,0.529022,0.566666,0.251852,0.298491,0.340466,397.000000,370.000000,27.000000,32.000000,0.000000,0.000000:
00000000
00000000
00000000
00000000
,
00000000
00000000
00000000
00000000
,
00000000
00000000
00000000
00000000
00000000
00000000
00000000
00000001
,
00000010
00000000
00000000
00001000
00000000
00000000
00020000
00000000
00000000
00000000
00000000
00000000
00100000
00000000
00000000
00000000
,
00000000
00000000
00100000
00000000
00000000
00000000
00130000
10000000
,
01000000
00000000
00000000
00010000
00000000
00000000
00002000
00000000
00000000
00000000
00000000
00000000
00000100
00000000
00000000
00000000
,
00000000
00000000
00000100
00000000
00000000
00000000
00003100
00000001
,
00000010
00000000
00000000
00000100
00000000
00000000
00001000
00000000
00000010
00000000
00000000
00000000
00001000
00000000
00000000
00000000
,
00010000
00100000
01000000
10000000
00010000
00100000
10010000
00000000
,
10000000
01000000
00000000
00100000
01000000
00000000
10000000
01000000
00000000
00000000
00000000
00000000
01000000
00000000
00000000
00000000
,
00100000
00010000
00000000
00100000
01000000
00000000
00100000
00010000
00000000
00100000
01000000
00000000
00100000
00000000
00010000
00000000
,
01000000
00010000
00000000
01000000
00100000
00000000
01000000
00010000
00000000
00000000
00000000
00000000
00001000
00000000
00000000
00000000
,
00000100
00000010
00000000
00000100
00001000
00000000
00000100
00000010
00000000
00000100
00001000
00000000
00000100
00000000
00000010
00000000
,
00000001
00000100
00000000
00000001
00000010
00000000
00000001
00000100
00000000
00000000
00000000
00000000
00000010
00000000
00000000
00000000
,
00001000
00000100
00000000
00001000
00000010
00000000
00001000
00000100
00000000
00001000
00000010
00000000
00000100
00000000
00000010
00000000
,
00000100
00000010
00000000
00000100
00000001
00000000
00000100
00000010
00000000
00000000
00000000
00000000
00001000
00000000
00010000
00000000
,
00100000
11000000
01010000
00110000
,
01000000
00010000
00000000
10000000
00010000
00000000
01000000
00010000
00000000
00000000
00000000
00000000
10000000
01000000
00000000
00000000
,
00100000
00010000
00000000
00100000
00010000
00000000
01000000
00010000
00000000
01000000
00010000
00000000
00100000
00000000
00001000
00000000
,
00010000
00001000
00000000
00010000
00001000
00000000
00010000
00001000
00000000
00000000
00000000
00000000
00000010
00000100
00000000
00000000
,
00001000
00000100
00000000
00001000
00000100
00000000
00000010
00000001
00000000
00000010
00000001
00000000
00001000
00000000
00000010
00000000
,
00001000
00000100
00000000
00001000
00000010
00000000
00001000
00000100
00000000
00000000
00000000
00000000
00000010
00000001
00000000
00000000
,
00000100
00000001
00000000
00000100
00000001
00000000
00001000
00000010
00000000
00001000
00000010
00000000
00010000
00000000
00001000
00000000
,
00110000
01000000
11000000
00010000
,
01010000
00000000
10000000
01000000
00100000
01000000
10000000
00010000
,
00100000
01000000
00100000
00010000
00100000
01000000
00100000
01000000
,
00100000
00010000
00100000
00010000
00100000
01000000
00100000
00010000
,
00001000
00000100
00001000
00000010
00001000
00000100
00001000
00000100
,
00001000
00000001
00001000
00000100
00001000
00000001
00001000
00000010
,
00000100
00000001
00000100
00000010
00000100
00000001
00000100
00000001
,
00000100
00000010
00000100
00001000
00000100
00000010
00001000
00010000
,
00100000
01000000
00100000
00010000
00100000
01000000
00100000
00010000
,
10000000
01000000
00010000
00001000
00000100
00000001
00001001
00000000
,
00000101
00000000
00001000
00002200
00000000
00003300
00000010
00000022
,
00000000
00000000
00000033
00000000
00000001
00000100
00000010
00001000
,
00000000
00000000
00010000
00220000
00000000
00330000
01000000
02200000
,
00000000
00000000
03300000
00000000
10000000
01000000
00100000
00010000
,
00000000
00000000
01000000
02020000
00000000
03030000
00001000
00022000
,
00000000
00000000
00033000
00000000
00000100
00001000
00000010
00000100
,
00000000
00000000
00000010
00000022
00000000
00000033
00000100
00000202
,
00000000
00000000
00000303
00000000
00000001
00000100
00000010
00001000
,
00000100
00001000
00000100
00001000
00000100
00001000
00000100
00001000
,
00010000
00100000
00010000
00100000
00010000
00100000
00010000
00100000
,
01000000
10000000
01000000
10000000
01000000
10000000
01000000
10000000
,
00100000
01000000
00010000
10000000
00100000
01000000
00100000
00000000
,
00100000
00000000
00000000
10000000
00000000
10000000
00000000
00100000
00010000
00000000
00001000
00000000
00000010
00000000
00000000
00000000
,
00000010
00000000
00000000
00000001
00000000
00000001
00000000
00000001
00000010
00000000
00001000
00000000
00000100
00000000
00000000
00000000
,
00000100
00000000
00000000
00000010
00000000
00000010
00000000
00000001
00000100
00000000
00001000
00000000
00010000
00000000
00000000
00000000
,
00010000
00000000
00000000
01000000
00000000
01000000
10000000
00000000
00010000
00000000
00100000
00000000
01000000
00000000
00000000
00000000
,
01000000
00000000
00000000
00100000
00000000
00100000
00000000
00010000
01000000
00000000
00100000
00000000
01000000
00000000
00000000
00000000
,
01000000
00000000
00000000
00010000
00000000
00010000
00000000
00100000
00001000
00000000
00010000
00000000
00001000
00000000
00000000
00000000
,
00001000
00000000
00000000
00010000
00000000
00010000
00000000
00000100
00001000
00000000
00000010
00000000
00000100
00000000
00000000
00000000
,
00000100
00000000
00000000
00000000
00000001
00000100
00000000
00000001
00000100
00000000
00000010
00000000
00001000
00000000
00000000
00000000
,
00010000
02020000
00000000
03030000
10000000
22000000
00000000
00000000
,
33000000
00000000
00100000
10000000
00010000
01000000
00000000
00000000
,
00010000
00022000
00000000
00033000
00001000
00022000
00000000
00000000
,
00033000
00000000
00000100
00001000
00000010
00000100
00000000
00000000
,
00000010
00002020
00000000
00003030
00000100
00002200
00000000
00000000
,
00003300
00000000
00000010
00000100
00000001
00001000
00001010
00000000
,
00000100
00010000
00010100
00000000
00001000
00100000
00202000
00000000
,
00000000
00000000
00303000
00110000
;
