#VERSION:0.83;
#TITLE:Rock Star;
#SUBTITLE:(Jason Nevins Remix);
#ARTIST:N.E.R.D;
#TITLETRANSLIT:;
#SUBTITLETRANSLIT:;
#ARTISTTRANSLIT:;
#GENRE:Hip Hop;
#ORIGIN:;
#CREDIT:;
#BANNER:rockstar-bn.png;
#BACKGROUND:rockstar-bg.png;
#PREVIEWVID:;
#JACKET:;
#CDIMAGE:;
#DISCIMAGE:;
#LYRICSPATH:;
#CDTITLE:;
#MUSIC:Rock Star (Jason Nevins Remix).ogg;
#OFFSET:-0.020000;
#SAMPLESTART:31.699999;
#SAMPLELENGTH:12.000000;
#SELECTABLE:YES;
#BPMS:0.000=122.000;
#STOPS:;
#DELAYS:;
#WARPS:;
#TIMESIGNATURES:0.000=4=4;
#TICKCOUNTS:0.000=4;
#COMBOS:0.000=1;
#SPEEDS:0.000=1.000=0.000=0;
#SCROLLS:0.000=1.000;
#FAKES:;
#LABELS:0.000=Song Start;
#BGCHANGES:;
#KEYSOUNDS:;
#ATTACKS:
;

//---------------dance-single - ----------------
#NOTEDATA:;
#CHARTNAME:;
#STEPSTYPE:dance-single;
#DESCRIPTION:;
#CHARTSTYLE:;
#DIFFICULTY:Hard;
#METER:7;
#RADARVALUES:0.409945,0.478269,0.318846,0.179351,0.209243,288.000000,256.000000,32.000000,18.000000,0.000000,0.000000,0.000000,0.000000,0.000000,0.409945,0.478269,0.318846,0.179351,0.209243,288.000000,256.000000,32.000000,18.000000,0.000000,0.000000,0.000000,0.000000,0.000000;
#CREDIT:;
#NOTES:
0000
0000
0000
0000
,
0000
0000
0000
0000
,
0000
0000
0000
0000
0000
0000
0000
0000
0000
0000
0001
0000
0000
0001
0000
0000
,
0101
0000
0000
0000
0000
0000
0000
0000
0000
0000
1000
0000
0000
1000
0000
0000
,
1100
0000
0000
0000
0010
0000
0011
0000
0000
0000
0001
0000
0000
0001
0000
0000
,
0011
0000
0100
2100
0000
0001
3001
0000
,
1001
0000
0000
0000
0100
0000
0110
0000
0000
0000
0010
0000
0000
0010
0000
0000
,
0010
1000
0100
0000
0010
0001
0100
0010
,
0110
0000
0000
0000
,
0000
0000
0000
0000
0000
0000
0000
0000
0000
0000
1100
0000
0000
0110
0000
0000
,
0011
0000
0000
0000
,
0000
0000
0000
0000
0000
0000
0000
0000
0000
0000
0101
0000
0000
0110
0000
0000
,
1010
0000
0100
0010
0000
0001
0100
0010
,
1000
0000
0000
0000
0100
0000
0000
0010
0000
0000
0001
0000
1000
0000
0000
0000
,
0100
0010
1000
0100
0000
0001
0100
1000
,
0001
0000
0000
0000
2002
0000
0000
0000
3003
0000
0010
0001
0010
0000
0010
0000
,
0001
0100
0001
0201
0000
0000
1300
0000
,
1000
0100
1000
1200
0000
0000
0301
0000
,
0100
0010
1000
1200
0000
0000
0310
0001
,
1000
0000
0001
1000
0000
0001
1000
0000
0001
0000
1000
0001
0000
1000
0001
0000
,
1000
0010
1000
1020
0000
0000
0031
0000
,
0001
0010
0001
0021
0000
0000
1030
0000
,
0010
0100
0001
0021
0000
0000
0130
0010
,
0001
0000
1000
0001
0000
1000
0001
0000
1000
0000
0001
1000
0000
0001
1000
0000
,
0001
0000
0000
0000
,
0000
0000
0000
0000
0000
0000
0000
0000
0000
0000
0100
0010
1000
0000
0100
0000
,
0011
0000
0000
0000
,
0000
0000
0000
0000
0000
0000
0000
0000
0001
0000
1000
0100
0010
0000
0001
0000
,
1001
0000
0000
0000
,
0000
0000
0000
0000
0000
0000
0000
0000
0000
0000
0010
0100
1000
0000
0001
0000
,
0110
0000
0000
0000
,
0100
0010
0100
0010
0100
0010
0100
0010
0100
0000
0000
0000
0000
0000
0000
0000
,
1000
0100
1000
0010
1000
0100
0011
0000
,
0001
0000
0100
0000
0001
0000
0010
0000
0001
0000
0100
0000
0010
1000
0000
0000
,
0010
0100
0001
1000
0010
0010
0100
0100
,
0010
0000
0100
0010
0000
0100
0010
0000
0100
0000
0010
0100
0000
0010
0100
0000
,
0010
1000
0010
0100
0010
1000
0101
0000
,
0100
0010
0100
0001
0100
0010
1100
0000
,
1000
0100
0010
0001
1000
0001
0010
0100
,
0010
0000
0100
0010
0000
0100
0010
0000
0100
0000
0010
0100
0000
0010
0100
0000
,
0010
0001
1000
2020
0000
3030
1001
0000
,
0100
0000
1000
0000
0001
0000
0202
0000
0000
0000
0303
0000
0001
1000
0000
0000
,
0010
1000
0100
0220
0000
0330
1001
0000
,
0001
0000
1000
0001
0000
1000
0001
0000
1000
0000
0001
1000
0000
0001
1000
0000
,
0010
1000
0010
0200
0001
0300
0010
0000
,
0100
0000
1000
0000
0100
0000
2000
0000
0010
0000
3000
0000
0100
0010
0000
0000
,
1000
0001
1000
0002
0010
0003
0100
0000
,
0010
0000
0100
0010
0000
0100
0010
0000
0100
0000
0010
0100
0000
0010
0100
0000
,
0001
0000
0000
0000
;

//---------------dance-single - ----------------
#NOTEDATA:;
#CHARTNAME:;
#STEPSTYPE:dance-single;
#DESCRIPTION:;
#CHARTSTYLE:;
#DIFFICULTY:Medium;
#METER:5;
#RADARVALUES:0.256215,0.334788,0.308882,0.019928,0.039856,180.000000,149.000000,31.000000,2.000000,0.000000,0.000000,0.000000,0.000000,0.000000,0.256215,0.334788,0.308882,0.019928,0.039856,180.000000,149.000000,31.000000,2.000000,0.000000,0.000000,0.000000,0.000000,0.000000;
#CREDIT:;
#NOTES:
0000
0000
0000
0000
,
0000
0000
0000
0000
,
0000
0000
0000
0000
0000
0000
0000
0000
0000
0000
1000
0000
0000
1000
0000
0000
,
1000
0000
0000
0000
0000
0000
0000
0000
0000
0000
0001
0000
0000
0001
0000
0000
,
0001
0000
0000
0000
0000
0000
0100
0000
0000
0000
0100
0000
0000
0100
0000
0000
,
0100
0000
0000
0000
0000
0000
0010
0000
0000
0000
0010
0000
0000
0010
0000
0000
,
0010
0000
0000
0000
0000
0000
1000
0000
0000
0000
1000
0000
0000
1000
0000
0000
,
1000
0000
0000
0000
0000
0000
0001
1000
,
0010
0000
0000
0000
,
0000
0000
0000
0000
0000
0000
0000
0000
0000
0000
0001
0000
0000
1000
0000
0000
,
0001
0000
0000
0000
,
0000
0000
0000
0000
0000
0000
0000
0000
0000
0000
1000
0000
0000
0010
0000
0000
,
1000
0000
0000
0000
,
0000
0000
0000
0000
0000
0000
0000
0000
0000
0000
0001
0000
0000
0010
0000
0000
,
0100
0000
0000
0000
,
0000
0000
0000
0000
0000
0010
0100
1000
,
0001
0000
0000
1001
0000
0000
0010
1000
,
0100
0000
0000
1001
0000
0000
0010
0001
,
0100
0000
0000
1001
0000
0000
0110
0000
,
1000
0001
1000
0000
0001
1000
0001
0000
,
0100
0000
0000
1001
0000
0000
0010
1000
,
0001
0000
0000
1001
0000
0000
0100
0001
,
1000
0000
0000
1001
0000
0000
0001
0010
,
0100
0010
0100
0000
0010
0100
0010
0000
,
1001
0000
0000
0000
,
0000
0000
0000
0000
0000
0001
0001
0001
,
0001
0000
0000
0000
,
0000
0000
0000
0000
0010
0100
0100
0100
,
0010
0000
0000
0000
,
0000
0000
0000
0000
0000
1000
1000
1000
,
1000
0000
0000
0000
,
2002
0000
3003
0000
,
0010
0000
0000
0101
0000
0000
0100
0010
,
1000
0000
0000
0110
0000
0000
0100
0001
,
1000
0000
0000
1010
0000
0000
0010
1000
,
0100
0010
0001
0000
0010
0100
1000
0000
,
0001
0000
0000
1100
0000
0000
0100
0001
,
0100
0000
0000
0011
0000
0000
1000
0100
,
0010
0000
0000
1100
0000
0000
0001
0000
,
0100
0001
1000
0000
0010
1000
0010
0000
,
1100
0000
0000
1100
0000
0000
1001
0000
,
0101
0000
0000
0101
0000
0000
1001
0000
,
0110
0000
0000
1001
0000
0000
0000
0000
,
0001
0010
0100
0000
1000
0100
0010
0000
,
0011
0000
0000
0011
0000
0000
1001
0000
,
1010
0000
0000
1010
0000
0000
1001
0000
,
0110
0000
0000
1001
0000
0000
0010
0000
,
0100
0001
1000
0000
0010
1000
0100
0010
,
0001
0000
0000
0000
;

//---------------dance-single - ----------------
#NOTEDATA:;
#CHARTNAME:;
#STEPSTYPE:dance-single;
#DESCRIPTION:;
#CHARTSTYLE:;
#DIFFICULTY:Easy;
#METER:3;
#RADARVALUES:0.176504,0.239134,0.099639,0.059784,0.000000,124.000000,114.000000,10.000000,6.000000,0.000000,0.000000,0.000000,0.000000,0.000000,0.176504,0.239134,0.099639,0.059784,0.000000,124.000000,114.000000,10.000000,6.000000,0.000000,0.000000,0.000000,0.000000,0.000000;
#CREDIT:;
#NOTES:
0000
0000
0000
0000
,
0000
0000
0000
0000
,
0000
0000
0000
0000
0000
0020
0000
0000
,
0030
0000
0000
0000
0000
0200
0000
0000
,
0301
0000
0000
1000
0000
0001
0000
0000
,
1000
0000
0000
0100
0000
0010
0000
0000
,
0001
0000
0000
0010
0000
0001
0000
0000
,
0100
0000
0000
0010
,
0100
0000
0000
0000
,
0000
0000
0000
0000
0000
0020
0000
0000
,
0030
0000
0000
0000
,
0000
0000
0000
0000
0000
2000
0000
0000
,
3001
0010
0000
0100
,
0010
0001
0000
0100
,
0010
1000
0000
0001
,
1000
0010
0000
0100
,
0100
0000
0000
0010
0000
0000
1000
0000
,
0001
0000
0000
0010
0000
0000
0100
0000
,
0010
0000
0000
0001
0000
0000
0100
0000
,
0010
1000
0010
1000
,
0100
0000
0000
1000
0000
0000
0010
0000
,
1000
0000
0000
0100
0000
0000
0010
0000
,
0001
0000
0000
1000
0000
0000
0001
0000
,
0010
0000
0000
0100
0000
0000
1000
0000
,
1001
0000
0000
0000
,
0000
0000
0000
0000
0000
0001
1000
0001
,
1000
0000
0000
0000
,
0000
0000
0000
0000
0100
0010
0100
0010
,
0100
0000
0000
0000
,
0000
0000
0000
0000
0000
0010
0001
0010
,
0001
0000
0000
0000
,
2002
0000
3003
0000
,
0010
0000
0000
1000
0000
0000
0001
0000
,
0010
0000
0000
0100
0000
0000
0010
0000
,
0001
0000
0000
0100
0000
0000
1000
0000
,
0001
0010
0001
0010
,
0100
0000
0000
0010
0000
0000
0001
0000
,
0010
0000
0000
0100
0000
0000
1000
0000
,
0010
0000
0000
0100
0000
0000
0000
0000
,
0010
1000
0010
1000
,
1001
0000
0000
0010
0000
0000
0000
0000
,
1001
0000
0000
0100
0000
0000
0000
0000
,
1010
0000
0000
1010
0000
0000
0000
0000
,
0001
1000
0001
1000
,
1001
0000
0000
0010
0000
0000
0000
0000
,
1001
0000
0000
0100
0000
0000
0000
0000
,
0101
0000
0000
0101
0000
0000
0000
0000
,
0010
0100
0010
0100
,
0010
0000
0000
0000
;

//---------------dance-single - ----------------
#NOTEDATA:;
#CHARTNAME:;
#STEPSTYPE:dance-single;
#DESCRIPTION:;
#CHARTSTYLE:;
#DIFFICULTY:Beginner;
#METER:1;
#RADARVALUES:0.088252,0.119567,0.039856,0.009964,0.000000,62.000000,58.000000,4.000000,1.000000,0.000000,0.000000,0.000000,0.000000,0.000000,0.088252,0.119567,0.039856,0.009964,0.000000,62.000000,58.000000,4.000000,1.000000,0.000000,0.000000,0.000000,0.000000,0.000000;
#CREDIT:;
#NOTES:
0000
0000
0000
0000
,
0000
0000
0000
0000
,
0000
0000
0000
0000
,
1001
0000
0000
0000
,
0110
0000
0000
0000
,
1000
0000
0000
0001
,
0001
0000
0000
0000
,
0010
0000
0010
0000
,
0010
0000
0000
0000
,
0000
0000
0000
0000
,
0110
0000
0000
0000
,
0000
0000
0000
0000
,
1001
0000
0000
0000
,
0010
0000
0000
0100
,
0100
0000
0000
0000
,
0000
0000
0000
1000
,
1000
0000
0000
0001
,
0001
0000
0000
0010
,
0010
0000
0000
0000
,
0100
0000
0100
0000
,
0100
0000
0000
1000
,
1000
0000
0000
0010
,
0010
0000
0000
0100
,
0100
0000
0100
0000
,
0100
0000
0000
0000
,
0000
0000
0000
0000
,
0001
0000
0000
0000
,
0000
0000
0000
0000
,
1000
0000
0000
0000
,
0000
0000
0000
0000
,
0010
0000
0000
0000
,
0200
0000
0300
0000
,
0100
0000
0000
0001
,
0001
0000
0000
0010
,
0010
0000
0000
1000
,
1000
0000
1000
0000
,
1000
0000
0000
0000
,
0100
0000
0000
0000
,
0010
0000
0000
0000
,
0001
0000
0001
0000
,
0001
0000
0000
0000
,
1000
0000
0000
0000
,
0010
0000
0000
0000
,
1000
0000
1000
0000
,
1000
0000
0000
0000
,
0001
0000
0000
0000
,
0010
0000
0000
0000
,
0001
0000
0001
0000
,
0001
0000
0000
0000
;

//---------------dance-double - ----------------
#NOTEDATA:;
#CHARTNAME:;
#STEPSTYPE:dance-double;
#DESCRIPTION:;
#CHARTSTYLE:;
#DIFFICULTY:Easy;
#METER:3;
#RADARVALUES:0.176504,0.239134,0.079711,0.139495,0.000000,124.000000,116.000000,8.000000,14.000000,0.000000,0.000000,0.000000,0.000000,0.000000,0.176504,0.239134,0.079711,0.139495,0.000000,124.000000,116.000000,8.000000,14.000000,0.000000,0.000000,0.000000,0.000000,0.000000;
#CREDIT:;
#NOTES:
00000000
00000000
00000000
00000000
,
00000000
00000000
00000000
00000000
,
00000000
00000000
00000000
00000000
,
00000000
00000000
00000000
00000000
,
00100000
00000000
00000000
00100000
00000000
00000000
00001000
00000000
,
00010000
00000000
00000000
00010000
00000000
00000000
00000100
00000000
,
00000010
00000000
00000000
00000010
00000000
00000000
00000001
00000000
,
00002000
00000000
00003002
00000100
,
00000103
00000000
00000000
00000000
,
00000000
00000000
00000000
00000000
00000000
00000010
00000000
00000000
,
00000010
00000000
00000000
00000000
,
00000000
00000000
00000000
00000000
00000000
00010000
00000000
00000000
,
00001000
00000000
00000000
00000000
,
00000000
00000000
00000000
00000000
00000000
00100000
00000000
00000000
,
00100000
00000000
00000000
00000000
,
00000000
00000000
00000000
00010000
,
11000000
00000000
00100000
01000000
,
00010000
00100000
00100000
00001000
,
00000000
00010000
00000100
00001000
,
00000002
00001003
00002000
00003001
,
00000101
00000000
00000010
00010000
,
00001000
01000000
01000000
00100000
,
10000000
00000000
00010000
10000000
,
00200000
01300000
02000000
03100000
,
10010000
00000000
00000000
00000000
,
00000000
00000000
00000000
00000000
00000000
00000001
00001000
00000001
,
00001000
00000000
00000000
00000000
,
00000000
00000000
00000000
00000000
01000000
01000000
00010000
00010000
,
10000000
00000000
00000000
00000000
,
00000000
00000000
00000000
00000000
00000000
00000010
00000100
00000010
,
00000100
00000000
00000000
00000000
,
01000000
00100000
01000000
00100000
00000000
00000000
00000000
00000000
,
10010000
00000000
10000000
01000000
,
00100000
00001000
00001000
00010000
,
00000100
00000000
00001000
00001000
,
00000002
00000013
00000020
00000031
,
00001001
00000000
00000100
00010000
,
00001000
00100000
00100000
01000000
,
10000000
00010000
01000000
00100000
,
20000000
31000000
02000000
13000000
,
10010000
00000000
00000000
01000000
,
00001000
00000000
00000000
00010000
,
00001000
00000000
00000000
00010000
,
00000020
00000130
00000200
00000310
,
00000110
00000000
00000000
00010000
,
00001000
00000000
00000000
01000000
,
00100000
00000000
00000000
10000000
,
00200000
01300000
02000000
03100000
,
10010000
00000000
00000000
00000000
;

//---------------dance-double - ----------------
#NOTEDATA:;
#CHARTNAME:;
#STEPSTYPE:dance-double;
#DESCRIPTION:;
#CHARTSTYLE:;
#DIFFICULTY:Medium;
#METER:5;
#RADARVALUES:0.260486,0.334788,0.189315,0.000000,0.024910,183.000000,164.000000,19.000000,0.000000,0.000000,0.000000,0.000000,0.000000,0.000000,0.260486,0.334788,0.189315,0.000000,0.024910,183.000000,164.000000,19.000000,0.000000,0.000000,0.000000,0.000000,0.000000,0.000000;
#CREDIT:;
#NOTES:
00000000
00000000
00000000
00000000
,
00000000
00000000
00000000
00000000
,
00000000
00000000
00000000
00000000
,
00000000
00000000
00000000
00000000
,
00000001
00000000
00000000
00000000
00000000
00000000
00000000
00000000
00000000
00000000
00001000
00000000
00000000
00000001
00000000
00000000
,
00001000
00000000
00000000
00000100
00000000
00000000
00000100
00000000
,
00010000
00000000
00000000
00000000
00000000
00000000
00000000
00000000
00000000
00000000
00001000
00000000
00000000
00100000
00000000
00000000
,
00001000
00000000
00000000
00000000
00000000
01000000
00100000
10000000
,
00010000
00000000
00000000
00000000
,
00000000
00000000
00000000
00000000
00000000
00000000
00000000
00000000
00000000
00000000
10000000
00000000
00000000
01000000
00000000
00000000
,
00100000
00000000
00000000
00000000
,
00000000
00000000
00000000
00000000
00000000
00000000
00000000
00000000
00000000
00000000
00000001
00000000
00000000
00000010
00000000
00000000
,
00000100
00001000
00000010
00000000
00000000
00000000
00010000
00000000
,
00001000
00000000
00000000
00000000
00001000
00000000
00000000
00100000
00000000
00000000
00000000
00000000
01000000
00000000
00000000
00000000
,
10000000
00010000
00000000
00010000
,
01000000
00000000
01000000
00000000
00000000
00100000
10000000
00010000
,
01000000
00000000
00000000
00110000
00000000
00000000
01000000
00000000
,
00001000
00000000
00000000
00011000
00000000
00000000
00010000
00000000
,
00000010
00000000
00000000
00000101
00000000
00000000
00000010
00000000
,
00001000
00000100
00000010
00000001
00000001
00000100
00000010
00001000
,
00000001
00000000
00000000
00001100
00000000
00000000
00000001
00000000
,
00001000
00000000
00000000
00000110
00000000
00000000
00010000
00000000
,
00001000
00000000
00000000
01100000
00000000
00000000
00100000
00000000
,
10000000
01000000
00100000
00010000
00010000
01000000
00100000
10000000
,
10010000
00000000
00000000
00000000
,
00000000
00000000
00000000
00000000
00000000
00100000
00100000
00001000
,
00010000
00000000
00000000
00000000
,
00000000
00000000
00000000
00000000
00000100
00010000
00000100
00000100
,
00010000
00000000
00000000
00000000
,
00000000
00000000
00000000
00000000
00000000
00100000
00100000
00001000
,
00010000
00000000
00000000
00000000
,
00000010
00000100
00000001
00001000
00000010
00000000
00000000
00000000
,
00011000
00000000
00000000
00101000
00000000
00000000
00100000
00000000
,
11000000
00000000
00000000
01100000
00000000
00000000
00001000
00000000
,
00011000
00000000
00000000
00010010
00000000
00000000
00000100
00000000
,
00000001
00001000
00000001
00000000
00001000
00000001
00001000
00000000
,
00001100
00000000
00000000
00010100
00000000
00000000
00010000
00000000
,
00011000
00000000
00000000
01001000
00000000
00000000
01000000
00000000
,
01100000
00000000
00000000
10010000
00000000
00000000
00100000
00001000
,
00010000
00000100
00000010
00000000
00000001
00000100
00000010
00000000
,
00010000
00001000
00010000
00001000
00000000
00000000
00000000
00000000
,
01000000
00100000
01000000
00010000
00000000
00000000
00000000
00000000
,
00001000
00010000
00001000
00010000
00000000
00000000
00000010
00000000
,
00000100
00000001
00001000
00000010
00000010
00001000
00000001
00000100
,
00000010
00010000
00000010
00010000
00000000
00000000
00001000
00000000
,
00010000
00001000
00010000
00001000
00000000
00000000
01000000
00000000
,
00100000
10000000
00100000
10000000
00000000
00000000
00010000
00000000
,
01000000
00010000
10000000
00100000
00100000
10000000
00010000
01000000
,
00100000
00000000
00000000
00000000
;

//---------------dance-double - ----------------
#NOTEDATA:;
#CHARTNAME:;
#STEPSTYPE:dance-double;
#DESCRIPTION:;
#CHARTSTYLE:;
#DIFFICULTY:Hard;
#METER:7;
#RADARVALUES:0.384323,0.454355,0.438413,0.119567,0.254080,270.000000,226.000000,44.000000,12.000000,0.000000,0.000000,0.000000,0.000000,0.000000,0.384323,0.454355,0.438413,0.119567,0.254080,270.000000,226.000000,44.000000,12.000000,0.000000,0.000000,0.000000,0.000000,0.000000;
#CREDIT:;
#NOTES:
// measure 0
00000000
00000000
00000000
00000000
,  // measure 1
00000000
00000000
00000000
00000000
,  // measure 2
00000000
00000000
00000000
00000000
,  // measure 3
00000000
00000000
00000000
00000000
,  // measure 4
11000000
00000000
00000000
00000000
00000000
00000000
10000000
00000000
00000000
00000000
00100000
00000000
00000000
00010000
00000000
00000000
,  // measure 5
00001000
00000000
00000000
00000000
00000000
00000000
00000010
00000000
00000000
00000000
00000001
00000000
00000100
00000010
00000000
00000000
,  // measure 6
00001100
00000000
00000000
00000000
00000000
00000000
00000010
00000000
00000000
00000000
00000100
00000000
00000000
00001000
00000000
00000000
,  // measure 7
00010000
00000000
00100000
00000000
10000000
00000000
01000000
00000000
00100000
00000000
00010000
10000000
00010000
00000000
01000000
00000000
,  // measure 8
10100000
00000000
00000000
00000000
,  // measure 9
00000000
00000000
00000000
00000000
00000000
00000000
00000000
00000000
00000000
00000000
00000101
00000000
00000000
00001010
00000000
00000000
,  // measure 10
00000101
00000000
00000000
00000000
,  // measure 11
00000000
00000000
00000000
00000000
00000000
00000000
00000000
00000000
00000000
00000000
11000000
00000000
00000000
00110000
00000000
00000000
,  // measure 12
11000000
00000000
10000000
00010000
00000000
01000000
00100000
20000000
,  // measure 13
00000000
00000000
31000000
00010000
00000000
00011000
00000000
00000100
,  // measure 14
00000001
00000000
00001000
00000020
00000000
00000130
00001000
00020000
,  // measure 15
00000000
00000000
00000000
00000000
01030000
00000000
10000000
00000000
00000000
00000000
00100000
01000000
00010000
00000000
10000000
00000000
,  // measure 16
10020000
00000000
00000000
00000000
00000000
00000000
01030000
00000000
00000000
00000000
00100000
10000000
00010000
00000000
00000000
00000000
,  // measure 17
02001000
00000000
00000000
00000000
00000000
00000000
03100000
00000000
00000000
00000000
00001000
00000000
00010000
00000100
00000000
00000000
,  // measure 18
00001200
00000000
00000000
00000000
00000000
00000000
00000310
00000000
00000000
00000000
00000010
00000001
00001000
00000000
00000000
00000000
,  // measure 19
00000001
00000000
00000100
00000010
00000000
00001000
00000010
00000000
00001000
00000000
00000010
00000100
00000000
00000001
00000100
00000000
,  // measure 20
00002001
00000000
00000000
00000000
00000000
00000000
00003010
00000000
00000000
00000000
00000100
00000001
00001000
00000000
00000000
00000000
,  // measure 21
00001200
00000000
00000000
00000000
00000000
00000000
00010300
00000000
00000000
00000000
00010000
00000000
00001000
01000000
00000000
00000000
,  // measure 22
01200000
00000000
00000000
00000000
00000000
00000000
10300000
00000000
00000000
00000000
00010000
01000000
00100000
00000000
00000000
00000000
,  // measure 23
10000000
00000000
01000000
00100000
00000000
01000000
10000000
00000000
00010000
00000000
01000000
00100000
00000000
01000000
00010000
00000000
,  // measure 24
10010000
00000000
00000000
00000000
,  // measure 25
00000000
00000000
00000000
00000000
00000000
00000000
00000000
00000000
00000000
00000000
00000010
00000100
00000001
00000000
00001000
00000000
,  // measure 26
00000011
00000000
00000000
00000000
,  // measure 27
00000000
00000000
00000000
00000000
00000000
00000000
00000000
00000000
01000000
00000000
01000000
00100000
10000000
00000000
00010000
00000000
,  // measure 28
11000000
00000000
00000000
00000000
,  // measure 29
00000000
00000000
00000000
00000000
00000000
00000000
00000000
00000000
00000000
00000000
00001000
00000100
00000010
00000000
00000001
00000000
,  // measure 30
00001100
00000000
00000000
00000000
,  // measure 31
10000000
00010000
10000000
00010000
10000000
00010000
10000000
00010000
10000000
00000000
00000000
00000000
00000000
00000000
00000000
00000000
,  // measure 32
01010000
00000000
00000000
00000000
00100000
00000000
11000000
00000000
00000000
00000000
00000000
00000000
10000000
00010000
00000000
00000000
,  // measure 33
00101000
00000000
00000000
00000000
00010000
00000000
00101000
00000000
00000000
00000000
00000000
00000000
00001000
00010000
00000100
00000000
,  // measure 34
00001100
00000000
00000010
00000101
00000000
00000000
00000001
00001000
,  // measure 35
00000001
00000000
00001000
00000100
00000000
00001000
00000001
00000000
00001000
00000000
00000001
00000100
00000000
00000001
00001000
00000000
,  // measure 36
00001100
00000000
00000000
00000000
00000010
00000000
00000101
00000000
00000000
00000000
00000000
00000000
00000010
00010000
00000000
00000000
,  // measure 37
00011000
00000000
00000000
00000000
00100000
00000000
00011000
00000000
00000000
00000000
00000000
00000000
01000000
00100000
10000000
00000000
,  // measure 38
10010000
00000000
00100000
01010000
00000000
00000000
00100000
01000000
,  // measure 39
10000000
00000000
00010000
10000000
00000000
01000000
10000000
00000000
00010000
00000000
10000000
00010000
00000000
01000000
00010000
00000000
,  // measure 40
01100000
00000000
00000000
00000000
00000000
00000000
00011000
00000000
00000000
00000000
00000000
00000000
00000010
00000100
00000000
00000000
,  // measure 41
00000110
00000000
00000000
00000000
00000000
00000000
00011000
00000000
00000000
00000000
00000000
00000000
01000000
00010000
10000000
00000000
,  // measure 42
10010000
00000000
00000000
00101000
00000000
00000000
00010000
00000010
,  // measure 43
00000100
00000000
00000001
00000100
00000000
00000010
00001000
00000000
00000010
00000000
00000100
00000001
00000000
00001000
00000010
00000000
,  // measure 44
00000120
00000000
00001000
00001030
00000000
00000000
00010100
00000000
,  // measure 45
00012000
00000000
00000000
00000000
00100000
00000000
00103000
00000000
00000000
00000000
00000000
00000000
01000000
10000000
01000000
00000000
,  // measure 46
21000000
00000000
00010000
30010000
00000000
00000000
01100000
00000000
,  // measure 47
00001000
00000000
00010000
00001000
00000000
00010000
00000100
00000000
00010000
00000000
00001000
01000000
00000000
00001000
00010000
00000000
,  // measure 48
00011000
00000000
00000000
00000000
;
