#TITLE:Rhinestone Cowboy (Giddy Up Giddy Up);
#SUBTITLE:;
#ARTIST:Rikki & Daz feat. Glen Campbell;
#TITLETRANSLIT:;
#SUBTITLETRANSLIT:;
#ARTISTTRANSLIT:;
#GENRE:Dance;
#CREDIT:;
#BANNER:rhinestonecowboy-bn.png;
#BACKGROUND:rhinestonecowboy-bg.png;
#LYRICSPATH:;
#CDTITLE:;
#MUSIC:Rhinestone Cowboy (Giddy Up Giddy Up).ogg;
#OFFSET:-0.050000;
#SAMPLESTART:13.059999;
#SAMPLELENGTH:12.000000;
#SELECTABLE:YES;
#BPMS:0.000000=133.000000
;
#STOPS:
;
#BGCHANGES:;
#KEYSOUNDS:;
#ATTACKS:;

//---------------dance-single - ----------------
#NOTES:
     dance-single:
     :
     Hard:
     7:
     0.420999,0.462816,0.187896,0.009889,0.158228,298.000000,279.000000,19.000000,1.000000,0.000000,0.000000,0.420999,0.462816,0.187896,0.009889,0.158228,298.000000,279.000000,19.000000,1.000000,0.000000,0.000000:
// measure 0
0000
0000
0000
0000
,  // measure 1
0000
0000
0000
0000
,  // measure 2
0000
0000
0000
0000
,  // measure 3
0000
0000
0000
0000
,  // measure 4
1000
0100
0001
0010
,  // measure 5
2000
0001
0001
3001
,  // measure 6
0101
1001
1100
1001
,  // measure 7
0010
0000
0000
0000
0100
0000
0010
0000
0100
0000
0000
0000
1001
0000
0000
1000
,  // measure 8
0100
0000
0000
0010
0001
0000
0000
1000
0100
0000
0000
1000
0100
0000
0000
0010
,  // measure 9
0001
0000
0000
1000
0100
0000
0000
0010
0001
0000
0000
0010
0001
0000
0000
0000
,  // measure 10
0101
0000
1000
0100
0001
0000
1000
0010
,  // measure 11
0001
0000
1000
0100
0001
0000
0100
1000
,  // measure 12
0010
0000
0010
0000
0100
0010
0100
0000
,  // measure 13
0010
0000
0000
0000
1000
0000
0001
0000
1000
0000
0000
0000
1001
0000
0000
0001
,  // measure 14
0100
0000
0000
0010
1000
0000
0000
0001
0100
0000
0000
0001
0100
0000
0000
0010
,  // measure 15
1000
0000
0000
0001
0100
0000
0000
0010
1000
0000
0000
0010
1000
0000
0000
0000
,  // measure 16
1001
0000
0001
0010
1000
0000
0001
0100
,  // measure 17
1000
0000
0001
0010
1000
0000
0010
0001
,  // measure 18
0100
0000
0100
0000
0010
0100
0010
1000
,  // measure 19
0001
0100
1000
0010
,  // measure 20
0001
0010
1000
0100
,  // measure 21
0001
0000
0001
0000
1000
0000
1000
0001
,  // measure 22
1001
0010
0101
0010
,  // measure 23
1000
0000
1000
0000
0100
0010
0001
1000
,  // measure 24
0010
0100
0010
0000
1000
0001
0010
0000
,  // measure 25
0001
0100
0001
0000
1000
0001
0100
0000
,  // measure 26
0010
1000
0010
0000
0100
0001
0010
0000
,  // measure 27
0100
1000
0100
1000
0100
1000
0010
0000
,  // measure 28
1000
0010
0001
0000
0010
1000
0001
0000
,  // measure 29
0100
0001
0100
0001
0100
0001
0010
0000
,  // measure 30
0100
1000
1010
0101
,  // measure 31
0001
0010
0011
1100
,  // measure 32
0001
0010
1000
0100
,  // measure 33
0001
0010
1000
0100
,  // measure 34
0001
0001
1000
1000
,  // measure 35
0001
0000
1000
0000
0010
0000
0100
0000
0010
0000
0000
0000
1001
0000
0000
1000
,  // measure 36
0010
0000
0000
0100
0001
0000
0000
1000
0010
0000
0000
1000
0010
0000
0000
0100
,  // measure 37
0001
0000
0000
1000
0010
0000
0000
0100
0001
0000
0000
0100
0001
0000
0000
0000
,  // measure 38
1001
0000
1000
0010
0001
0000
1000
0100
,  // measure 39
0001
0000
1000
0010
0001
0000
0010
1000
,  // measure 40
0100
0000
0001
0000
0100
1000
0010
0100
,  // measure 41
0001
0000
0000
0000
0010
0000
0100
0000
0010
0000
0000
0000
1001
0000
0000
0001
,  // measure 42
0010
0000
0000
0100
1000
0000
0000
0001
0010
0000
0000
0001
0010
0000
0000
0100
,  // measure 43
1000
0000
0000
0001
0010
0000
0000
0100
1000
0000
0000
0100
1000
0000
0000
0000
,  // measure 44
1001
0000
0001
0010
1000
0000
0001
0100
,  // measure 45
1000
0000
0001
0010
1000
0000
0010
0001
,  // measure 46
0100
0000
1000
0000
0100
0001
0010
0100
,  // measure 47
1000
0000
0001
0000
0010
0100
1000
0000
,  // measure 48
0100
0010
0001
0000
1000
0001
1000
0000
,  // measure 49
0010
0100
0010
0000
0100
0001
0100
0000
,  // measure 50
0001
0001
1000
1000
,  // measure 51
0010
0100
0001
1000
0010
0100
0001
1000
,  // measure 52
1001
0000
0000
0000
;

//---------------dance-double - ----------------
#NOTES:
     dance-double:
     :
     Hard:
     7:
     0.398395,0.462816,0.128560,0.009889,0.158228,282.000000,269.000000,13.000000,1.000000,0.000000,0.000000,0.398395,0.462816,0.128560,0.009889,0.158228,282.000000,269.000000,13.000000,1.000000,0.000000,0.000000:
00000000
00000000
00000000
00000000
,
00000000
00000000
00000000
00000000
,
00000000
00000000
00000000
00000000
,
00000000
00000000
00000000
00000000
,
10000000
00000000
01000000
00000000
00010000
00000000
00001000
00000100
,
00000002
00000000
00000000
00000003
,
00000001
00000000
00000010
00000000
00001000
00000000
00010000
00100000
,
10000000
00000000
00000000
00000000
00010000
00000000
00100000
00000000
00010000
00000000
00000000
00000000
10010000
00000000
00000000
10000000
,
01000000
00000000
00000000
00100000
00010000
00000000
00000000
10000000
01000000
00000000
00000000
10000000
01000000
00000000
00000000
00100000
,
00010000
00000000
00000000
10000000
01000000
00000000
00000000
00100000
00010000
00000000
00000000
00100000
00010000
00000000
00000000
00000000
,
00100000
00000000
00100000
00001000
00010000
00000000
00010000
00000100
,
00001000
00000000
00001000
00000010
00000100
00000000
00000001
00001000
,
00000001
00000001
00001000
00001000
,
00000010
00000000
00000000
00000000
00000100
00000000
00000010
00000000
00000100
00000000
00000000
00000000
00001001
00000000
00000000
00000001
,
00000010
00000000
00000000
00000100
00001000
00000000
00000000
00000001
00000010
00000000
00000000
00000001
00000010
00000000
00000000
00000100
,
00001000
00000000
00000000
00000001
00000010
00000000
00000000
00000100
00001000
00000000
00000000
00000100
00001000
00000000
00000000
00000000
,
00000100
00000000
00000100
00010000
00001000
00000000
00001000
00100000
,
00010000
00000000
00010000
10000000
00010000
00000000
10000000
01000000
,
10000000
00000000
01000000
00000000
00100000
00010000
00001000
00000000
,
00000100
00000001
00000100
00001000
,
00010000
00100000
10000000
00100000
,
00010000
01000000
10000000
01000000
,
00010000
00001000
00000100
00000001
,
00000100
00000010
00001000
00000010
,
00001000
00000100
00000010
00000000
00000001
00001000
00000010
00000000
,
00000100
00001000
00000100
00000000
00000100
00001000
00000100
00000000
,
00000010
00000100
00000001
00000000
00001000
00000100
00010000
00000000
,
01000000
00100000
01000000
00100000
01000000
00100000
00010000
00000000
,
10000000
00100000
10000000
00000000
00010000
01000000
00010000
00000000
,
10000000
00100000
10000000
00100000
01000000
00010000
01000000
00000000
,
00010000
00100000
00011000
00001100
,
00000010
00001000
00011000
00110000
,
10000000
01000000
00010000
00001000
,
00000010
00000001
00000100
00001000
,
00011000
01010000
10100000
11000000
,
10000000
00000000
00100000
00000000
01000000
00000000
00010000
00000000
10000000
00000000
00000000
00000000
10010000
00000000
00000000
10000000
,
00100000
00000000
00000000
01000000
00010000
00000000
00000000
10000000
00100000
00000000
00000000
10000000
00100000
00000000
00000000
01000000
,
00010000
00000000
00000000
10000000
00100000
00000000
00000000
01000000
00010000
00000000
00000000
01000000
00010000
00000000
00000000
00000000
,
00100000
00000000
00100000
00001000
00010000
00000000
00010000
00001000
,
00000100
00000000
00000100
00000010
00001000
00000000
00000001
00001000
,
00000001
00000000
00000100
00000000
00000010
00001000
00000100
00000000
,
00000010
00000000
00000000
00000000
00000001
00000000
00001000
00000000
00000001
00000000
00000000
00000000
00001001
00000000
00000000
00000001
,
00000100
00000000
00000000
00000010
00001000
00000000
00000000
00000001
00000100
00000000
00000000
00000001
00000100
00000000
00000000
00000010
,
00001000
00000000
00000000
00000001
00000100
00000000
00000000
00000010
00001000
00000000
00000000
00000010
00001000
00000000
00000000
00000000
,
00000100
00000000
00000100
00010000
00001000
00000000
00001000
00010000
,
00100000
00000000
00100000
01000000
00010000
00000000
10000000
00010000
,
10000000
00100000
00010000
00001000
,
00000100
00000001
00000010
00001000
,
00010000
01000000
10000000
00100000
,
01000000
00010000
01000000
00000000
00010000
00100000
00010000
00000000
,
00001000
00010000
00001000
00000000
00010000
00000100
00010000
00000000
,
00000100
00001000
00000001
00000010
00000100
00001000
00000001
00000010
,
00000011
00000000
00000000
00000000
;

//---------------dance-single - ----------------
#NOTES:
     dance-single:
     :
     Beginner:
     1:
     0.077701,0.154272,0.029668,0.000000,0.000000,55.000000,52.000000,3.000000,0.000000,0.000000,0.000000,0.077701,0.154272,0.029668,0.000000,0.000000,55.000000,52.000000,3.000000,0.000000,0.000000,0.000000:
0000
0000
0000
0000
,
0000
0000
0000
0000
,
0000
0000
0000
0000
,
0000
0000
0000
0000
,
1000
0000
0000
0000
,
1001
0000
0000
0000
,
0001
0000
1001
0000
,
0000
0000
0010
0010
,
0010
0010
0000
0000
,
0000
0000
0000
1000
,
1000
0000
0000
0001
,
0001
0000
0000
0000
,
0000
0000
0000
0000
,
0000
0000
0100
0100
,
0100
0100
0000
0000
,
0000
0000
0000
0010
,
0010
0000
0000
0000
,
1000
0000
0000
0000
,
0000
0000
0000
0000
,
0010
0000
0000
0000
,
0000
0000
0000
0000
,
0001
0000
0000
0000
,
1000
0000
0000
0000
,
0000
0000
0000
0000
,
0010
0000
0000
0000
,
1000
0000
0000
0000
,
0001
0000
0000
0000
,
0010
0000
0000
0000
,
1000
0000
0001
0000
,
1000
0000
0000
0000
,
0100
0000
0000
0000
,
0010
0000
0000
0000
,
0001
0000
0000
0000
,
0000
0000
0000
0000
,
1000
0000
0000
0000
,
0000
0000
0001
0001
,
0001
0001
0000
0000
,
0000
0000
0000
0100
,
0100
0000
0000
0010
,
0010
0000
0000
0000
,
0000
0000
0000
0000
,
0000
0000
0100
0100
,
0100
0100
0000
0000
,
0000
0000
0000
1000
,
1000
0000
0000
0000
,
0010
0000
0000
0000
,
0000
0000
0000
0000
,
0100
0000
0000
0000
,
0001
0000
0000
0000
,
0000
0000
0000
0000
,
1000
0000
0000
0000
,
0000
0000
0000
0000
,
0110
0000
0000
0000
;

//---------------dance-single - ----------------
#NOTES:
     dance-single:
     :
     Easy:
     3:
     0.193547,0.257120,0.009889,0.019778,0.000000,137.000000,136.000000,1.000000,2.000000,0.000000,0.000000,0.193547,0.257120,0.009889,0.019778,0.000000,137.000000,136.000000,1.000000,2.000000,0.000000,0.000000:
0000
0000
0000
0000
,
0000
0000
0000
0000
,
0000
0000
0000
0000
,
0000
0000
0000
0000
,
1000
0010
0001
0010
,
1000
0010
0001
0010
,
1000
1000
1000
1000
,
1000
0100
0010
0001
,
1000
0001
0000
0100
,
0010
0000
0000
0001
,
0010
0100
1000
0100
,
0010
0001
0010
0100
,
1000
0000
0000
0000
,
0000
0001
0010
0100
,
1000
0001
0000
0000
,
0000
0000
0000
0100
,
0010
1000
0001
1000
,
0010
0100
0001
1000
,
0001
0000
0000
0000
,
1000
0000
0010
0000
,
0100
0000
0000
0000
,
0000
0000
0000
0000
,
0002
0000
0000
0000
,
2000
0000
0000
3003
,
0001
0010
0001
0000
,
1000
0100
1000
0000
,
0010
1000
0010
1000
,
0001
0001
0001
1000
,
0001
1000
1000
0001
,
0100
0010
1000
0100
,
1000
0010
0100
0000
,
0001
0010
0100
0000
,
1000
0100
0001
0100
,
1000
0100
0001
0100
,
1000
1000
1000
1000
,
1000
0010
0100
0001
,
1000
0001
0000
0010
,
0010
0000
0000
0001
,
0100
0010
1000
0010
,
0100
0001
0100
0010
,
1000
0000
0000
0000
,
1000
0100
0010
0001
,
1000
0001
0000
0000
,
0000
0000
0000
0001
,
1000
0010
0100
0010
,
1000
0001
1000
0010
,
0100
0000
0000
0000
,
0010
0000
1000
0000
,
0001
0000
0000
0000
,
0000
0000
0000
0000
,
0010
0100
1000
0100
,
0010
0001
1000
0001
,
1001
0000
0000
0000
;

//---------------dance-single - ----------------
#NOTES:
     dance-single:
     :
     Medium:
     5:
     0.298090,0.359968,0.029668,0.356013,0.000000,211.000000,208.000000,3.000000,36.000000,0.000000,0.000000,0.298090,0.359968,0.029668,0.356013,0.000000,211.000000,208.000000,3.000000,36.000000,0.000000,0.000000:
0000
0000
0000
0000
,
0000
0000
0000
0000
,
0000
0000
0000
0000
,
0000
0000
0000
0000
,
0001
0010
1000
0010
,
0001
0100
1000
0100
,
0001
0001
1000
1000
,
0010
0000
0100
0010
0100
0000
0010
0000
,
2000
3002
0013
0200
,
2300
0000
3010
0000
0100
0000
0001
1000
,
0001
0000
1000
0001
1000
0000
0010
1000
,
0010
0000
1000
0010
1000
0000
0010
0100
,
0020
0000
0000
1030
,
0001
0000
0100
0010
0100
0000
0001
0000
,
2000
3002
0103
0020
,
0230
0000
0301
0000
0010
0000
0100
1000
,
0100
0000
1000
0100
1000
0000
0001
0000
,
0010
0001
0010
0000
0001
0010
0001
0000
,
0100
0010
1000
0001
,
0020
0000
0230
0000
,
2300
0000
3000
0000
,
0001
1000
0010
0100
,
0002
0013
0002
0103
,
0020
1030
0020
0130
,
0010
0000
1000
0000
0100
1000
0100
0000
,
1000
0000
0010
0000
0100
0001
0100
0000
,
0001
1000
1001
0110
,
0100
0010
0100
0010
0100
0010
0100
0000
,
0001
1000
1000
0001
,
0010
0000
0100
0000
1000
0010
0100
0000
,
0002
0000
2003
0000
,
3010
0000
0010
0000
0010
1000
0001
0000
,
1000
0100
0001
0100
,
1000
0010
0001
0010
,
1000
1000
0001
0001
,
0100
0000
0001
1000
0001
0000
0100
0000
,
0020
2030
3100
0020
,
0032
0000
0103
0000
0010
0000
1000
0100
,
1000
0000
0010
0001
0010
0000
0001
0100
,
0001
0000
0010
1000
0010
0000
1000
0001
,
1000
0010
0100
0001
,
0010
0000
0100
0010
0100
0000
0010
0000
,
0002
2003
3010
2000
,
3200
0000
0310
0000
0001
0000
0010
0001
,
0010
0000
0001
1000
0001
0000
1000
0000
,
0100
1000
0100
0000
1000
0010
1000
0000
,
0010
0100
0001
1000
,
0020
0000
2030
0000
,
3002
0000
0003
0000
,
0100
0010
1000
0100
,
2000
3200
0320
0032
,
0203
0320
2030
3001
,
1001
0000
0000
0000
;

//---------------dance-double - ----------------
#NOTES:
     dance-double:
     :
     Easy:
     3:
     0.213325,0.231408,0.000000,0.000000,0.000000,151.000000,151.000000,0.000000,0.000000,0.000000,0.000000,0.213325,0.231408,0.000000,0.000000,0.000000,151.000000,151.000000,0.000000,0.000000,0.000000,0.000000:
00000000
00000000
00000000
00000000
,
00000000
00000000
00000000
00000000
,
00000000
00000000
00000000
00000000
,
00000000
00000000
00000000
00000000
,
10000000
01000000
00010000
01000000
,
10000000
01000000
00010000
01000000
,
10000000
00100000
00010000
00001000
,
00000010
00000001
00000010
00000100
,
00001000
00000001
00000000
00000010
,
00000100
00000000
00000000
00001000
,
00000100
00000010
00000001
00000010
,
00000100
00001000
00000100
00000010
,
00000001
00000000
00000000
00000000
,
00000000
00001000
00010000
00001000
,
00010000
00001000
00000000
00000000
,
00000000
00000000
00000000
00010000
,
00100000
01000000
10000000
01000000
,
00100000
00010000
10000000
00100000
,
01000000
00000000
00000000
00000000
,
00100000
00000000
00010000
00000000
,
00001000
00000000
00000000
00000000
,
00000000
00000000
00000000
00000000
,
00000100
00001000
00000010
00000100
,
00000001
00000100
00000010
00000100
,
00000001
00000001
00001000
00001000
,
00000100
00000100
00010000
00010000
,
00001000
00001000
00100000
00100000
,
00010000
00100000
01000000
10000000
,
00010000
10000000
10000000
00010000
,
00100000
00010000
00001000
00000100
,
00001000
00000010
00000100
00000001
,
00000100
00000100
00000010
00000010
,
00000001
00000100
00001000
00000100
,
00000001
00000100
00001000
00000100
,
00000001
00000100
00001000
00010000
,
01000000
10000000
00100000
01000000
,
00010000
10000000
00000000
00100000
,
01000000
00000000
00000000
00010000
,
00100000
01000000
10000000
01000000
,
00100000
00010000
00100000
01000000
,
10000000
00000000
00000000
00000000
,
00000000
00010000
00001000
00010000
,
00001000
00010000
00000000
00000100
,
00001000
00000000
00000000
00000010
,
00000100
00000001
00001000
00000001
,
00000100
00000010
00001000
00000001
,
00001000
00000000
00000000
00000000
,
00000100
00000000
00001000
00000000
,
00010000
00000000
00000000
00000000
,
00100000
01000000
00010000
10000000
,
00100000
01000000
00010000
00001000
,
00000100
00000010
00000001
00001000
,
00000010
00000000
00000000
00000000
;

//---------------dance-double - ----------------
#NOTES:
     dance-double:
     :
     Medium:
     5:
     0.257120,0.359968,0.009889,0.059335,0.000000,182.000000,181.000000,1.000000,6.000000,0.000000,0.000000,0.257120,0.359968,0.009889,0.059335,0.000000,182.000000,181.000000,1.000000,6.000000,0.000000,0.000000:
00000000
00000000
00000000
00000000
,
00000000
00000000
00000000
00000000
,
00000000
00000000
00000000
00000000
,
00000000
00000000
00000000
00000000
,
10000000
01000000
00010000
00001000
,
00000100
00000001
00000100
00001000
,
00000010
00000010
00000100
00000100
,
00000001
00000000
00001000
00000001
00001000
00000000
00000001
00000000
,
00000010
00000100
00000000
00001000
,
00010000
00000000
00000000
00000000
00000000
00000000
00100000
01000000
,
00100000
00000000
01000000
10000000
01000000
00000000
10000000
00100000
,
10000000
00000000
00100000
01000000
00100000
00000000
01000000
00010000
,
01000000
00000000
00000000
00000000
,
00000000
00000000
00001000
00010000
00001000
00000000
00010000
00000000
,
00001000
00010000
00000000
00000010
,
00001000
00000000
00000000
00000000
00000000
00000000
00000100
00001000
,
00000100
00000000
00001000
00000010
00001000
00000000
00000010
00000000
,
00000100
00000001
00000100
00000000
00000001
00000010
00000001
00000000
,
00000100
00000000
00000000
00000000
,
00000020
00000000
00000230
00000000
,
00002300
00000000
00003000
00000000
,
00000000
00000000
00000000
00000000
,
00010000
00100000
01000000
10000000
,
00100000
01000000
00010000
00100000
,
00010000
00100000
00010000
00000000
00100000
00001000
00100000
00000000
,
00001000
00001000
00010000
00010000
,
00000100
00001000
00000100
00000000
00001000
00000100
00001000
00000000
,
00000100
00000010
00000100
00000010
00000100
00000010
00000100
00000000
,
00000001
00001000
00001000
00000001
,
00000100
00000010
00001000
00010000
,
01000000
00100000
01000000
00000000
00100000
10000000
00100000
00000000
,
01000000
00000000
01000000
00000000
01000000
00100000
10000000
00000000
,
00010000
00100000
10000000
00100000
,
00010000
00001000
00000010
00000001
,
00000010
00001000
00000001
00000100
,
00000010
00000000
00000100
00000010
00000100
00000000
00000001
00000000
,
00001000
00000010
00000000
00010000
,
00001000
00000000
00000000
00000000
00000000
00000000
00010000
00100000
,
00010000
00000000
01000000
10000000
01000000
00000000
10000000
00100000
,
10000000
00000000
00100000
01000000
00100000
00000000
01000000
00010000
,
01000000
00000000
00000000
00000000
,
00000000
00000000
00001000
00010000
00001000
00000000
00010000
00000000
,
00001000
00010000
00000000
00000100
,
00001000
00000000
00000000
00000000
00000000
00000000
00000010
00000100
,
00000010
00000000
00001000
00000100
00001000
00000000
00000010
00000000
,
00000100
00000001
00000100
00000000
00000001
00000010
00000001
00000000
,
00001000
00000000
00000000
00000000
,
00020000
00000000
02030000
00000000
,
03200000
00000000
00300000
00000000
,
00000000
00000000
00000000
00000000
,
10000000
01000000
00100000
00010000
,
00001000
00000100
00000010
00000001
,
00001001
00000000
00000000
00000000
;
