#TITLE:Reminder;
#SUBTITLE:;
#ARTIST:Moderat;
#TITLETRANSLIT:;
#SUBTITLETRANSLIT:;
#ARTISTTRANSLIT:;
#GENRE:Downtempo;
#CREDIT:;
#BANNER:reminder-bn.png;
#BACKGROUND:reminder-bg.png;
#LYRICSPATH:;
#CDTITLE:;
#MUSIC:Reminder.ogg;
#OFFSET:0.010000;
#SAMPLESTART:47.810001;
#SAMPLELENGTH:9.000000;
#SELECTABLE:YES;
#BPMS:0.000000=160.000000
;
#STOPS:
;
#BGCHANGES:;
#KEYSOUNDS:;
#ATTACKS:;

//---------------dance-single - ----------------
#NOTES:
     dance-single:
     :
     Hard:
     9:
     0.568562,0.680291,0.472039,0.286925,0.421133,430.000000,379.000000,51.000000,31.000000,0.000000,0.000000,0.568562,0.680291,0.472039,0.286925,0.421133,430.000000,379.000000,51.000000,31.000000,0.000000,0.000000:
0000
0000
0000
0000
,
0000
0000
0000
0000
,
0000
0000
0000
0000
,
0000
0000
0000
0000
,
0001
0000
0010
0100
0000
0000
0100
0000
0000
0010
0000
0000
0001
0000
0000
0000
,
1000
0000
0010
1000
0010
1000
0010
0000
0100
0000
0000
0000
1001
0000
0000
0000
,
0010
0000
1000
0100
1000
0100
1000
0000
0001
0000
0000
0000
0100
0000
0001
0000
,
0100
0001
0100
0001
0100
0001
0101
0000
,
0010
0000
1000
0001
0000
0000
0001
0000
0000
0100
0000
0000
0010
0000
0000
0000
,
0100
0000
0001
0010
0001
0010
0001
0000
1000
0000
0000
0000
1010
0000
0000
0000
,
0010
0000
0100
0001
0000
0000
1000
0000
0000
0010
0000
0000
1000
0000
0000
0000
,
1000
0000
0001
0010
0001
0010
0001
0000
0100
0000
0000
0000
0110
0000
0010
0000
,
1000
0000
0001
0100
0000
0000
0010
0000
0000
1000
0000
0000
0010
0000
0000
0000
,
1000
0000
0100
0010
0100
0010
0100
0000
1000
0000
0000
0000
1100
0000
0000
0000
,
0010
0000
1000
0100
1000
0100
0010
0000
0001
0000
0000
0000
1000
0000
0010
0000
,
1000
0010
1000
0010
1000
0010
1010
0000
,
1000
0000
0001
0010
0000
0000
0100
0000
0000
0010
0000
0000
0001
0000
0000
0000
,
0010
0000
0001
0100
0001
0100
0010
0000
1000
0000
0000
0000
0100
0000
0000
0000
,
0010
0000
0100
1000
0000
0000
0010
0000
0000
0100
0000
0000
0010
0000
0000
0000
,
0100
0000
0010
1000
0010
1000
0100
0000
0010
0000
0000
0000
0001
0000
1000
0001
,
0010
0000
0100
0010
0000
0000
0001
0000
0000
0100
0000
0000
0001
0000
0000
0000
,
0100
0000
0010
1000
0010
1000
0001
0000
1000
0000
0000
0000
0010
0000
0000
0000
,
0010
0000
0100
0010
0100
0010
1000
0000
0001
0000
0000
0000
0100
0000
0010
0000
,
0100
0010
0100
0010
0100
0010
0110
0000
,
1000
0010
1000
0010
1000
0010
1000
0010
1000
0000
0000
0000
0101
0000
0000
0000
,
1002
0000
0000
0010
0000
1000
1003
0000
,
0100
0001
0100
0001
0100
0001
0100
0001
0100
0000
0000
0000
1010
0000
0000
0000
,
2100
0000
0000
0010
0000
0100
3100
0000
,
0100
1000
0100
1000
0100
1000
0100
1000
0100
0000
0000
0000
1001
0000
0000
0000
,
0210
0000
0000
0001
0000
1300
1001
0000
,
0010
0100
0010
0100
0010
0100
0010
0100
0010
0000
0000
0000
1001
0000
0000
0000
,
0021
0000
0000
0100
0000
0001
0031
0000
,
0100
0001
0100
0001
0100
0001
0100
0001
0100
0000
0000
0000
1001
0000
0000
0000
,
2100
0000
0000
0010
0000
0001
3001
0000
,
0010
0001
0010
0001
0010
0001
0010
0001
0010
0000
0000
0000
1100
0000
0000
0000
,
0010
0000
0001
1000
0001
1000
1001
0000
,
2020
0000
3030
0000
,
0020
0000
0000
0230
0000
0000
2300
0000
,
3002
0000
0003
0000
,
0020
0000
0000
0230
0000
0000
0302
0000
,
0203
0000
0300
0000
,
2000
0000
0000
3020
0000
0000
0032
0000
,
2003
0000
3000
0000
,
0020
0000
0000
0200
0000
0330
1001
0000
,
0200
0000
0000
0000
,
2300
0000
0000
0000
,
3020
0000
0000
0000
,
0032
0000
0000
0000
,
0203
0000
0000
0000
,
2300
0000
0000
0000
,
3020
0000
0000
0000
,
0032
0000
0003
0101
,
0010
1000
0010
1000
0001
0100
0001
0100
0001
0000
0000
0000
1010
0000
0000
0000
,
1001
0000
0000
0010
0000
0101
0101
0000
,
0010
0100
0010
0100
0001
0010
0001
0010
0001
0000
0000
0000
1010
0000
0000
0000
,
0100
0010
0100
0010
0100
0010
0110
0000
,
0100
0001
0100
0001
1000
0010
1000
0010
1000
0000
0000
0000
0011
0000
0000
0000
,
0110
0000
0000
0100
0000
0011
0011
0000
,
0001
1000
0001
1000
0010
1000
0010
1000
0010
0000
0000
0000
1100
0000
0000
0000
,
0110
0000
0000
0001
0000
0101
0101
0000
,
1000
0100
1000
0100
0010
0001
0010
0001
0010
0000
0000
0000
1001
0000
0000
0000
,
0101
0000
0000
0010
0000
0101
0101
0000
,
0001
0100
0001
0100
0010
1000
0010
1000
0010
0000
0000
0000
0110
0000
0000
0000
,
1100
0000
0000
0010
0000
0110
0110
0000
,
0010
1000
0010
1000
0001
0100
0001
0100
0001
0000
0000
0000
1100
0000
0000
0000
,
0011
0000
0000
0100
0000
1001
1001
0000
,
0100
0001
0100
0001
1000
0010
1000
0010
1000
0000
0000
0000
1001
0000
0000
0000
,
1000
0100
0001
0100
1000
0001
1020
0000
,
0000
0000
0000
0000
,
0230
0000
0000
0000
,
0300
0000
0000
0000
;

//---------------dance-single - ----------------
#NOTES:
     dance-single:
     :
     Medium:
     6:
     0.382127,0.518317,0.268414,0.148091,0.032395,289.000000,260.000000,29.000000,16.000000,0.000000,0.000000,0.382127,0.518317,0.268414,0.148091,0.032395,289.000000,260.000000,29.000000,16.000000,0.000000,0.000000:
0000
0000
0000
0000
,
0000
0000
0000
0000
,
0000
0000
0000
0000
,
0000
0000
0000
0000
,
0010
0000
0000
1000
0000
0000
0101
0000
,
0010
0000
0000
0001
0000
0000
1100
0000
,
0010
0000
0000
0100
0000
0000
1000
0010
,
1000
0010
1000
0010
1000
0010
0200
0000
,
0301
0000
0000
0010
0000
0000
1100
0000
,
0010
0000
0000
1000
0000
0000
0101
0000
,
0010
0000
0000
0100
0000
0000
1001
0000
,
0010
0000
0000
0001
0000
0000
1100
0000
,
0100
0000
0000
1000
0000
0000
0011
0000
,
0100
0000
0000
0001
0000
0000
1001
0000
,
0010
0000
0000
0100
0000
0000
0001
0010
,
0001
0010
0001
0010
0001
0010
0011
0000
,
0100
0000
0000
1000
0000
0000
0100
0000
0000
0000
0000
0000
0001
0000
0000
0000
,
0100
0000
0000
0001
0000
0000
0100
0000
0010
0000
0000
0000
1000
0000
0000
0000
,
0010
0000
0000
1000
0000
0000
0001
0000
0000
0000
0000
0000
0010
0000
0000
0000
,
0100
0000
0000
0001
0000
0000
0100
0000
0010
0000
0000
0000
1000
0000
0000
0000
,
0100
0000
0000
1000
0000
0000
0010
0000
0000
0000
0000
0000
0001
0000
0000
0000
,
0010
0000
0000
0001
0000
0000
0100
0000
0010
0000
0000
0000
1000
0000
0000
0000
,
0100
0000
0000
1000
0000
0000
0010
0000
0000
0000
0000
0000
0100
0000
0010
0000
,
0100
0010
0100
0010
0100
0010
0110
0000
,
1100
0000
0000
0010
0000
0010
0100
0000
,
0011
0000
0000
0100
0000
0100
0010
0000
,
1001
0000
0000
0010
0000
1000
0001
0000
,
1100
0000
0000
0010
0000
0001
0100
0000
,
0110
0000
0000
0010
0000
1000
0100
0000
,
0101
0000
0000
0100
0000
1000
0010
0000
,
1010
0000
0000
0010
0000
1000
0100
0000
,
0011
0000
0000
0100
0000
0001
0010
0000
,
1000
0100
0010
0001
0000
0001
1000
0000
,
0001
0100
0010
1000
0000
1000
0001
0000
,
0100
0010
1000
0001
0000
0001
1000
0000
,
0011
0000
1000
0001
1000
0001
1001
0000
,
0020
0000
0000
0030
,
0200
0000
0000
0302
0000
0000
0023
0000
,
1030
0000
0000
0000
,
0020
0000
0000
0032
0000
0000
2003
0000
,
3010
0000
0000
0000
,
0200
0000
0000
2300
0000
0000
3020
0000
,
0130
0000
0000
0000
,
0002
0000
0000
0023
0000
0000
1030
0000
,
0000
0000
0000
0000
,
0011
0000
0000
0000
,
1100
0000
0000
0000
,
1010
0000
0000
0000
,
0101
0000
0000
0000
,
1001
0000
0000
0000
,
0110
0000
0000
0000
,
1100
0000
0000
0020
,
0031
0100
0010
0100
0001
0100
0010
0000
,
1000
0000
0000
0010
0000
0100
0010
0000
,
1000
0001
0010
0001
1000
0001
0010
0000
,
0001
0100
0001
0100
0001
0100
0101
0000
,
0010
0100
1000
0100
0010
0100
1000
0000
,
0010
0000
0000
1000
0000
0001
0100
0000
,
0100
1000
0001
1000
0100
1000
0001
0000
,
0010
0000
0000
0001
0000
1000
0100
0000
,
1000
0010
0100
0001
0010
0100
1000
0000
,
0010
0000
0000
1000
0000
0100
0001
0000
,
1000
0100
0010
0001
0010
0100
1000
0000
,
0010
0000
0000
1000
0000
0001
0010
0000
,
0100
1000
0001
0010
0001
1000
0100
0000
,
1000
0000
0000
0010
0000
0100
1000
0000
,
0100
0001
0010
0001
0100
0001
0010
0000
,
0001
1000
0001
1000
0001
1000
1002
0000
,
0000
0000
0000
0000
,
0023
0000
0000
0000
,
0030
0000
0000
0000
;

//---------------dance-single - ----------------
#NOTES:
     dance-single:
     :
     Easy:
     5:
     0.318659,0.447048,0.175858,0.185113,0.000000,241.000000,222.000000,19.000000,20.000000,0.000000,0.000000,0.318659,0.447048,0.175858,0.185113,0.000000,241.000000,222.000000,19.000000,20.000000,0.000000,0.000000:
0000
0000
0000
0000
,
0000
0000
0000
0000
,
0000
0000
0000
0000
,
0000
0000
0000
0000
,
0010
0000
0000
1000
0000
0000
0001
0000
,
0010
0000
0000
0001
0000
0000
1000
0000
,
0010
0000
0000
1000
0000
0000
0001
0000
,
0101
0001
0101
1001
,
0100
0000
0000
0001
0000
0000
1000
0000
,
0100
0000
0000
1000
0000
0000
0001
0000
,
0100
0000
0000
0001
0000
0000
1000
0000
,
0100
0000
0000
1000
0000
0000
0001
0000
,
0010
0000
0000
0100
0000
0000
1000
0000
,
0010
0000
0000
0100
0000
0000
0001
0000
,
0010
0000
0000
0100
0000
0000
1000
0000
,
1010
1000
1010
1001
,
0010
0100
0001
1000
0000
0000
0000
0000
,
0100
0010
1000
0001
0000
0000
0000
0000
,
0001
0010
0100
1000
0000
0000
0000
0000
,
1000
0100
0010
0001
0000
0000
0000
0000
,
0001
1000
0010
0100
0000
0000
0000
0000
,
1000
0001
0100
0010
0000
0000
0000
0000
,
1000
0010
0100
0001
0000
0000
0001
0000
,
1001
1000
1001
0110
,
0020
0000
0000
1000
0000
1000
1030
0000
,
0200
0000
0000
0010
0000
0010
0310
0000
,
0002
0000
0000
0100
0000
0100
0103
0000
,
2000
0000
0000
0010
0000
0010
3010
0000
,
0100
0001
0100
0001
0000
0000
0000
0000
,
1000
0010
1000
0000
0000
0000
1001
0000
,
1000
0001
0010
0001
0000
0000
0000
0000
,
0001
1000
0010
1000
0000
0000
0000
0000
,
0100
0001
1000
0010
0000
0000
0000
0000
,
0010
1000
0001
0100
0000
0000
0000
0000
,
0010
0100
0001
1000
0000
0000
0000
0000
,
0010
0110
1001
1010
,
2000
0000
3000
0000
,
0002
0000
0000
0203
0000
0000
2300
0000
,
3200
0300
0000
0000
,
0020
0000
0000
0230
0000
0000
2300
0000
,
3020
0030
0000
0000
,
0200
0000
0000
0302
0000
0000
0023
0000
,
0230
0300
0000
0000
,
0020
0000
0000
0032
0000
0000
1003
0000
,
0000
0000
0000
0000
,
0001
0000
0000
0000
,
0010
0000
0000
0000
,
0100
0000
0000
0000
,
1000
0000
0000
0000
,
0010
0000
0000
0000
,
0100
0000
0000
0000
,
0001
0000
0000
1010
,
0010
1000
0010
1000
0000
0000
1000
0000
,
0001
0100
0001
0100
0000
0000
0100
0000
,
0010
0100
0010
0100
0000
0000
0100
0000
,
0001
1001
1100
1010
,
0100
1000
0100
1000
0000
0000
0010
0000
,
0100
0001
0100
0001
0000
0000
1000
0000
,
0001
0100
0010
1000
0000
0000
0010
0000
,
1000
0010
0100
0001
0000
0000
0010
0000
,
0100
0010
0001
1000
0000
0000
0100
0000
,
1000
0001
0100
0010
0000
0000
0100
0000
,
0010
1000
0001
0100
0000
0000
0010
0000
,
0100
0001
1000
0010
0000
0000
1000
0000
,
0010
0100
0001
0010
0000
0000
0100
0000
,
1000
0010
0100
0010
0000
0000
0001
0000
,
0010
0100
1000
0001
0000
0000
0010
0000
,
0001
1100
0101
0020
,
0000
0000
0000
0000
,
0130
0000
0000
0000
;

//---------------dance-single - ----------------
#NOTES:
     dance-single:
     :
     Beginner:
     2:
     0.119001,0.223524,0.027767,0.055534,0.000000,90.000000,87.000000,3.000000,6.000000,0.000000,0.000000,0.119001,0.223524,0.027767,0.055534,0.000000,90.000000,87.000000,3.000000,6.000000,0.000000,0.000000:
0000
0000
0000
0000
,
0000
0000
0000
0000
,
0000
0000
0000
0000
,
0000
0000
0000
0000
,
0000
0000
0000
1000
,
0000
0000
0000
0100
,
0000
0000
0000
0001
,
0001
0001
0001
0001
,
0000
0000
0000
0010
,
0000
0000
0000
0100
,
0000
0000
0000
1000
,
0000
0000
0000
0010
,
0000
0000
0000
0100
,
0000
0000
0000
1000
,
0000
0000
0000
0100
,
0100
0100
0100
0100
,
0100
0000
0000
0000
,
0010
0000
0000
0000
,
0001
0000
0000
0000
,
1000
0000
0000
0000
,
0100
0000
0000
0000
,
0001
0000
0000
0000
,
0010
0000
0000
0010
,
0010
0010
0010
0010
,
0010
0000
0000
0000
,
0010
0000
0000
0000
,
0100
0000
0000
0000
,
0100
0000
0000
0000
,
1000
0000
0000
0000
,
1000
0000
0000
0001
,
0001
0000
0000
0000
,
0001
0000
0000
0000
,
0010
0000
0000
0000
,
0001
0000
0000
0000
,
1000
0000
0000
0000
,
0000
1000
1000
1000
,
1000
0000
0000
0000
,
0001
0000
0000
0000
,
1001
0000
0000
0000
,
0010
0000
0000
0000
,
0110
0000
0000
0000
,
1000
0000
0000
0000
,
1001
0000
0000
0000
,
0100
0000
0000
0010
,
0000
0000
0000
0000
,
2000
0000
3000
0000
,
0002
0000
0003
0000
,
0200
0000
0300
0000
,
0020
0000
0030
0000
,
0200
0000
0300
0000
,
0002
0000
0003
0000
,
1000
0000
0000
0010
,
0010
0000
0000
0000
,
0100
0000
0000
0000
,
0001
0000
0000
1000
,
1000
1000
1000
1000
,
1000
0000
0000
0000
,
0100
0000
0000
0000
,
0010
0000
0000
0000
,
0100
0000
0000
0000
,
1000
0000
0000
0000
,
0001
0000
0000
0010
,
0010
0000
0000
0000
,
0001
0000
0000
0000
,
0100
0000
0000
0000
,
0000
0000
0000
0000
,
0010
0000
0000
1000
,
1000
1000
1000
1000
,
0000
0000
0000
0000
,
0001
0000
0000
0000
;

//---------------dance-double - ----------------
#NOTES:
     dance-double:
     :
     Easy:
     5:
     0.281637,0.447048,0.074045,0.203625,0.000000,213.000000,205.000000,8.000000,22.000000,0.000000,0.000000,0.281637,0.447048,0.074045,0.203625,0.000000,213.000000,205.000000,8.000000,22.000000,0.000000,0.000000:
00000000
00000000
00000000
00000000
,
00000000
00000000
00000000
00000000
,
00000000
00000000
00000000
00000000
,
00000000
00000000
00000000
00000000
,
01000000
00000000
00000000
00100000
00000000
00000000
10000000
00000000
,
00010000
00000000
00000000
00100000
00000000
00000000
00001000
00000000
,
00010000
00000000
00000000
00000100
,
00000100
00000100
00000100
00000100
,
00001000
00000000
00000000
00000001
00000000
00000000
00000100
00000000
,
00000010
00000000
00000000
00010000
00000000
00000000
00001000
00000000
,
00100000
00000000
00000000
01000000
00000000
00000000
10000000
00000000
,
00010000
00000000
00000000
01000000
00000000
00000000
00001000
00000000
,
00010000
00000000
00000000
00000010
00000000
00000000
00000100
00000000
,
00001000
00000000
00000000
00010000
00000000
00000000
01000000
00000000
,
10000000
00000000
00000000
00010000
00000000
00000000
00100000
00000000
,
00100000
00100000
00100000
00010000
,
10000000
00000000
00000000
01000000
00000000
00000000
10000000
00000000
,
00010000
00000000
00000000
00100000
00000000
00000000
00010000
00000000
,
01000000
00000000
00000000
00001000
00000000
00000000
01000000
00000000
,
00001000
00000000
00000000
00010000
00000000
00000000
00001000
00000000
,
00010000
00000000
00000000
00000010
00000000
00000000
00010000
00000000
,
00000010
00000000
00000000
00000100
00000000
00000000
00000010
00000000
,
00001000
00000000
00000000
00000100
00000000
00000000
00000010
00000000
,
00000010
00000010
00000010
00000101
,
00002000
00000000
00000000
00000001
00000000
00000001
00003001
00000000
,
00000002
00000000
00000000
00001000
00000000
00001000
00001003
00000000
,
00000001
00000000
00000000
00000100
00000000
00000000
00001000
00000000
,
00010000
00000000
00000000
01000000
00000000
00000000
10000000
00000000
,
00200000
00000000
00000000
01000000
00000000
01000000
01300000
00000000
,
02000000
00000000
00000000
00100000
00000000
00100000
03100000
00000000
,
10000000
00000000
00000000
01000000
00000000
00000000
00010000
00000000
,
00001000
00000000
00000000
00000100
00000000
00000000
00000001
00000010
,
00000000
00000100
00000000
00001000
00000000
00000010
00000000
00000100
,
00000000
00000100
00000000
00000020
00000000
00000000
00000000
00000000
,
00000130
00001000
00010000
00010000
,
01000000
10000000
00100000
01010000
,
20000000
00000000
30000000
00000000
,
00020000
00000000
00000000
00230000
00000000
00000000
00302000
00000000
,
00023000
00000000
00030000
00000000
,
00000200
00000000
00000000
00000320
00000000
00000000
00000032
00000000
,
00002003
00000000
00003000
00000000
,
00000200
00000000
00000000
00020300
00000000
00000000
00032000
00000000
,
00203000
00000000
00300000
00000000
,
02000000
00000000
00000000
23000000
00000000
00000000
30020000
00000000
,
00030000
00000000
00000000
00000000
,
01000000
00000000
00000000
00000000
,
00100000
00000000
00000000
00000000
,
00010000
00000000
00000000
00000000
,
00001000
00000000
00000000
00000000
,
00000010
00000000
00000000
00000000
,
00000001
00000000
00000000
00000000
,
00001000
00000000
00000000
00000110
,
00001000
00000100
00000010
00000001
00000000
00000001
00001000
00000000
,
00000001
00000010
00000100
00001000
00000000
00001000
00000001
00000000
,
00000010
00000000
00000000
00001000
00000000
00000000
00010000
00000000
,
00100000
10000000
00010000
11000000
,
10000000
01000000
00100000
00010000
00000000
00010000
00010000
00000000
,
00010000
00100000
01000000
10000000
00000000
10000000
10000000
00000000
,
01000000
00000000
00000000
00010000
00000000
00000000
00001000
00000000
,
00000100
00000000
00000000
00000001
00000000
00000000
00001000
00000000
,
00000010
00000100
00000001
00001000
00000000
00001000
00001000
00000000
,
00001000
00000001
00000100
00000010
00000000
00000010
00000010
00000000
,
00000100
00000000
00000000
00001000
00000000
00000000
00010000
00000000
,
01000000
00000000
00000000
10000000
00000000
00000000
00100000
00000000
,
01000000
00010000
10000000
00100000
00000000
00100000
00100000
00000000
,
00100000
10000000
00010000
01000000
00000000
01000000
01000000
00000000
,
00001000
00010000
00000100
00000100
,
00000011
00000101
00001010
00001002
,
00000000
00000000
00000000
00000000
,
00000013
00000000
00000000
00000000
;

//---------------dance-double - ----------------
#NOTES:
     dance-double:
     :
     Medium:
     6:
     0.325270,0.485922,0.064790,0.222136,0.000000,246.000000,239.000000,7.000000,24.000000,0.000000,0.000000,0.325270,0.485922,0.064790,0.222136,0.000000,246.000000,239.000000,7.000000,24.000000,0.000000,0.000000:
00000000
00000000
00000000
00000000
,
00000000
00000000
00000000
00000000
,
00000000
00000000
00000000
00000000
,
00000000
00000000
00000000
00000000
,
10000000
00000000
00000000
01000000
00000000
00000000
00100000
00000000
,
00001000
00000000
00000000
00010000
00000000
00000000
00000100
00000000
,
00000010
00000000
00000000
00000001
00000000
00000000
00001000
00000100
,
00001000
00000100
00001000
00000010
00001000
00000010
00001000
00000000
,
00000001
00000000
00000000
00000100
00000000
00000000
00000010
00000000
,
00010000
00000000
00000000
00001000
00000000
00000000
01000000
00000000
,
00100000
00000000
00000000
10000000
00000000
00000000
01000000
00000000
,
00100000
00000000
00000000
00010000
00000000
00000000
01000000
00000000
,
00001000
00000000
00000000
00010000
00000000
00000000
00100000
00000000
,
10000000
00000000
00000000
00010000
00000000
00000000
01000000
00000000
,
00100000
00000000
00000000
10000000
00000000
00000000
00010000
00100000
,
00010000
00100000
00010000
01000000
00010000
01000000
00010000
00000000
,
10000000
00000000
00010000
10000000
00000000
01000000
00010000
00000000
,
00001000
00000000
00000100
00000001
00000000
00000100
00000010
00000000
,
00001000
00000000
00000010
00000100
00000000
00000001
00000100
00000000
,
00000001
00000000
00001000
00000010
00000000
00000100
00000001
00000000
,
00000010
00000000
00001000
00010000
00000000
00100000
10000000
00000000
,
00010000
00000000
01000000
00100000
00000000
10000000
01000000
00000000
,
00100000
00000000
00010000
10000000
00000000
00100000
01000000
00010000
,
01000000
00010000
01000000
00100000
01000000
00100000
01000000
00000000
,
10020000
00000000
00000000
01000000
00000000
10000000
10030000
00000000
,
01200000
00000000
00000000
10000000
00000000
01000000
01300000
00000000
,
00100000
00000000
00000000
00010000
00000000
00000000
00001000
00000000
,
00000010
00000000
00000000
00000001
00000000
00000000
00001000
00000000
,
00001002
00000000
00000000
00000100
00000000
00001000
00001003
00000000
,
00000120
00000000
00000000
00001000
00000000
00000100
00000130
00000000
,
00000001
00000000
00000000
00000010
00000000
00000000
00001000
00000000
,
00010000
00000000
00000000
00100000
00000000
00000000
10000000
00000000
,
12000000
00000000
00000000
00100000
00000000
10000000
13000000
00000000
,
00120000
00000000
00000000
10000000
00000000
00100000
00130000
00000000
,
00001000
00000000
00000000
00010000
00000000
00000000
00000010
00000000
,
00000100
00000001
00000100
00000001
00000100
00000010
00000100
00000000
,
00000020
00000000
00000030
00000000
,
00020000
00000000
00000000
00032000
00000000
00000000
02003000
00000000
,
03200000
00000000
00300000
00000000
,
00020000
00000000
00000000
00032000
00000000
00000000
00003020
00000000
,
00000032
00000000
00000003
00000000
,
00000200
00000000
00000000
00002300
00000000
00000000
00023000
00000000
,
02030000
00000000
03000000
00000000
,
20000000
00000000
00000000
30200000
00000000
00000000
02300000
00000000
,
03100000
00000000
00000000
00000000
,
00010000
00000000
00000000
00000000
,
00001000
00000000
00000000
00000000
,
00000010
00000000
00000000
00000000
,
00000001
00000000
00000000
00000000
,
00001000
00000000
00000000
00000000
,
00010000
00000000
00000000
00000000
,
10000000
00000000
00000000
00100000
,
01000000
00010000
01000000
00010000
00000000
10000000
00100000
00000000
,
10000000
01000000
10000000
01000000
00000000
00100000
00010000
00000000
,
10000000
00000000
00000000
00100000
00000000
00000000
00010000
00000000
,
00001000
00000010
00000001
00001100
,
00000001
00000100
00000001
00000100
00000000
00000010
00001000
00000000
,
00000010
00000100
00000010
00000100
00000000
00000001
00001000
00000000
,
00000010
00000000
00000000
00000100
00000000
00000000
00001000
00000000
,
00010000
00000000
00000000
01000000
00000000
00000000
10000000
00000000
,
00100000
10000000
00100000
10000000
00000000
00010000
01000000
00000000
,
00100000
01000000
00100000
01000000
00000000
00010000
10000000
00000000
,
01000000
00000000
00000000
00010000
00000000
00000000
00001000
00000000
,
00000100
00000000
00000000
00000001
00000000
00000000
00000010
00000000
,
00000100
00001000
00000100
00001000
00000000
00001000
00000001
00000000
,
00000100
00000001
00000100
00000001
00000000
00000001
00001000
00000000
,
00000010
00000100
00001000
00010000
,
01000000
10000000
01000000
10000000
01000000
00100000
00020000
00000000
,
00000000
00000000
00000000
00000000
,
20000000
00000000
00000000
00000000
,
30030000
00000000
00000000
00000000
;

//---------------dance-double - ----------------
#NOTES:
     dance-double:
     :
     Hard:
     9:
     0.559306,0.680291,0.296181,0.249903,0.416505,423.000000,391.000000,32.000000,27.000000,0.000000,0.000000,0.559306,0.680291,0.296181,0.249903,0.416505,423.000000,391.000000,32.000000,27.000000,0.000000,0.000000:
// measure 0
00000000
00000000
00000000
00000000
,  // measure 1
00000000
00000000
00000000
00000000
,  // measure 2
00000000
00000000
00000000
00000000
,  // measure 3
00000000
00000000
00000000
00000000
,  // measure 4
10000000
00000000
00010000
01000000
00000000
00000000
00010000
00000000
00000000
00100000
00000000
00000000
01000000
00000000
00000000
00000000
,  // measure 5
10000000
00000000
00100000
01000000
00000000
00000000
00100000
00000000
00000000
01000000
00000000
00000000
00010000
00000000
00000000
00000000
,  // measure 6
10000000
00000000
01000000
00010000
00000000
00000000
00001000
00000000
00000000
00000100
00000000
00000000
00000001
00000000
00000100
00000000
,  // measure 7
00000001
00000100
00000001
00001000
00000001
00001000
00001001
00000000
,  // measure 8
00001000
00000000
00000100
00000010
00000000
00000000
00000100
00000000
00000000
00001000
00000000
00000000
00000001
00000000
00000000
00000000
,  // measure 9
00000001
00000000
00000100
00000010
00000000
00000000
00000100
00000000
00000000
00000001
00000000
00000000
00001000
00000000
00000000
00000000
,  // measure 10
00000010
00000000
00001000
00000001
00000000
00000000
00001000
00000000
00000000
00000001
00000000
00000000
00000010
00000000
00000000
00000000
,  // measure 11
00000001
00000000
00000100
00001000
00000000
00000000
00010000
00000000
00000000
01000000
00000000
00000000
10000000
00000000
00000000
00000000
,  // measure 12
00010000
00000000
00100000
00010000
00000000
00000000
00100000
00000000
00000000
01000000
00000000
00000000
10000000
00000000
00000000
00000000
,  // measure 13
10000000
00000000
00100000
10000000
00000000
00000000
00100000
00000000
00000000
01000000
00000000
00000000
00010000
00000000
00000000
00000000
,  // measure 14
01000000
00000000
00100000
10000000
00000000
00000000
00010000
00000000
00000000
01000000
00000000
00000000
00100000
00000000
10000000
00000000
,  // measure 15
00100000
10000000
00100000
01000000
00100000
01000000
10010000
00000000
,  // measure 16
10000000
00000000
01000000
00010000
00000000
00000000
00001000
00000000
00000000
00000100
00000000
00000000
00000001
00000000
00000000
00000000
,  // measure 17
00001000
00000000
00000010
00000100
00000000
00000000
00000001
00000000
00000000
00000010
00000000
00000000
00000100
00000000
00000000
00000000
,  // measure 18
00001000
00000000
00000010
00000100
00000000
00000000
00001000
00000000
00000000
00010000
00000000
00000000
01000000
00000000
00000000
00000000
,  // measure 19
10000000
00000000
00010000
00100000
00000000
00000000
01000000
00000000
00000000
10000000
00000000
00000000
00100000
00000000
00000000
00000000
,  // measure 20
00010000
00000000
00001000
00000010
00000000
00000000
00000001
00000000
00000000
00000100
00000000
00000000
00000010
00000000
00000000
00000000
,  // measure 21
00001000
00000000
00000100
00000010
00000000
00000000
00000001
00000000
00000000
00000100
00000000
00000000
00000010
00000000
00000000
00000000
,  // measure 22
00001000
00000000
00000100
00000010
00000000
00000000
00001000
00000000
00000000
00010000
00000000
00000000
00100000
00000000
10000000
00000000
,  // measure 23
00100000
10000000
00010000
01000000
00010000
01000000
10100000
00000000
,  // measure 24
10000000
01000000
10000000
01000000
10000000
00100000
10000000
00100000
10000000
00000000
00000000
00000000
01010000
00000000
00000000
00000000
,  // measure 25
20100000
00000000
00000000
00010000
00000000
00010000
30010000
00000000
,  // measure 26
00100000
00001000
00100000
00001000
00010000
00001000
00010000
00001000
00010000
00000000
00000000
00000000
00010100
00000000
00000000
00000000
,  // measure 27
00000120
00000000
00000000
00000001
00000000
00000001
00000031
00000000
,  // measure 28
00001000
00000010
00001000
00000010
00001000
00000001
00001000
00000001
00001000
00000000
00000000
00000000
00000101
00000000
00000000
00000000
,  // measure 29
00010020
00000000
00000000
00000100
00000000
00000100
00000130
00000000
,  // measure 30
00010000
00001000
00010000
00001000
00100000
00001000
00100000
00001000
00100000
00000000
00000000
00000000
00110000
00000000
00000000
00000000
,  // measure 31
02100000
00000000
00000000
10000000
00000000
10000000
13000000
00000000
,  // measure 32
10000000
00010000
10000000
00010000
01000000
00010000
01000000
00010000
01000000
00000000
00000000
00000000
01001000
00000000
00000000
00000000
,  // measure 33
00021000
00000000
00000000
00000100
00000000
00000100
00030100
00000000
,  // measure 34
00000010
00000001
00000010
00000001
00000100
00000001
00000100
00000001
00000100
00000000
00000000
00000000
00001001
00000000
00000000
00000000
,  // measure 35
00000001
00000100
00001000
00010000
01000000
10000000
11000000
00000000
,  // measure 36
00100000
01000000
00100000
10000000
00100000
01000000
00010000
00100000
,  // measure 37
00020000
00000000
00000000
20030000
00000000
00000000
32000000
00000000
,  // measure 38
03010000
00001000
00000100
00000001
00001000
00000010
00000100
00000001
,  // measure 39
00000020
00000000
00000000
00002030
00000000
00000000
00023000
00000000
,  // measure 40
00130000
10000000
00010000
01000000
00010000
10000000
00100000
01000000
,  // measure 41
00020000
00000000
00000000
20030000
00000000
00000000
32000000
00000000
,  // measure 42
03010000
00001000
00000100
00000001
00001000
00000010
00000100
00000001
,  // measure 43
00000020
00000000
00000000
00002030
00000000
00000000
00023000
00000000
,  // measure 44
00230000
00000000
00000000
00000000
,  // measure 45
20300000
00000000
00000000
00000000
,  // measure 46
32000000
00000000
00000000
00000000
,  // measure 47
03020000
00000000
00000000
00000000
,  // measure 48
00032000
00000000
00000000
00000000
,  // measure 49
00003020
00000000
00000000
00000000
,  // measure 50
00000032
00000000
00000000
00000000
,  // measure 51
00002000
00000000
00003003
00001001
,  // measure 52
00000010
00001000
00000010
00001000
00000001
00000100
00000001
00000100
00000001
00000000
00000000
00000000
00000101
00000000
00000000
00000000
,  // measure 53
00000100
00001000
00000000
00010000
01000000
00000000
11000000
00000000
,  // measure 54
10000000
00100000
10000000
00100000
01000000
00010000
01000000
00010000
01000000
00000000
00000000
00000000
10010000
00000000
00000000
00000000
,  // measure 55
10000000
01000000
00010000
00001000
00000100
00000001
00000101
00000000
,  // measure 56
00000001
00000010
00000001
00000010
00000100
00001000
00000100
00001000
00000100
00000000
00000000
00000000
00001010
00000000
00000000
00000000
,  // measure 57
00000010
00000100
00000000
00001000
00010000
00000000
01010000
00000000
,  // measure 58
10000000
00010000
10000000
00010000
01000000
00100000
01000000
00100000
01000000
00000000
00000000
00000000
10010000
00000000
00000000
00000000
,  // measure 59
00100000
00010000
00000000
00001000
00000010
00000000
00000011
00000000
,  // measure 60
00001000
00000100
00001000
00000100
00000010
00000001
00000010
00000001
00000010
00000000
00000000
00000000
00000101
00000000
00000000
00000000
,  // measure 61
00000100
00001000
00000000
00010000
01000000
00000000
11000000
00000000
,  // measure 62
10000000
00010000
01000000
00100000
01000000
00010000
10000000
00100000
01000000
00000000
00000000
00000000
00110000
00000000
00000000
00000000
,  // measure 63
01000000
00100000
00000000
00010000
00001000
00000000
00001010
00000000
,  // measure 64
00000001
00000100
00000010
00001000
00000100
00000010
00000100
00001000
00000001
00000000
00000000
00000000
00000101
00000000
00000000
00000000
,  // measure 65
00000010
00010000
00000000
00001000
00100000
00000000
11000000
00000000
,  // measure 66
10000000
01000000
00100000
01000000
10000000
00010000
00100000
01000000
00100000
00000000
00000000
00000000
01010000
00000000
00000000
00000000
,  // measure 67
00100000
00010000
00001000
00000010
00000001
00000100
00001020
00000000
,  // measure 68
00000000
00000000
00000000
00000000
,  // measure 69
00000230
00000000
00000000
00000000
,  // measure 70
00000300
00000000
00000000
00000000
;
