#TITLE:Rain;
#SUBTITLE:;
#ARTIST:dj TAKA;
#TITLETRANSLIT:;
#SUBTITLETRANSLIT:;
#ARTISTTRANSLIT:;
#GENRE:;
#CREDIT:;
#BANNER:rain-bn.png;
#BACKGROUND:rain-bg.png;
#LYRICSPATH:;
#CDTITLE:;
#MUSIC:Rain.ogg;
#OFFSET:0.000000;
#SAMPLESTART:48.299999;
#SAMPLELENGTH:12.000000;
#SELECTABLE:YES;
#BPMS:0.000000=159.020004
;
#STOPS:124.000000=1.132000
;
#BGCHANGES:;
#KEYSOUNDS:;
#ATTACKS:;

//---------------dance-single - ----------------
#NOTES:
     dance-single:
     :
     Hard:
     7:
     0.436724,0.493039,0.179242,0.159326,0.000000,307.000000,289.000000,18.000000,16.000000,0.000000,0.000000,0.436724,0.493039,0.179242,0.159326,0.000000,307.000000,289.000000,18.000000,16.000000,0.000000,0.000000:
0000
0000
0000
0000
,
0000
0000
0000
0000
,
0000
0000
0000
0000
,
0000
0000
0000
0000
0000
0000
0010
0001
,
1000
0000
1000
0000
0110
0000
0010
0100
,
0001
0000
0001
0000
0110
0000
1000
0010
,
0100
0001
0010
0100
1000
0010
0100
0001
,
0010
0002
0000
2003
0000
3020
0000
0000
,
0130
0001
0010
0001
0100
0001
0000
0001
,
0100
0010
0100
0010
0100
0010
0100
0001
,
1000
0010
1000
0100
1000
0010
1000
0100
,
1000
0001
0100
0010
,
1000
0100
0010
0001
0010
0100
1000
0000
,
0001
0010
0100
1000
0100
0010
0001
0000
,
0100
0100
0011
0000
,
0010
0010
1100
0000
,
0010
0001
0000
1000
0100
0010
0000
0100
,
1000
0100
1000
0100
1000
0010
0000
0100
,
0001
0010
0001
0010
0001
0100
0000
0010
,
1000
1000
0010
0010
,
1000
0100
0010
0100
1000
0100
0010
0100
,
0010
0001
0100
0001
0010
0001
0100
0001
,
0010
0010
1001
0000
,
0100
0100
0110
0000
,
0200
1000
1300
0000
,
0020
0001
0031
0000
,
0200
0010
0310
0000
,
0002
1000
1003
0000
,
0002
0013
2000
3010
,
0002
0013
2000
3010
,
0002
0013
2000
3010
,
0000
0000
1001
0000
1000
0000
0001
1000
,
0000
0000
0100
1000
0100
0010
0100
1000
,
0100
0000
0010
0100
0010
0001
0010
0100
,
0000
0000
1000
0100
1000
0100
0010
0001
,
0010
0001
0100
0001
1000
0010
1000
0001
,
0100
0000
0010
1000
0001
0100
0001
1000
,
0010
0100
0100
1010
,
0000
0010
0010
0101
,
0000
0000
0010
0001
1000
0010
1000
0100
,
0000
0000
0010
0100
0010
0100
1000
0001
,
1000
0001
0100
0001
0000
1000
0010
1000
,
0000
0010
0100
0001
0010
0001
0100
0010
,
1000
0100
0010
0100
1000
0100
0010
0100
,
1000
0000
0010
0100
0001
0100
0010
0100
,
0001
0000
1000
0010
1000
0010
0100
0001
,
0000
0000
0001
0010
0001
0010
0200
2000
,
0000
3300
1001
0000
0000
0000
0000
0100
,
0001
0001
0010
0000
0000
0000
0000
0000
,
0000
0100
1000
0000
0000
0001
0010
0000
,
0000
0100
0001
0000
1010
0000
1001
0000
,
0100
0010
1000
0000
0000
0000
0000
0010
,
0100
0100
1000
0000
0000
0000
0000
0000
,
0000
0000
0101
0000
1000
0001
0101
0000
,
1000
0001
0101
0000
0110
0000
1010
0000
,
0001
1000
0010
0100
0001
1000
0010
0100
,
0001
1000
0001
0010
0001
0010
0001
0010
,
0001
0010
0200
0000
0000
0000
0000
0000
,
0300
1100
0000
0000
;

//---------------dance-single - ----------------
#NOTES:
     dance-single:
     :
     Medium:
     5:
     0.315807,0.435035,0.059747,0.099579,0.000000,222.000000,216.000000,6.000000,10.000000,0.000000,0.000000,0.315807,0.435035,0.059747,0.099579,0.000000,222.000000,216.000000,6.000000,10.000000,0.000000,0.000000:
0000
0000
0000
0000
,
0000
0000
0000
0000
,
0000
0000
0000
0000
,
0000
0000
0000
0000
0000
0000
0010
0100
,
1000
0000
0000
0000
0001
0000
0001
0100
,
0010
0000
0000
0000
1000
0000
1000
0100
,
0010
0000
0000
0001
1000
0000
0000
0010
,
0100
0000
0001
0000
1000
0010
0100
0001
,
1000
0000
1000
0000
1000
0100
0000
0000
,
0010
0000
0001
0000
0010
0100
0000
0000
,
0010
0001
0010
0000
,
0100
1000
0100
1000
,
0010
0100
0001
0010
,
0100
1000
0010
1000
,
0100
0000
0100
0000
1000
0001
0000
0000
,
0100
0000
0100
0000
1000
0001
0000
0000
,
0010
0000
0010
0000
0010
0001
0000
0000
,
0100
0000
0010
0000
1000
0100
1000
0000
,
0010
0100
0010
0100
,
0001
0010
0001
1000
,
0100
1000
0010
0100
,
0010
0000
1000
0000
0100
0010
0001
0000
,
0010
0000
0010
0000
0001
1000
0000
0000
,
0010
0000
0010
0000
0001
1000
0000
0000
,
0002
0010
0013
0000
,
0200
1000
1300
0000
,
0020
0100
0130
0000
,
0002
1000
1003
0000
,
0200
1300
2000
3010
,
0020
0130
0200
0301
,
0002
0013
0100
1000
,
0000
0000
0000
0000
0010
0000
1000
0100
,
0000
0000
0010
0000
0100
0000
1000
0001
,
1000
0000
0010
0000
0100
0001
0100
0000
,
0010
1000
0010
0000
1000
0000
0100
0000
,
0010
0100
1000
0010
,
0100
0000
0001
0000
0010
0000
0100
1000
,
0010
0000
1000
0000
1000
0000
0010
0100
,
0000
0000
1000
0000
1000
0000
0010
0100
,
0000
0001
1000
1001
,
0000
0000
0010
0000
0100
0000
1000
0001
,
0010
0000
0001
0100
0000
0000
0001
0010
,
0000
0000
0100
0000
1000
0000
0010
0100
,
0001
1000
0100
0001
,
0000
0001
0100
1000
,
0000
0000
0010
0000
0010
0000
0100
0001
,
0000
0000
0010
0000
0010
0000
0100
0001
,
0000
0000
1001
0000
0000
0000
0000
0001
,
0010
0100
1000
0000
0000
0000
0000
0000
,
0000
0010
0100
0000
0000
0001
1000
0000
,
0000
0100
1000
0000
0010
0000
0100
0000
,
0001
0010
0100
0000
0000
0000
0000
1000
,
0100
0010
0001
0000
0000
0000
0000
0000
,
0000
0000
0110
0000
1000
0001
1001
0000
,
0001
1000
1001
0000
0010
0000
0100
0000
,
0001
1000
1000
0000
0100
0000
0010
0000
,
0001
0100
0100
0100
,
0100
0020
0000
0000
,
0030
0110
0000
0000
;

//---------------dance-single - ----------------
#NOTES:
     dance-single:
     :
     Beginner:
     1:
     0.091043,0.261021,0.049789,0.000000,0.000000,64.000000,59.000000,5.000000,0.000000,0.000000,0.000000,0.091043,0.261021,0.049789,0.000000,0.000000,64.000000,59.000000,5.000000,0.000000,0.000000,0.000000:
0000
0000
0000
0000
,
0000
0000
0000
0000
,
0000
0000
0000
0000
,
0000
0000
0000
0000
,
0010
0000
0000
0001
,
0001
0000
0000
1000
,
1000
0000
0001
0000
,
1000
0000
0000
0000
,
0010
0000
0000
0000
,
0000
0000
0000
0000
,
0100
0000
0000
0000
,
1000
0000
0000
0000
,
0010
0000
0000
0000
,
0100
0000
0000
0000
,
0000
0000
0001
0000
,
0000
0000
1000
0000
,
0010
0000
0000
0000
,
0000
0000
0000
0000
,
0001
0000
0000
0000
,
1000
0000
0000
0000
,
0100
0000
0000
0000
,
0000
0000
0000
0000
,
0000
0000
0010
0000
,
0000
0000
0100
0000
,
1000
0000
0000
0000
,
1000
0000
0000
0000
,
1000
0000
0000
0000
,
1000
0000
0000
0000
,
0001
0000
0001
0000
,
0001
0000
0001
0000
,
0001
0000
0000
0000
,
0000
0000
0100
0000
,
0000
0000
0000
0000
,
0000
0010
0000
0000
,
0000
1000
0000
0100
,
0000
1000
0000
0000
,
0000
0001
0000
0000
,
0000
0000
0000
0010
,
0000
0000
0000
0001
,
0000
1000
0000
0000
,
0000
0000
0000
0000
,
0000
0100
0000
0000
,
0000
0010
0000
0000
,
0000
0100
0000
0000
,
0000
1000
0000
0000
,
0000
0000
0000
0001
,
0000
0000
0000
1000
,
0000
0001
0000
0000
,
0010
0000
0000
0000
,
0000
0100
0000
0100
,
0000
0100
0000
0000
,
0000
1000
0000
0000
,
0010
0000
0000
0000
,
0000
1001
0000
1001
,
0000
1001
0000
1001
,
0000
1000
0000
0000
,
0000
0100
0000
0000
,
0000
0010
0000
0000
,
0000
0110
0000
0000
;

//---------------dance-single - ----------------
#NOTES:
     dance-single:
     :
     Easy:
     3:
     0.250370,0.261021,0.059747,0.009958,0.000000,176.000000,170.000000,6.000000,1.000000,0.000000,0.000000,0.250370,0.261021,0.059747,0.009958,0.000000,176.000000,170.000000,6.000000,1.000000,0.000000,0.000000:
0000
0000
0000
0000
,
0000
0000
0000
0000
,
0000
0000
0000
0000
,
0000
0000
0000
0000
,
1000
0100
0000
0010
,
0001
0010
0000
0001
,
0100
0010
1000
0100
,
0010
0010
0010
0010
,
0001
0000
0000
0000
,
0100
1000
0100
0001
,
0100
0000
0010
0000
,
1000
0100
0010
0000
,
0001
1000
0010
0100
,
0001
0010
0100
1000
,
0010
0010
1000
0000
,
0010
0010
0100
0000
,
0100
0001
1000
0000
,
0010
1000
0001
0010
,
0001
0000
0100
0000
,
0010
1000
0100
0010
,
0100
1000
0010
0100
,
0001
0010
0100
1000
,
0100
0100
1000
0000
,
0100
0100
0001
0000
,
0100
1000
1000
0000
,
1000
0010
0010
0000
,
0010
0100
0100
0000
,
0100
0001
0001
0000
,
0001
0010
0010
0100
,
0100
1000
1000
0010
,
0010
0100
0100
0001
,
0000
0000
0010
0100
,
0000
1000
1000
0001
,
0001
0100
0001
0100
,
0010
0100
0100
0010
,
0010
1000
0100
0010
,
0001
0001
0010
0100
,
1000
0001
0001
0010
,
0000
1000
1000
0010
,
0000
0100
0001
1000
,
0000
0010
1000
0100
,
0000
1000
0010
0100
,
0010
0001
0010
0100
,
0010
1000
0001
0010
,
0000
0100
1000
0010
,
0100
0010
0010
1000
,
0000
0010
0010
0100
,
0000
1001
0000
0000
,
0010
0000
0000
0000
,
0000
1100
0000
0110
,
0000
0001
1000
0010
,
0100
0001
0000
0000
,
0000
1000
0000
0000
,
0000
1001
0000
0110
,
0000
0010
0100
0001
,
1000
0100
1000
0100
,
1000
0001
0010
0001
,
0010
0002
0000
0000
,
0003
0011
0000
0000
;

//---------------dance-double - ----------------
#NOTES:
     dance-double:
     :
     Easy:
     1:
     0.103846,0.203016,0.009958,0.039832,0.000000,73.000000,72.000000,1.000000,4.000000,0.000000,0.000000,0.103846,0.203016,0.009958,0.039832,0.000000,73.000000,72.000000,1.000000,4.000000,0.000000,0.000000:
00000000
00000000
00000000
00000000
,
00000000
00000000
00000000
00000000
,
00000000
00000000
00000000
00000000
,
00000000
00000000
00000000
00000000
,
00100000
00000000
00000000
00000000
,
00010000
00000000
00000000
00000000
,
00010000
00000000
00001000
00000000
,
00010000
00000000
00000000
00000000
,
00001000
00000000
00000000
00000000
,
00000010
00000000
00000000
00000000
,
00000100
00000000
00000000
00000000
,
00001000
00000000
00000000
00000000
,
00000100
00000000
00000000
00000000
,
00000010
00000000
00000000
00000000
,
00000001
00000001
00000001
00000000
,
00000001
00000001
00000001
00000000
,
00001000
00000000
00000000
00000000
,
00000000
00000000
00000000
00000000
,
00010000
00000000
00000000
00000000
,
00100000
00000000
00000000
00000000
,
01000000
00000000
00000000
00000000
,
00100000
00000000
00000000
00000000
,
00010000
00010000
00010000
00000000
,
00010000
00010000
00010000
00000000
,
20000000
00000000
30000000
00000000
,
00200000
00000000
00300000
00000000
,
02000000
00000000
03000000
00000000
,
00020000
00000000
00030000
00000000
,
00001000
00000000
00000000
00000000
,
00010000
00000000
00000000
00000000
,
00001000
00000000
00000000
00000000
,
00000000
00000000
00000100
00000000
,
00000000
00001000
00000000
00000000
,
00000000
00000010
00000000
00000000
,
00000000
00000100
00000000
00000000
,
00000000
00000001
00000000
00000000
,
00000000
00000010
00000000
00000000
,
00000000
00000100
00000100
00000100
,
00000000
00000100
00000100
00000100
,
00000000
00001000
00000000
00000000
,
00000000
00010000
00000000
00000000
,
00000000
00100000
00000000
00000000
,
00000000
01000000
00000000
00000000
,
00000000
10000000
00000000
00000000
,
00000000
00100000
00000000
00000000
,
00000000
01000000
01000000
01000000
,
00000000
01000000
01000000
01000000
,
00000000
00100000
00000000
00000000
,
00010000
00000000
00000000
00000000
,
00000000
10000000
00000000
10000000
,
00000000
00100000
00000000
00000000
,
00000000
01000000
00000000
00000000
,
00000000
00010000
00000000
00000000
,
00000000
00001000
00000000
00001000
,
00000000
00000100
00000000
00000010
,
00000000
00000000
00000000
00000000
,
00000000
00000000
00000000
00000000
,
00000000
00000010
00000000
00000000
,
00000000
00000110
00000000
00000000
;

//---------------dance-double - ----------------
#NOTES:
     dance-double:
     :
     Medium:
     5:
     0.325765,0.435035,0.049789,0.059747,0.000000,229.000000,224.000000,5.000000,6.000000,0.000000,0.000000,0.325765,0.435035,0.049789,0.059747,0.000000,229.000000,224.000000,5.000000,6.000000,0.000000,0.000000:
00000000
00000000
00000000
00000000
,
00000000
00000000
00000000
00000000
,
00000000
00000000
00000000
00000000
,
00000000
00000000
00000000
00000000
00000000
00000000
00100000
00010000
,
00001000
00000000
00001000
00000000
00001000
00000000
00001000
00010000
,
00100000
00000000
00100000
00000000
00100000
00000000
00100000
01000000
,
10000000
00000000
01000000
00100000
00010000
00000000
00100000
01000000
,
20000000
00000000
30020000
00000000
00130000
01000000
00100000
00000000
,
00010000
00000000
00001000
00000000
00000010
00000000
00000000
00000100
,
00001000
00000000
00000010
00000000
00000100
00000000
00000001
00000010
,
00000001
00001000
00000000
00000000
00000001
00001000
00000000
00000000
,
00000010
00001000
00000100
00001000
,
00010000
00100000
01000000
10000000
,
10000000
01000000
00010000
00000000
00001000
00000000
00000100
00000000
,
00000001
00000000
00000001
00000000
00000010
00000100
00000000
00000000
,
00000001
00000000
00000001
00000000
00000010
00000100
00000000
00000000
,
00001000
00000000
00000100
00000000
00000010
00000100
00000000
00000000
,
00001000
00000100
00001000
00010000
,
01000000
00010000
01000000
00010000
,
00100000
01000000
10000000
00010000
,
00100000
01000000
00100000
00000000
00010000
10000000
00000000
00000000
,
01000000
00000000
10000000
00000000
00100000
10000000
00100000
00000000
,
01000000
00000000
01000000
00000000
00010000
00100000
00000000
00000000
,
01000000
00000000
01000000
00000000
00010000
00100000
00000000
00000000
,
00020000
00000100
00030100
00000000
,
00002000
00000010
00003010
00000000
,
00000002
00000100
00000103
00000000
,
00002000
00000010
00003010
00000000
,
00010000
00001000
00010000
00001000
,
00010000
00100000
00010000
00100000
,
01000000
10000000
01000000
10000000
,
00000000
00000000
00100000
00001000
,
00000000
00010000
00001000
00000100
,
00000010
00000000
00001000
00000010
00000000
00000000
00001000
00000010
,
00000000
00000100
00000001
00000010
,
00000100
00001000
00010000
01000000
,
10000000
00000000
00100000
01000000
00010000
00000000
00100000
00000000
,
00000000
00000000
00010000
00000000
00010000
00000000
00100000
01000000
,
00000000
00000000
00010000
00000000
00010000
00000000
00100000
01000000
,
00000000
00000000
00100000
00000000
00010000
00000000
00001000
00000010
,
00000000
00000100
00000001
00000010
,
00000100
00000000
00001000
00000100
00000000
00000000
00001000
00000100
,
00000000
00000010
00000001
00000100
,
00000010
00000100
00000100
00000000
00000001
00000000
00000100
00000000
,
00000001
00000000
00000010
00000100
00001000
00000000
00000100
00000000
,
00000010
00000000
00000001
00000000
00000001
00000000
00001000
00000100
,
00000000
00000000
00000001
00000000
00000001
00000000
00001000
00000100
,
00000000
00000000
00011000
00000000
00000000
00000000
00000000
00010000
,
00100000
00100000
01000000
00000000
00000000
00000000
00000000
00000000
,
00000000
10000000
00010000
00000000
00000000
01000000
00100000
00000000
,
00000000
10000000
01000000
00000000
10000000
00000000
00100000
00000000
,
01000000
00010000
00100000
00000000
00000000
00000000
00000000
00001000
,
00000100
00000100
00000010
00000000
00000000
00000000
00000000
00000000
,
00000000
00000000
00001001
00000000
00000010
00000100
00000110
00000000
,
00000100
00000010
00000110
00000000
00001000
00000000
00000100
00000000
,
00010000
00001000
00010000
00000000
00001000
00000000
00100000
00000000
,
01000000
00000000
10000000
01000000
10000000
01000000
10000000
01000000
,
10000000
01000000
00100000
00000000
00000000
00000000
00000000
00000000
,
00000000
00011000
00000000
00000000
;

//---------------dance-double - ----------------
#NOTES:
     dance-double:
     :
     Hard:
     7:
     0.462330,0.522042,0.408273,0.009958,0.000000,325.000000,284.000000,41.000000,1.000000,0.000000,0.000000,0.462330,0.522042,0.408273,0.009958,0.000000,325.000000,284.000000,41.000000,1.000000,0.000000,0.000000:
00000000
00000000
00000000
00000000
,
00000000
00000000
00000000
00000000
,
00000000
00000000
00000000
00000000
,
00000000
00000000
00000000
00000000
00000000
00000000
00000100
00000001
,
00000100
00000000
00000001
00000000
00001000
00000000
00000100
00001000
,
00000100
00000000
00001000
00000000
00000001
00000000
00000100
00000001
,
00000100
00000000
00000010
00001000
00000010
00000000
00001000
00000100
,
00001000
00011000
00110000
01000000
,
10000000
01000000
10000000
01000000
00100000
00010000
00000000
01000000
,
00010000
00000000
00100000
00000000
01000000
00000000
10000000
01000000
,
00010000
01000000
00000000
10000000
01000000
00000000
00010000
00001000
,
00000100
00000001
00000010
00000100
00001000
00000010
00000100
00000001
,
00000010
00000000
00000100
00000000
00001000
00000010
00000000
00000000
,
00000100
00000000
00000001
00000000
00000010
00000100
00000000
00000000
,
00001010
00000101
00001010
00000000
,
00000101
00001010
00000101
00000000
,
00001100
00000000
00001000
00010000
00100000
01000000
00000000
10000000
,
00100000
01000000
00010000
00100000
00010000
10000000
01000000
00100000
,
01000000
10000000
00100000
00000000
01000000
00010000
00100000
01000000
,
10000000
00010000
00100000
01000000
00100000
00010000
10000000
01000000
,
00100000
01000000
10000000
01000000
00100000
00010000
00000000
00000000
,
01000000
00010000
00100000
00010000
01000000
00100000
00000000
00000000
,
11000000
00110000
11000000
00000000
,
00110000
11000000
00110000
00000000
,
00010000
00001000
00000100
00000000
,
00000100
00001000
00010000
00000000
,
00100000
00010000
00001000
00000000
,
00001000
00010000
00100000
00000000
,
00011000
00001000
00011000
00010000
,
00011000
00001000
00011000
00010000
,
00011000
00000000
00001000
00000000
00010000
00000000
00001000
00000100
,
00000020
00000030
00001001
00000000
00000010
00000000
00000100
00001000
,
00000000
00000010
00000100
00000001
00000100
00000001
00000010
00000001
,
00000100
00000010
00001000
00000100
00001000
00000000
00000100
00001000
,
00000000
00000000
00000010
00000100
00000001
00001000
00000100
00010000
,
00001000
00100000
00010000
01000000
00010000
01000000
00100000
10000000
,
00100000
10000000
01000000
00100000
01000000
00100000
00010000
10000000
,
00010000
10000000
10010000
00000000
01100000
00000000
10010000
00000000
,
00000000
01100000
10010000
01100000
,
00000000
00000000
01000000
00010000
00100000
01000000
10000000
01000000
,
00000000
10000000
00100000
00010000
00001000
00000010
00000001
00000010
,
00000100
00001000
00000010
00000100
00000000
00000010
00000100
00000000
,
00000001
00000010
00000100
00000010
00000001
00001000
00000100
00000010
,
00000100
00001000
00000010
00000100
00000010
00000100
00000001
00000010
,
00000001
00000010
00000100
00001000
00000100
00001000
00000010
00001000
,
00000010
00001000
00001100
00000000
00000011
00000000
00001100
00000000
,
00000000
00000011
00001100
00000011
,
00000100
00000000
00001001
00000000
00000000
00000000
00000000
00000100
,
00010000
00010000
00000100
00000000
00000000
00000000
00000000
00000000
,
00000000
00010000
00100000
00000000
00000000
01000000
10000000
00000000
,
00000000
00100000
01000000
00000000
00110000
00000000
11000000
00000000
,
00100000
01000000
00010000
00000000
00000000
00000000
00000000
00100000
,
00001000
00001000
00100000
00000000
00000000
00000000
00000000
00000000
,
00000000
00000000
00011000
00000000
00001000
00000100
00001100
00000000
,
00000010
00000001
00000011
00000000
00000100
00000000
00001001
00000000
,
00000100
00000001
00000100
00000001
00001000
00000010
00000100
00000001
,
00001000
00000010
00001000
00000100
00001000
00000100
00001000
00000100
,
00001000
00000100
00001000
00000000
00000000
00000000
00000000
00000000
,
00000000
00011000
00000000
00000000
;

//---------------dance-single - ----------------
#NOTES:
     dance-single:
     :
     Challenge:
     9:
     0.596050,0.696056,0.169284,0.159326,0.263884,419.000000,402.000000,17.000000,16.000000,0.000000,0.000000,0.596050,0.696056,0.169284,0.159326,0.263884,419.000000,402.000000,17.000000,16.000000,0.000000,0.000000:
0000
0000
0000
0000
,
0000
0000
0000
0000
,
0000
0000
0000
0000
,
0000
0000
0000
0000
,
1000
0000
0100
0000
0010
0000
0100
0010
0000
0000
0010
0000
0001
0000
1000
0000
,
0001
0000
0100
0000
0010
0000
0100
0010
0000
0000
1000
0000
0001
0000
0100
0000
,
0001
0000
0010
0000
0001
0000
0010
0100
0000
0000
1000
0000
0010
0000
1000
0000
,
0010
0000
0100
0000
0001
0000
1000
0000
0010
0000
0100
0000
0001
1000
0001
1000
,
0002
0000
0023
0000
0100
0130
0000
1000
,
0010
0100
0010
0001
0010
0100
0010
1000
,
0001
0100
0000
1000
0100
0000
0001
1000
,
0010
0001
0010
1000
0100
0001
0100
1000
,
0001
0010
0100
0001
0100
0001
0100
1000
,
0010
0100
1000
0100
1000
0100
0001
0010
,
0001
0010
0001
0000
0010
0001
0010
0000
0100
0000
2000
0000
0000
0000
3000
0000
,
1000
0010
1000
0000
0010
1000
0010
0000
0100
0000
0002
0000
0000
0000
0003
0000
,
0101
0000
1000
0000
0100
0010
0000
0001
,
0100
0010
0100
1000
0100
0010
0100
0001
,
1000
0100
0000
0001
0100
0000
1000
0010
,
0100
1000
0100
0001
0010
0100
0001
0100
,
1000
0010
0001
0010
1000
0100
0010
0001
,
0100
1000
0100
0001
0010
0100
1000
0010
,
1000
0100
1000
0000
0100
1000
0100
0000
0010
0000
0002
0000
0000
0000
0003
0000
,
0001
0100
0001
0000
0100
0001
0100
0000
0010
0000
2000
0000
0000
0000
3000
0000
,
1100
0001
0100
0000
,
0101
1000
0100
0000
,
1010
0001
0010
0000
,
0011
1000
0010
0000
,
1020
0130
0201
0310
,
0210
0301
0021
0130
,
1200
0310
0001
1100
,
0010
0000
1100
0000
0010
0000
0001
1000
,
0000
0000
0000
0000
0100
0010
0000
0100
1000
0000
0100
0010
0000
0100
1000
0000
,
0001
0100
0010
0000
1000
0100
1000
0100
1000
0000
0001
0100
0001
0100
0001
0000
,
1000
0100
0010
0001
0010
0001
0100
0010
,
1000
0001
1000
0000
0001
0000
0010
0000
1000
0000
0010
0000
0001
0000
0100
0000
,
1000
0100
0001
0010
0100
0001
0100
1000
,
0010
0000
0100
0000
0001
0010
0001
0000
0010
0001
0010
0000
0100
0000
2000
0000
,
0010
0000
3010
0000
1000
0010
1000
0000
0010
1000
0010
0000
0100
0000
0001
0000
,
1000
0001
1000
0001
1000
0000
0100
0000
0000
0000
0010
0000
0001
0000
1000
0000
,
0000
0000
0000
0000
0001
0100
0000
0010
0100
0000
0001
0100
0000
0010
0100
0000
,
0001
0010
0100
0000
1000
0010
1000
0010
1000
0000
0001
0100
0001
0100
0001
0000
,
1000
0100
0010
1000
0010
0001
0100
0010
,
0001
0000
0010
0000
1000
0100
1000
0000
0100
0010
0100
0000
0010
0001
0010
0000
,
0001
0100
0001
0000
0100
0000
0010
0000
1000
0000
0001
0000
1000
0000
0010
0000
,
0100
0000
0001
0000
1000
0010
1000
0000
0010
1000
0010
0000
0100
0000
0002
0000
,
1000
0000
1003
0000
0001
0010
0001
0000
0010
0001
0010
0000
0100
0000
1000
0000
,
0010
0000
0100
0000
0001
0000
0000
0010
0200
0000
0000
0000
0000
0000
1000
0000
,
1000
1000
1300
0010
0001
0010
1000
0010
,
0001
0010
1000
0100
0000
0010
0001
0000
,
0000
0100
0010
1000
0010
0100
0001
0010
,
0001
0001
1000
0100
0020
0000
0000
0001
,
0001
0000
0001
0000
0031
0000
1000
0000
0010
0000
0000
0000
0000
0000
0100
0010
,
0100
0010
0100
0000
1001
0000
0000
0000
0010
0000
0100
0000
1001
0000
0000
0000
,
0010
0100
0011
0000
0100
0010
1100
0000
,
1000
0001
0010
1000
0010
0001
1000
0100
,
0001
0000
0100
0000
1000
0000
0010
0100
0001
0000
0010
0100
1000
0000
0010
0100
,
0001
0000
0010
0100
2000
0000
0000
0000
0000
0000
0000
0000
0000
0000
0000
0000
,
0000
3000
0110
0000
0000
0000
0000
0000
;

//---------------dance-double - ----------------
#NOTES:
     dance-double:
     :
     Challenge:
     10:
     0.678558,0.841067,0.159326,0.079663,0.537725,477.000000,461.000000,16.000000,8.000000,0.000000,0.000000,0.678558,0.841067,0.159326,0.079663,0.537725,477.000000,461.000000,16.000000,8.000000,0.000000,0.000000:
// measure 0
00000000
00000000
00000000
00000000
,  // measure 1
00000000
00000000
00000000
00000000
,  // measure 2
00000000
00000000
00000000
00000000
,  // measure 3
00000000
00000000
00000000
00000000
,  // measure 4
10000000
00000000
00010000
00000000
01000000
00000000
00010000
00100000
00000000
00000000
01000000
00000000
10000000
00000000
01000000
00000000
,  // measure 5
10000000
00000000
00100000
00000000
00010000
00000000
00001000
00000010
00000000
00000000
00000001
00000000
00000100
00000000
00000001
00000000
,  // measure 6
00001000
00000000
00000010
00001000
00000010
00000000
00000100
00000001
00000100
00000000
00000010
00000100
00000010
00000000
00000100
00010000
,  // measure 7
00000100
00000000
00010000
00000000
00001000
00000000
01000000
00000000
00100000
00000000
10000000
00000000
00010000
10000000
00010000
10000000
,  // measure 8
00010000
00000000
10000000
00000000
00100000
01000000
00000000
00000000
,  // measure 9
00010000
00100000
00000000
00010000
10000000
00000000
01000000
00100000
00000000
01000000
10000000
00000000
00100000
01000000
00010000
01000000
,  // measure 10
00100000
00000000
00010000
00000000
00001000
00000000
00000010
00000000
00000001
00000000
00001000
00000000
00000010
00000100
00000010
00000100
,  // measure 11
00000010
00000001
00000010
00001000
00000100
00000010
00000001
00000100
,  // measure 12
00000010
00001000
00000010
00000000
00000100
00000000
00000100
00000000
00001000
00000000
00001000
00000000
00010000
00000000
00010000
00000000
,  // measure 13
01000000
10000000
00100000
00010000
00100000
10000000
01000000
00100000
,  // measure 14
00010000
01000000
00100000
00000000
10000000
01000000
00010000
00000000
00001000
00000000
00000200
00000000
00000000
00000000
00000300
00000000
,  // measure 15
00000001
00000010
00000100
00000000
00001000
00000010
00000100
00000000
00001000
00000000
00020000
00000000
00000000
00000000
00030000
00000000
,  // measure 16
01010000
00000000
10000000
00000000
00100000
01000000
00000000
00000000
,  // measure 17
00001000
00010000
00000000
00001000
01000000
00000000
00100000
01000000
00000000
00001000
00010000
00000000
00000100
00001000
00000100
00001000
,  // measure 18
00000100
00000000
00000010
00000000
00000001
00000000
00000100
00000000
00001000
00000000
00010000
00000000
00100000
01000000
00100000
01000000
,  // measure 19
00100000
10000000
00010000
01000000
00010000
10000000
00100000
00010000
,  // measure 20
00001000
00010000
00001000
00000000
00010000
00000100
00010000
00000000
00001000
00000000
00000100
00000000
00000001
00000000
00000010
00000000
,  // measure 21
00000100
00001000
00000100
00000000
00001000
00000010
00001000
00000000
00000010
00000000
00000100
00000000
00001000
00000000
00010000
00000000
,  // measure 22
01000000
10000000
01000000
00000000
10000000
01000000
10000000
00000000
00100000
00000000
00020000
00000000
00000000
00000000
00030000
00000000
,  // measure 23
00001000
00000010
00001000
00000000
00000010
00001000
00000010
00000000
00000001
00000000
00002000
00000000
00000000
00000000
00003000
00000000
,  // measure 24
00000101
00001000
00010000
00000000
,  // measure 25
10100000
00010000
00001000
00000000
,  // measure 26
00000110
00001000
00100000
00000000
,  // measure 27
01100000
00010000
00000100
00000000
,  // measure 28
00000001
00000010
00001000
00010000
,  // measure 29
10000000
01000000
00100000
00010000
,  // measure 30
00000010
00000100
00001000
00010000
,  // measure 31
11000000
00000000
00000010
00000000
00000101
00000000
00000010
00001000
,  // measure 32
00000000
00000000
00000000
00000000
00000001
00000100
00000000
00000010
00001000
00000000
00000001
00000100
00000000
00001000
00010000
00000000
,  // measure 33
01000000
10000000
01000000
10000000
01000000
00100000
00010000
00100000
01000000
00000000
01000000
10000000
00010000
10000000
01000000
00000000
,  // measure 34
00100000
00010000
01000000
00100000
00010000
00001000
00000100
00000001
,  // measure 35
00000010
00000100
00000010
00000100
00000010
00000000
00000100
00000000
00001000
00000000
00000010
00000000
00000100
00000000
00000001
00000000
,  // measure 36
00000100
00001000
00010000
01000000
10000000
00100000
01000000
00010000
,  // measure 37
10000000
00000000
00100000
00000000
01000000
00010000
01000000
00000000
00100000
10000000
00100000
00000000
10000000
00000000
01000000
00000000
,  // measure 38
00010000
00001000
00010000
00001000
00000100
00000001
00000100
00000000
00000001
00000010
00000001
00000000
00000010
00000000
00000100
00000000
,  // measure 39
00010000
00001000
00010000
00001000
00010000
00000000
00001000
00000000
00000000
00000000
00000100
00000000
00000001
00000000
00000100
00000000
,  // measure 40
00000000
00000000
00000000
00000000
00000001
00000010
00000000
00000100
00001000
00000000
00000010
00000100
00000000
00001000
00010000
00000000
,  // measure 41
01000000
10000000
01000000
10000000
01000000
00100000
00001000
00010000
00001000
00000000
00001000
00010000
00001000
00100000
01000000
00000000
,  // measure 42
10000000
00010000
10000000
00010000
10000000
00000000
01000000
00000000
00010000
00000000
00001000
00000000
00000100
00000000
00000001
00000000
,  // measure 43
00001000
00000010
00001000
00000010
00001000
00000000
00000001
00000000
00000100
00000000
00001000
00000000
00010000
00000000
01000000
00000000
,  // measure 44
10000000
00100000
01000000
00010000
00100000
01000000
00010000
00001000
,  // measure 45
00000100
00000000
00000001
00000000
00001000
00000010
00001000
00000000
00000010
00010000
00000010
00000000
00010000
00000000
00001000
00000000
,  // measure 46
01000000
00100000
01000000
00100000
01000000
00010000
01000000
00000000
00001000
00010000
00001000
00000000
00010000
00000000
00000100
00000000
,  // measure 47
00001000
00000010
00001000
00000010
00001000
00000000
00000100
00000010
00000002
00000000
00000000
00000000
00000000
00000000
00000103
00000000
,  // measure 48
00001000
00000000
00010000
00000000
01000000
00000000
10000000
00100000
10000000
00100000
01000000
00010000
01000000
00010000
10000000
00100000
,  // measure 49
10000000
00100000
01000000
00010000
00100000
00000000
01000000
00000000
10000000
00000000
01000000
00000000
00010000
00000000
00001000
00000000
,  // measure 50
00000010
00000001
00001000
00000010
00000100
00000001
00000010
00000000
,  // measure 51
00000100
00000000
00001100
00000000
00001001
00000000
00000010
00000100
00000002
00000000
00000000
00000000
00000003
00000000
00000100
00000000
,  // measure 52
00001000
00000000
00010000
00000000
01000000
10000000
01000000
10000000
02000000
00000000
00000000
00000000
03000000
00000000
00100000
00010000
,  // measure 53
00100000
00010000
00100000
00000000
01010000
00000000
00000000
00000000
00110000
00000000
00101000
00000000
00011000
00000000
00000000
00000000
,  // measure 54
00010100
00000000
00001100
00000000
00001010
00000000
00000010
00000100
00000001
00000000
00000010
00000100
00001000
00000000
00000001
00001000
,  // measure 55
00000001
00001000
00000001
00000000
00000010
00000000
00000100
00010000
00000100
00010000
00000100
00000000
00010000
00000000
00001000
00100000
,  // measure 56
00001000
00100000
00001000
00000000
00100000
01000000
10000000
00100000
01000000
00010000
00100000
01000000
10000000
00100000
01000000
00001000
,  // measure 57
00010000
00000010
00000100
00000001
00000020
00000000
00000000
00000000
00000000
00000000
00000000
00000000
00000000
00000000
00000000
00000000
,  // measure 58
00000030
00100000
00000000
00000000
;
