#TITLE:Rabiosa;
#SUBTITLE:;
#ARTIST:Shakira feat. Pitbull;
#TITLETRANSLIT:;
#SUBTITLETRANSLIT:;
#ARTISTTRANSLIT:;
#GENRE:Pop;
#CREDIT:;
#BANNER:rabiosa-bn.png;
#BACKGROUND:rabiosa-bg.png;
#LYRICSPATH:;
#CDTITLE:;
#MUSIC:Rabiosa.ogg;
#OFFSET:0.000000;
#SAMPLESTART:43.020000;
#SAMPLELENGTH:12.000000;
#SELECTABLE:YES;
#BPMS:0.000000=133.000000
;
#STOPS:
;
#BGCHANGES:;
#KEYSOUNDS:;
#ATTACKS:;

//---------------dance-single - ----------------
#NOTES:
     dance-single:
     :
     Hard:
     8:
     0.474139,0.543714,0.041229,0.123688,0.252530,322.000000,318.000000,4.000000,12.000000,0.000000,0.000000,0.474139,0.543714,0.041229,0.123688,0.252530,322.000000,318.000000,4.000000,12.000000,0.000000,0.000000:
0000
0000
0000
0000
,
0000
0000
0000
0000
,
0000
0000
0000
0000
,
2000
0000
0000
0000
0000
0000
3000
0001
,
0100
0000
0000
0001
0010
0000
0001
0000
1000
0000
0001
0000
1000
0000
0000
0000
,
0100
0000
0000
0010
1000
0000
0010
0000
0100
0000
0002
0000
0000
0000
0003
0000
,
1000
0000
0000
0100
0010
0000
0100
0000
1000
0000
0010
0000
0100
0000
0000
0000
,
0001
0000
0000
1000
0100
0000
1000
0000
0001
0000
0001
0000
0001
0000
0000
0000
,
0100
0000
0000
0010
1000
0000
0010
0000
0100
0000
0001
0000
0100
0000
0000
0000
,
0001
0000
0000
0010
0001
0000
0010
0000
0100
0000
2000
0000
0000
0000
3000
0000
,
1000
0000
0000
0100
0010
0000
0100
0000
1000
0000
0001
0000
0010
0000
0000
0000
,
0100
0010
0100
1000
0100
0010
0100
1000
,
0001
0000
0000
0100
0000
0000
1000
0000
0000
0000
0000
0000
0000
0000
0000
0100
,
0001
0000
0000
0010
0000
0000
0100
0000
0000
0000
1000
0000
0010
0000
0000
0000
,
0100
0000
0000
0010
0000
0000
1000
0000
0000
0000
0010
0000
0100
0000
0000
0000
,
0010
0000
0000
1000
0000
0000
0001
0000
0100
0000
0001
0000
0100
0000
0000
0000
,
0010
0000
0000
1000
0000
0000
0100
0000
0001
0000
0100
0000
1000
0000
0000
0000
,
0001
0000
0000
1000
0000
0000
0100
0000
0000
0000
0010
0000
0001
0000
0000
0000
,
0100
0000
0000
1000
0000
0000
0100
0000
0001
0000
1000
0000
0010
0000
0000
0000
,
0100
0000
0000
0001
0000
0000
1000
0000
0010
0000
1000
0000
0010
0000
0100
0000
,
0001
0000
0100
0010
0000
0010
0100
0000
0001
0000
0000
0000
1001
0000
0000
0000
,
1000
0000
0010
0100
0000
0100
0010
0000
1000
0000
0000
0000
1001
0000
0000
0000
,
0001
0100
1000
0100
1000
0100
0001
0000
,
1000
0100
0001
0100
0001
0100
1000
0000
,
0010
0000
1000
0001
0000
0001
1000
0000
0010
0000
0000
0000
0110
0000
0000
0000
,
0100
0000
0001
1000
0000
1000
0001
0000
0100
0000
0000
0000
0110
0000
0000
0000
,
1000
0010
0001
0010
0001
0010
1000
0000
,
0001
0010
1000
0010
1000
0010
0001
0000
,
0200
0000
0000
0000
0310
0000
0100
0010
,
1000
0000
0100
0001
0100
0000
1000
0010
,
1000
0000
0100
0001
0100
0000
1000
0010
,
1000
0000
0100
0001
0100
1000
0010
0100
,
0001
0000
0000
0001
0010
0000
0001
0000
2000
0000
0000
0000
3010
0000
0010
0000
,
1000
0000
0000
0010
0000
0000
0001
0000
0000
0000
0000
0000
0000
0000
0000
0010
,
1000
0000
0000
0100
0000
0000
0010
0000
0100
0000
1000
0000
0010
0000
0100
0000
,
0001
0000
0000
0010
0000
0000
0100
0000
0000
0000
1000
0000
0001
0000
0000
0000
,
0010
0000
0000
0100
0000
0000
0010
0000
1000
0000
0010
0000
1000
0000
0001
0000
,
0100
0000
0000
0010
0000
0000
1000
0000
0010
0000
0100
0000
0001
0000
0010
0000
,
0100
0000
0000
1000
0000
0000
0010
0000
0000
0000
0100
0000
0001
0000
0000
0000
,
0001
0000
0000
0010
0000
0000
0100
0000
0010
0000
0001
0000
0100
0000
0010
0000
,
1000
0000
0000
0010
0000
0000
0100
0000
0010
0000
0100
0000
0010
0000
1000
0000
,
0001
0000
0100
0010
0000
0010
0100
0000
0001
0000
1000
0100
0000
0100
1000
0000
,
0010
0000
0100
0001
0000
0001
0100
0000
0010
0000
1000
0000
0100
0000
0000
0000
,
1000
0000
0000
0001
0000
0000
0100
0000
0000
0000
0001
0000
0010
0000
0001
0000
,
1000
0000
0000
0010
0000
0000
0100
0000
0010
0000
0100
0000
0010
0000
1000
0000
,
0001
0000
0000
0010
0000
0000
0100
0000
1000
0000
0010
0000
0100
0000
0001
0000
,
0010
0000
0000
0001
0000
0000
0100
0000
0000
0000
0010
0000
1000
0000
0100
0000
,
1000
0000
0000
0001
0000
0000
0100
0000
0010
0000
1000
0000
0100
0000
1000
0000
,
0010
0000
0000
0100
0000
0000
0001
0000
1000
0000
0001
0000
1000
0000
0010
0000
,
0200
0000
0000
0000
0000
0301
0010
0100
,
2000
0000
0000
3020
0000
0000
0130
0000
0010
0000
0100
0000
0010
0000
0100
0000
,
0020
0000
0000
2030
0000
0000
3001
0000
0100
0000
0001
0000
0010
0000
0100
0000
,
2000
0000
0000
3002
0000
0000
0103
0000
0010
0000
0100
0000
0010
0000
0000
0000
;

//---------------dance-single - ----------------
#NOTES:
     dance-single:
     :
     Medium:
     6:
     0.360758,0.434971,0.175225,0.206147,0.103074,245.000000,228.000000,17.000000,20.000000,0.000000,0.000000,0.360758,0.434971,0.175225,0.206147,0.103074,245.000000,228.000000,17.000000,20.000000,0.000000,0.000000:
0000
0000
0000
0000
,
0000
0000
0000
0000
,
0000
0000
0000
0000
,
2000
0000
0000
0000
0000
0000
3000
0001
,
0010
0000
0000
1000
0000
0100
0010
0000
,
0001
0000
0000
0100
0000
0010
1000
0000
,
0001
0000
0000
0010
0000
0001
1000
0000
,
0010
0000
0000
0000
0100
0100
0100
0000
,
0010
0000
0000
0100
0000
0001
1000
0000
,
0010
0000
0000
1000
0000
0010
0100
0000
,
0010
0000
0000
1000
0000
0100
1000
0000
,
0010
0100
0010
0100
0010
0100
0010
0000
,
2002
0000
0000
3003
0000
0010
0010
0000
,
1000
0000
0000
0010
0000
0000
0100
0000
0000
0000
0000
0000
0000
0000
0000
0000
,
0010
0000
0000
0100
0000
0000
0001
0000
0000
0000
0000
0000
0000
0000
0000
0000
,
0100
0000
0000
0001
0000
0000
1000
0000
0001
0000
0000
0000
0001
0000
0000
0000
,
0001
0000
0000
0100
0000
0000
0010
0000
0000
0000
0000
0000
0000
0000
0000
0000
,
0100
0000
0000
0010
0000
0000
1000
0000
0000
0000
0000
0000
0000
0000
0000
0000
,
0010
0000
0000
1000
0000
0000
0001
0000
0000
0000
0000
0000
0000
0000
0000
0000
,
0100
0000
0000
0010
0000
0000
1000
0000
0001
0000
0000
0000
0001
0000
0000
0000
,
2020
0000
3030
1000
0010
1000
0010
0000
,
0202
0000
0303
0001
0010
0001
0010
0000
,
0001
0000
1000
0001
1001
0000
0110
0000
,
1000
0000
0001
1000
1001
0000
0110
0000
,
2002
0000
3003
1000
0100
1000
0100
0000
,
0202
0000
0303
0001
0100
0001
0100
0000
,
0001
0000
1000
0001
1001
0000
0110
0000
,
1000
0000
0001
1000
1001
0000
0110
0000
,
0020
0000
0000
0000
0130
0000
0100
0100
,
0100
0000
0010
1000
0010
0000
0100
0001
,
0100
0000
0010
1000
0010
0000
0100
0001
,
0100
0000
0001
0010
0001
0000
1000
0000
,
2002
0000
3003
0010
,
0220
0000
0000
0330
0000
1000
1000
0000
,
0001
0000
0000
0100
0000
0000
0010
0000
0000
0000
0010
0000
1000
0000
0000
0000
,
0001
0000
0000
0010
0000
0000
0100
0000
0000
0000
0100
0000
1000
0000
0000
0000
,
0001
0000
0000
1000
0000
0000
0001
0000
0100
0000
0000
0000
1001
0000
0000
0000
,
1000
0000
0000
0010
0000
0000
0100
0000
0000
0000
0100
0000
0001
0000
0000
0000
,
1000
0000
0000
0100
0000
0000
0010
0000
0000
0000
0010
0000
0001
0000
0000
0000
,
1000
0000
0000
0010
0000
0000
0100
0000
0000
0000
0100
0000
0001
0000
0000
0000
,
1000
0000
0000
0001
0000
0000
1000
0000
0010
0000
0000
0000
1001
0000
0000
0000
,
0010
0000
0000
1000
0010
0000
0000
0001
,
0100
0000
0000
0010
0100
0010
1000
0000
,
0010
0000
0000
1000
0000
0000
0001
0000
0000
0000
0001
0000
1000
0000
0000
0000
,
0010
0000
0000
0100
0000
0000
0001
0000
1000
0000
0001
0000
1000
0000
0000
0000
,
0001
0000
0000
0100
0000
0000
0010
0000
0000
0000
0010
0000
1000
0000
0000
0000
,
0001
0000
0000
0010
0000
0000
0100
0000
0000
0000
0100
0000
1000
0000
0000
0000
,
0001
0000
0000
0100
0000
0000
0010
0000
0000
0000
0010
0000
1000
0000
0000
0000
,
0001
0000
0000
1000
0000
0000
0001
0000
1000
0000
0001
0000
1000
0000
0000
0000
,
0020
0000
0000
0000
0000
1030
0100
0010
,
0002
0000
0000
0103
0010
0100
0010
0100
,
0020
0000
0000
1030
0100
0010
0001
1000
,
0200
0000
0000
1300
0001
1000
0001
0000
;

//---------------dance-single - ----------------
#NOTES:
     dance-single:
     :
     Easy:
     3:
     0.216455,0.299042,0.041229,0.288606,0.000000,147.000000,143.000000,4.000000,28.000000,0.000000,0.000000,0.216455,0.299042,0.041229,0.288606,0.000000,147.000000,143.000000,4.000000,28.000000,0.000000,0.000000:
0000
0000
0000
0000
,
0000
0000
0000
0000
,
0000
0000
0000
0000
,
2000
0000
0000
3000
,
0010
1000
0000
0000
,
0010
0100
0000
0000
,
0010
0001
0000
0000
,
0010
0100
1000
1000
,
0100
0010
0000
0000
,
0100
1000
0000
0000
,
0100
0001
0000
0000
,
0000
1000
0000
0001
0000
1000
0000
0000
,
0200
0000
0000
0300
0000
0000
1000
0000
,
0001
0000
0000
0010
0000
1000
0000
0000
,
0010
0000
0000
0001
0000
0100
0000
0000
,
0010
0000
0010
0010
,
0100
0000
0000
0010
0000
0000
0000
0000
,
0100
0000
0000
0001
0000
1000
0000
0000
,
0010
0000
0000
1000
0000
0000
0000
0000
,
0100
0000
0001
0001
,
0100
0100
0100
1001
,
0100
0100
0100
1001
,
0002
0023
0230
2300
,
3002
0203
0320
1030
,
0010
0010
0010
1001
,
0010
0010
0010
1001
,
2000
3200
0320
0032
,
2003
3020
0230
0302
,
2003
0000
3010
0010
,
0010
1000
0001
0100
,
0100
0001
1000
0001
,
1000
0100
0010
0010
,
0200
0000
0300
1000
,
0002
0000
0000
0003
0000
0000
0010
0000
,
1000
0000
0000
0010
0000
1000
0000
0000
,
0010
0000
0000
0100
0000
0001
0000
0000
,
1000
0000
1000
1000
,
0010
0000
0000
0100
0000
0000
0000
0000
,
0010
0000
0000
1000
0000
0100
0000
0000
,
0001
0000
0000
0100
0000
0000
0000
0000
,
1000
0000
1000
1000
,
0020
0030
2000
3000
,
0002
0003
0010
0001
,
0001
0000
0000
0100
0000
0010
0000
0000
,
0100
0000
1000
1000
,
0010
0000
0000
1000
0000
0000
0000
0000
,
0100
0000
0000
0010
0000
0001
0000
0000
,
0010
0000
0000
0100
0000
0000
0000
0000
,
1000
0000
0000
0001
1000
0000
1000
0000
,
0020
0000
0000
0000
0000
0030
0001
0000
,
2000
0000
0000
3020
0000
0000
0000
0000
,
0230
0000
0000
0300
0001
0000
0001
0000
,
0020
0000
0130
0100
;

//---------------dance-single - ----------------
#NOTES:
     dance-single:
     :
     Beginner:
     1:
     0.085404,0.108227,0.020615,0.010307,0.000000,58.000000,56.000000,2.000000,1.000000,0.000000,0.000000,0.085404,0.108227,0.020615,0.010307,0.000000,58.000000,56.000000,2.000000,1.000000,0.000000,0.000000:
0000
0000
0000
0000
,
0000
0000
0000
0000
,
0000
0000
0000
0000
,
1001
0000
0000
0000
,
0100
0000
0000
0000
,
0010
0000
0000
0000
,
1000
0000
0000
0000
,
0000
0000
0001
0000
,
0001
0000
0000
0000
,
0100
0000
0000
0000
,
0010
0000
0000
0000
,
0010
0000
0010
0000
,
0100
0000
0000
0000
,
0010
0000
0000
0000
,
1000
0000
0000
0000
,
0001
0000
0100
0000
,
0001
0000
0000
0000
,
0010
0000
0000
0000
,
0100
0000
0000
0000
,
1000
0000
0010
0000
,
1000
0000
0000
0000
,
1000
0000
0000
0000
,
0010
0000
0000
0000
,
0100
0000
0000
0000
,
0001
0000
0000
0000
,
0001
0000
0000
0000
,
0100
0000
0000
0000
,
0010
0000
0000
0000
,
2000
0000
3000
0000
,
0010
0000
0000
0000
,
1000
0000
0000
0000
,
0010
0000
0000
0000
,
1001
0000
0000
0000
,
0010
0000
0000
0000
,
0100
0000
0000
0000
,
0001
0000
0000
0000
,
1000
0000
0000
0000
,
0010
0000
0000
0000
,
1000
0000
0000
0000
,
0001
0000
0000
0000
,
0100
0000
0001
0000
,
1000
0000
0000
0000
,
0000
0000
0000
0000
,
0001
0000
0000
0000
,
0010
0000
0100
0000
,
0010
0000
0000
0000
,
0001
0000
0000
0000
,
1000
0000
0000
0000
,
0010
0000
0100
0000
,
0010
0000
0000
0000
,
1000
0000
0000
0000
,
0001
0000
0000
0000
,
0010
0000
0001
0000
;

//---------------dance-double - ----------------
#NOTES:
     dance-double:
     :
     Easy:
     5:
     0.279771,0.271857,0.082459,0.237069,0.000000,190.000000,182.000000,8.000000,23.000000,0.000000,0.000000,0.279771,0.271857,0.082459,0.237069,0.000000,190.000000,182.000000,8.000000,23.000000,0.000000,0.000000:
00000000
00000000
00000000
00000000
,
00000000
00000000
00000000
00000000
,
00000000
00000000
00000000
00000000
,
00000022
00000000
00000000
00000033
,
00000001
00000000
00000100
00001000
,
00010000
00000000
01000000
10000000
,
01000000
00000000
10000000
01000000
,
10000000
00000000
00000000
00000000
00010000
00010000
00010000
00000000
,
10000000
01000000
00010000
00001000
,
00010000
00001000
00000100
00000001
,
00001000
00000010
00001000
00000000
00000001
00000000
00000001
00000000
,
00000000
00000200
00000000
00000320
00000000
00000230
00000000
00000300
,
00000110
00000000
00000000
00000000
00000000
00000001
00000100
00000000
,
00001000
00010000
01000000
10000000
,
00100000
00100000
01000000
01000000
,
00100000
00100000
20000000
30020000
,
10030000
01000000
00010000
00000000
,
00001000
00000100
00000001
00001000
,
00000010
00000100
00000001
00000001
,
00001000
00001000
00000020
00000130
,
00000002
00000013
00000001
00000001
,
00002000
00003100
00001000
00001000
,
00000010
00000100
00001000
00010000
,
01000000
10000000
00100000
01000000
,
00020000
00130000
00010000
00010000
,
20000000
31000000
10000000
10000000
,
00100000
00010000
00001000
00000010
,
00000001
00001000
00000010
00001001
,
00000002
00000000
00000003
00000000
00000200
00000000
00001300
00010000
,
01000000
10000000
01000000
00010000
,
00001000
00000100
00000001
00000100
,
00001000
00010000
01000000
01000000
,
20000000
00020000
00000000
30030000
,
10010000
00000000
00000000
00000000
00000000
10000000
01000000
00000000
,
00010000
00001000
00000100
00000001
,
00001000
00000010
00000100
00000100
,
00000001
00000001
00000200
00000310
,
00000001
00000010
00001000
00000000
,
00010000
00100000
10000000
01000000
,
00100000
00010000
10000000
10000000
,
00010000
00010000
02000000
03100000
,
10010000
00000000
01001000
00000000
,
00011000
00000000
00000000
00000000
00000000
00010000
00000010
00000000
,
00000100
00000001
00001000
00001000
,
00000010
00000010
00000200
00000301
,
00000010
00001000
00010000
00000000
,
00100000
10000000
00010000
01000000
,
00100000
10000000
00010000
00010000
,
01000000
01000000
00200000
10300000
,
20020000
30030000
10000000
01000000
,
00010000
00000000
00001000
00000100
,
00000001
00000000
00000010
00001000
,
00020000
00000000
00030000
00001000
00010000
00001000
00010000
00000000
;

//---------------dance-double - ----------------
#NOTES:
     dance-double:
     :
     Medium:
     6:
     0.363703,0.380599,0.164918,0.072152,0.108227,247.000000,231.000000,16.000000,7.000000,0.000000,0.000000,0.363703,0.380599,0.164918,0.072152,0.108227,247.000000,231.000000,16.000000,7.000000,0.000000,0.000000:
00000000
00000000
00000000
00000000
,
00000000
00000000
00000000
00000000
,
00000000
00000000
00000000
00000000
,
00202000
00000000
00000000
00000000
00000000
00000000
00303000
00001000
,
00010000
00000000
00000000
00000100
00000000
00000000
00000010
00000000
00000000
00000000
00000000
00000000
00000000
00000000
00000000
00000000
,
00000001
00000000
00000000
00000100
00000000
00000000
00000010
00000000
00000000
00000000
00000000
00000000
00000000
00000000
00000000
00000000
,
00010000
00000000
00000000
00001000
00000000
00000000
01000000
00000000
00000000
00000000
00000000
00000000
00000000
00000000
00000000
00000000
,
00100000
00000000
00000000
10000000
00000000
00000000
01000000
00000000
00100000
00000000
00100000
00000000
00100000
00000000
00000000
00000000
,
00010000
00000000
00000000
01000000
00000000
00000000
00001000
00000000
00000000
00000000
00000000
00000000
00000000
00000000
00000000
00000000
,
00010000
00000000
00000000
00000010
00000000
00000000
00000100
00000000
00000000
00000000
00000000
00000000
00000000
00000000
00000000
00000000
,
00000001
00000000
00000000
00001000
00000000
00000000
00000100
00000000
00000000
00000000
00000000
00000000
00000000
00000000
00000000
00000000
,
00010000
00001000
00100000
00001000
00010000
00000100
00010000
00001000
,
00011000
00000000
00000000
00000000
00000000
00100000
01000000
00000000
,
10000000
00000000
00000000
00100000
00000000
00000000
01000000
00000000
00000000
00000000
01000000
00000000
00010000
00000000
00000000
00000000
,
10000000
00000000
00000000
01000000
00000000
00000000
00100000
00000000
00000000
00000000
00100000
00000000
00010000
00000000
00000000
00000000
,
10000000
00000000
01000000
00000000
00010000
00001000
00000100
00000000
,
00000001
00000000
00000000
00000010
00000000
00000000
00000100
00000000
00000000
00000000
00000100
00000000
00001000
00000000
00000000
00000000
,
00000001
00000000
00000000
00000100
00000000
00000000
00000010
00000000
00000000
00000000
00000010
00000000
00001000
00000000
00000000
00000000
,
00000001
00000000
00000000
00000010
00000000
00000000
00000100
00000000
00000000
00000000
00000100
00000000
00001000
00000000
00000000
00000000
,
00000001
00000000
00000100
00000000
00001000
00010000
01000000
00000000
,
10000000
00010000
01010000
10100000
,
10000000
01000000
11000000
00110000
,
10000000
00010000
01000000
00010000
00000000
00000000
00110000
00000000
,
00100000
00001000
00010000
00001000
00000000
00010000
00000100
00000000
,
00001000
00000010
00001010
00000101
,
00000001
00000010
00000011
00001100
,
00000001
00001000
00000100
00001000
00000000
00000000
00000100
00000000
,
00010000
00001000
00100000
00001000
00000000
00000000
00011000
00000000
,
00201000
00000000
00000000
00000000
01000000
00000000
01300000
01000000
,
01000000
00000000
10000000
00100000
00010000
00000000
00001000
00000010
,
00000001
00000000
00000001
00000100
00001000
00000000
00010000
01000000
,
10000000
00000000
10000000
00010000
10000000
00000000
00010000
10000000
,
10010000
01000000
01000000
00100000
,
10010000
00000000
00000000
00000000
00000000
00100000
00001000
00000000
,
00010000
00000000
00000000
00000010
00000000
00000000
00000100
00000000
00000000
00000000
00000100
00000000
00000001
00000000
00000000
00000000
,
00001000
00000000
00000000
00000001
00000000
00000000
00000100
00000000
00000000
00000000
00000100
00000000
00000001
00000000
00000000
00000000
,
00000010
00000000
00001000
00000000
00010000
00100000
10000000
00000000
,
00010000
00000000
00000000
01000000
00000000
00000000
00100000
00000000
00000000
00000000
00100000
00000000
10000000
00000000
00000000
00000000
,
00010000
00000000
00000000
10000000
00000000
00000000
01000000
00000000
00000000
00000000
10000000
00000000
00010000
00000000
00000000
00000000
,
00010000
00000000
00000000
01000000
00000000
00000000
00100000
00000000
00000000
00000000
00100000
00000000
10000000
00000000
00000000
00000000
,
01000000
00000000
00010000
00000000
00001000
00000100
00000001
00000000
,
00001001
00000000
00000010
00000000
,
00100000
00000000
00000000
01000000
10000000
00010000
10000000
00000000
,
00100000
00000000
00000000
01000000
00000000
00000000
00010000
00000000
00000000
00000000
00010000
00000000
01000000
00000000
00000000
00000000
,
00100000
00000000
00010000
00000000
00001000
00000010
00000001
00000000
,
00000100
00000000
00000000
00000001
00000000
00000000
00001000
00000000
00000000
00000000
00000001
00000000
00000100
00000000
00000000
00000000
,
00000100
00000000
00000000
00000010
00000000
00000000
00001000
00000000
00000000
00000000
00001000
00000000
00000010
00000000
00000000
00000000
,
00000100
00000000
00000000
00000001
00000000
00000000
00001000
00000000
00000000
00000000
00000001
00000000
00000100
00000000
00000000
00000000
,
00001000
00000000
00010000
00000000
01000000
10000000
01000000
00000000
,
20000000
00000000
00000000
00000000
00000000
30010000
01000000
00010000
,
02000000
00000000
00000000
03001000
00010000
00001000
00010000
00001000
,
00020000
00000000
00000000
00030010
00000100
00000010
00000100
00000010
,
00000200
00000000
00000000
00000301
00000100
00000010
00001000
00000000
;

//---------------dance-double - ----------------
#NOTES:
     dance-double:
     :
     Hard:
     8:
     0.465304,0.489342,0.092766,0.082459,0.247377,316.000000,307.000000,9.000000,8.000000,0.000000,0.000000,0.465304,0.489342,0.092766,0.082459,0.247377,316.000000,307.000000,9.000000,8.000000,0.000000,0.000000:
// measure 0
00000000
00000000
00000000
00000000
,  // measure 1
00000000
00000000
00000000
00000000
,  // measure 2
00000000
00000000
00000000
00000000
,  // measure 3
00022000
00000000
00000000
00000000
00000000
00000000
00033000
00010000
,  // measure 4
00000010
00000000
00000000
00000100
00000000
00000000
00000001
00000000
00000000
00000000
00000010
00000000
00000100
00000000
00000000
00000000
,  // measure 5
00001000
00000000
00000000
00000001
00000000
00000000
00000200
00000000
00000000
00000000
00000310
00000000
00000100
00000000
00000000
00000000
,  // measure 6
00000001
00000000
00000000
00000100
00000000
00000000
00001000
00000000
00000000
00000000
00010000
00000000
01000000
00000000
00000000
00000000
,  // measure 7
10000000
00000000
00000000
00010000
00000000
00000000
01000000
00000000
00100000
00000000
00100000
00000000
00100000
00000000
00000000
00000000
,  // measure 8
10000000
00000000
00000000
00010000
00000000
00000000
01000000
00000000
00000000
00000000
00100000
00000000
10000000
00000000
00000000
00000000
,  // measure 9
00010000
00000000
00000000
10000000
00000000
00000000
00200000
00000000
00000000
00000000
01300000
00000000
00010000
00000000
00000000
00000000
,  // measure 10
10000000
00000000
00000000
01000000
00000000
00000000
00010000
00000000
00000000
00000000
00001000
00000000
00000100
00000000
00000000
00000000
,  // measure 11
00000001
00001000
00000100
00001000
00000001
00000100
00000001
00001000
,  // measure 12
00001001
00000000
00000000
00000000
00000000
00000000
00000000
00000000
00000000
00000000
00000010
00000000
00000010
00000000
00000000
00000100
,  // measure 13
00001000
00000000
00000000
00010000
00000000
00000000
01000000
00000000
10000000
00000000
01000000
00000000
10000000
00000000
01000000
00000000
,  // measure 14
10000000
00000000
00000000
00100000
00000000
00000000
01000000
00000000
00010000
00000000
01000000
00000000
00010000
00000000
01000000
00000000
,  // measure 15
00010000
00000000
00000000
10000000
00000000
00000000
00100000
00000000
01000000
00000000
00000000
00000000
10010000
00000000
00000000
00000000
,  // measure 16
10000000
00000000
00000000
00010000
00000000
00000000
01000000
00000000
00000000
00000000
00100000
00000000
00010000
00000000
00000000
00000000
,  // measure 17
00001000
00000000
00000000
00000010
00000000
00000000
00000001
00000000
00000100
00000000
00000001
00000000
00000100
00000000
00000001
00000000
,  // measure 18
00001000
00000000
00000000
00000010
00000000
00000000
00001000
00000000
00000100
00000000
00001000
00000000
00000100
00000000
00001000
00000000
,  // measure 19
00000001
00000000
00000000
00000010
00000000
00000000
00000100
00000000
00001000
00000000
00000000
00000000
00000011
00000000
00000000
00000000
,  // measure 20
00000001
00000000
00001000
00000100
00000000
00001000
00000001
00000000
00000100
00000000
00001000
00000000
00010000
00000000
00000000
00000000
,  // measure 21
01000000
00000000
10000000
00010000
00000000
10000000
01000000
00000000
00010000
00000000
00001000
00000000
00000100
00000000
00000000
00000000
,  // measure 22
00000001
00000000
00000000
00000001
00000000
00000000
00000001
00000000
00000000
00000000
00000100
00000000
00001000
00000000
00010000
00000000
,  // measure 23
01000000
00000000
00000000
01000000
00000000
00000000
01000000
00000000
00000000
00000000
10000000
00000000
00010000
00000000
00000000
00000000
,  // measure 24
10000000
00000000
00010000
01000000
00000000
00010000
10000000
00000000
01000000
00000000
00010000
00000000
00001000
00000000
00000000
00000000
,  // measure 25
00000100
00000000
00000001
00001000
00000000
00000100
00001000
00000000
00000001
00000000
00000100
00000000
00001000
00000000
00000000
00000000
,  // measure 26
00010000
00000000
00000000
00010000
00000000
00000000
00010000
00000000
00000000
00000000
01000000
00000000
10000000
00000000
01000000
00000000
,  // measure 27
10000000
00000000
00000000
10000000
00000000
00000000
10000000
00000000
00010000
00000000
00000000
00000000
10010000
00000000
00000000
00000000
,  // measure 28
02200000
00000000
03300000
00000000
10010000
00000000
10000000
01000000
,  // measure 29
10000000
00000000
01000000
00010000
01000000
00000000
00010000
00001000
,  // measure 30
00010000
00000000
00001000
00000100
00001000
00000000
00000100
00000001
,  // measure 31
00000100
00000000
00000001
00000010
00001000
00000000
00010000
00100000
,  // measure 32
10000000
00000000
00000000
00010000
01000000
00000000
00100000
00000000
10000000
00000000
01000000
00000000
00100000
00000000
00010000
00000000
,  // measure 33
00110000
00000000
00000000
00000000
00000000
00000000
00000000
00000000
00000000
00000000
01000000
00000000
01000000
00000000
00000000
00100000
,  // measure 34
00010000
00000000
00000000
00001000
00000000
00000000
00000010
00000000
00000001
00000000
00000010
00000000
00000001
00000000
00000010
00000000
,  // measure 35
00000001
00000000
00000000
00000100
00000000
00000000
00000010
00000000
00001000
00000000
00000010
00000000
00001000
00000000
00000010
00000000
,  // measure 36
00000100
00000000
00000000
00000001
00000000
00000000
00001000
00000000
00000001
00000000
00001000
00000000
00000001
00000000
00000100
00000000
,  // measure 37
00001000
00000000
00000000
00010000
00000000
00000000
01000000
00000000
10000000
00000000
00100000
00000000
01000000
00000000
00010000
00000000
,  // measure 38
10000000
00000000
00000000
00010000
00000000
00000000
01000000
00000000
00010000
00000000
01000000
00000000
00010000
00000000
01000000
00000000
,  // measure 39
00010000
00000000
00000000
10000000
00000000
00000000
00100000
00000000
10000000
00000000
00100000
00000000
10000000
00000000
00100000
00000000
,  // measure 40
01000000
00000000
00000000
00100000
00000000
00000000
10000000
00000000
00010000
00000000
01000000
00000000
00100000
00000000
10000000
00000000
,  // measure 41
01000000
00000000
00000000
00010000
00000000
00000000
00001000
00000000
00000100
00000000
00000000
00000001
00000000
00000000
00000010
00000000
,  // measure 42
00001000
00000000
00000000
00010000
00000000
00000000
00100000
00000000
10000000
00000000
01000000
00000000
00100000
00000000
00000000
00000000
,  // measure 43
00010000
00000000
00000000
10000000
00000000
00000000
00100000
00000000
01000000
00000000
00010000
00000000
00100000
00000000
00010000
00000000
,  // measure 44
10000000
00000000
00000000
01000000
00000000
00000000
00010000
00000000
00001000
00000000
00010000
00000000
00001000
00000000
00000100
00000000
,  // measure 45
00000001
00000000
00000000
00000010
00000000
00000000
00000100
00000000
00001000
00000000
00000010
00000000
00000100
00000000
00000001
00000000
,  // measure 46
00000010
00000000
00000000
00000100
00000000
00000000
00000010
00000000
00000001
00000000
00000100
00000000
00001000
00000000
00010000
00000000
,  // measure 47
01000000
00000000
00000000
10000000
00000000
00000000
00100000
00000000
01000000
00000000
00010000
00000000
00100000
00000000
01000000
00000000
,  // measure 48
10000000
00000000
00000000
00010000
00000000
00000000
01000000
00000000
00100000
00000000
01000000
00000000
00100000
00000000
00000000
00000000
,  // measure 49
20020000
00000000
00000000
00000000
30030000
10000000
01000000
00010000
,  // measure 50
00001000
00000000
00000000
00000100
00000000
00000000
00000001
00000000
00000010
00000000
00000001
00000000
00000010
00000000
00000001
00000000
,  // measure 51
00000010
00000000
00000000
00001000
00000000
00000000
00010000
00000000
00100000
00000000
00010000
00000000
00100000
00000000
00010000
00000000
,  // measure 52
00100000
00000000
00000000
10000000
00000000
00000000
00010000
00000000
10000000
00000000
00010000
00000000
10000000
00000000
00000000
00000000
;
