#TITLE:Primal Soul;
#SUBTITLE:;
#ARTIST:Mutsuhiko Izumi;
#TITLETRANSLIT:;
#SUBTITLETRANSLIT:;
#ARTISTTRANSLIT:;
#GENRE:Jazz;
#CREDIT:;
#BANNER:primalsoul-bn.png;
#BACKGROUND:primalsoul-bg.png;
#LYRICSPATH:;
#CDTITLE:;
#MUSIC:Primal Soul.ogg;
#OFFSET:-0.968000;
#SAMPLESTART:12.539991;
#SAMPLELENGTH:12.000000;
#SELECTABLE:YES;
#BPMS:0.000000=124.000000
;
#STOPS:
;
#BGCHANGES:;
#KEYSOUNDS:;
#ATTACKS:;

//---------------dance-single - ----------------
#NOTES:
     dance-single:
     :
     Hard:
     8:
     0.410440,0.491005,0.011223,0.202013,0.488199,256.000000,255.000000,1.000000,18.000000,0.000000,0.000000,0.410440,0.491005,0.011223,0.202013,0.488199,256.000000,255.000000,1.000000,18.000000,0.000000,0.000000:
// measure 0
0000
0000
0000
0000
,  // measure 1
0000
0000
0000
0000
,  // measure 2
0000
0000
0000
0000
,  // measure 3
0000
0000
0000
0000
0000
0001
1000
0010
,  // measure 4
0200
0020
0000
0000
0000
0000
0330
0000
,  // measure 5
2000
0000
0200
0000
0000
0000
3300
0000
0001
1000
0001
1000
0001
0000
0000
0000
,  // measure 6
1000
0000
0000
0100
0000
0000
0010
0000
0000
0000
0001
0000
0100
0000
0001
0000
,  // measure 7
0010
0000
0000
0100
0000
0000
1000
0000
0000
0000
0010
0000
0100
0000
0010
0000
,  // measure 8
1000
0000
0000
0001
0000
0000
0100
0000
0000
0000
0001
0000
0100
0000
0001
0000
,  // measure 9
1000
0010
1000
0010
0000
0000
0000
0000
0100
0001
0100
0001
0000
0000
0000
0000
,  // measure 10
0010
0000
0000
0001
0000
0000
0010
0000
0000
0000
0100
0000
1000
0000
0100
0000
,  // measure 11
1000
0000
0000
0010
0000
0000
0100
0000
0000
0000
0001
0000
0010
0000
0001
0000
,  // measure 12
0100
0000
0000
0010
0000
0000
1000
0000
0000
0000
0100
0000
1000
0000
0100
0000
,  // measure 13
0000
0010
0001
1000
0020
0200
0000
0330
,  // measure 14
0100
0001
0000
0100
0001
0000
0000
0000
0100
0010
0000
0100
0010
0000
0000
0000
,  // measure 15
1000
0010
0000
1000
0010
0000
0100
0000
0001
1000
0000
0001
1000
0000
0000
0000
,  // measure 16
0010
0100
0000
0010
0100
0000
0000
0000
0010
1000
0000
0010
1000
0000
0000
0000
,  // measure 17
0001
0100
0000
0001
0100
0000
0010
0000
1000
0001
0000
1000
0001
0000
0000
0000
,  // measure 18
1000
0100
0000
1000
0100
0000
0010
0000
0100
1000
0000
0100
1000
0000
0000
0000
,  // measure 19
0001
0100
0000
0001
0100
0000
0010
0000
0100
0001
0000
0100
0001
0000
0000
0000
,  // measure 20
1000
0001
0000
1000
0001
0000
0100
0000
0001
1000
0000
0001
1000
0000
0000
0000
,  // measure 21
0010
0100
0010
0100
0000
0010
0000
0100
0010
0000
0000
0000
0000
0000
0000
0000
,  // measure 22
1000
0000
0100
0000
0010
0000
0000
0001
0000
0010
0000
0100
0000
0000
0000
0000
,  // measure 23
0001
0000
1000
0000
0010
0000
0000
1000
0000
0001
0000
0010
0000
0000
0000
0000
,  // measure 24
0001
0000
0010
0000
0100
0000
0000
1000
0000
0100
0000
0010
0000
0000
0000
0000
,  // measure 25
1000
0000
0001
0000
0100
0000
0000
0001
0000
1000
0000
0100
0000
0000
0000
0000
,  // measure 26
1000
0000
0000
0100
0000
0000
0010
0000
0000
0000
0100
0000
1000
0000
0100
0000
,  // measure 27
0010
0000
0000
0001
0000
0000
0100
0000
0000
0000
0010
0000
0100
0000
0010
0000
,  // measure 28
1000
0000
0000
0100
0000
0000
0010
0000
0000
0000
0001
0000
0010
0000
0001
0000
,  // measure 29
0100
0000
0000
0010
0000
0000
1000
0000
0000
0000
0001
0000
1000
0000
0001
0000
,  // measure 30
0100
0000
0000
0001
0000
0000
0010
0000
0000
0100
0000
0000
1000
0000
0100
0000
,  // measure 31
0010
0000
0000
0100
0000
0000
1000
0000
0000
0010
0000
0000
0100
0000
0010
0000
,  // measure 32
1000
0000
0000
0001
0000
0000
0100
0000
0000
0010
0000
0000
1000
0000
0010
0000
,  // measure 33
0000
0000
0100
0000
0001
0000
1000
0000
0020
0000
0000
0100
0000
0200
0000
0000
,  // measure 34
0330
0001
1000
0010
0200
0020
0000
0330
,  // measure 35
2000
0200
0000
0000
0000
0000
3300
0000
,  // measure 36
0020
0000
0002
0000
0000
0000
0033
0000
0100
0010
0100
0010
0100
0000
0000
0000
,  // measure 37
0002
0020
0000
0000
0000
0000
0033
0000
,  // measure 38
0200
0000
2000
0000
0000
0000
3300
0000
1000
0001
1000
0001
1000
0000
0000
0000
,  // measure 39
0010
0000
0100
0000
0001
0000
0000
0100
0000
0010
0000
1000
0000
0000
0000
0000
,  // measure 40
0010
0000
1000
0000
0001
0000
0000
1000
0000
0001
0000
0010
0000
0000
0000
0000
,  // measure 41
0100
0000
0010
0000
0001
0000
0000
0010
0000
0100
0000
1000
0000
0000
0000
0000
,  // measure 42
0100
0000
1000
0000
0001
0000
0000
0100
0000
0001
0000
1000
0000
0000
0000
0000
,  // measure 43
0010
0000
0100
0001
0000
1000
0000
0001
0100
0000
0000
0000
0110
0000
0000
0000
;

//---------------dance-single - ----------------
#NOTES:
     dance-single:
     :
     Medium:
     6:
     0.331879,0.397293,0.078561,0.224459,0.033669,207.000000,200.000000,7.000000,20.000000,0.000000,0.000000,0.331879,0.397293,0.078561,0.224459,0.033669,207.000000,200.000000,7.000000,20.000000,0.000000,0.000000:
0000
0000
0000
0000
,
0000
0000
0000
0000
,
0000
0000
0000
0000
,
0000
0000
0000
0000
,
0000
0010
0100
0001
0020
0200
0000
0000
,
0000
0000
0330
0000
2000
0002
0000
3003
,
1000
0001
1000
0001
0100
0001
0000
1000
,
0000
0100
0001
0100
0000
1000
0000
0001
,
0000
0100
1000
0100
0000
0001
0000
1000
,
0000
0100
0001
0100
1000
0010
0000
0000
,
0100
0001
0000
0000
0000
1000
0000
0001
,
0000
0010
1000
0010
0000
0001
0000
1000
,
0000
0010
0001
0010
0000
1000
0000
0001
,
0000
0010
1000
0010
0000
0001
0100
0010
,
2000
0200
0000
3300
0010
0001
0010
0001
,
0100
0010
0100
0010
1000
0100
1000
0100
,
1000
0000
0010
0000
1000
0010
1000
0010
,
0100
0010
0100
0010
0100
0001
0100
0001
,
0100
0000
1001
0000
0010
1000
0010
1000
,
0100
0010
0100
0010
0001
0100
0001
0100
,
0001
0000
1000
0000
0010
0100
0001
1000
,
0010
0100
0001
1000
0220
0000
0000
0000
,
0330
0000
1001
0000
0001
0010
0100
1000
,
0000
1000
0000
0000
1000
0100
0010
0001
,
0000
0001
0000
0000
0100
0010
1000
0001
,
0000
0001
0000
0000
0100
0001
1000
0010
,
0000
0010
0000
0000
0000
1000
0000
0001
,
0000
0100
1000
0100
0000
0001
0000
1000
,
0000
0010
0001
0010
0000
1000
0000
0001
,
0000
0100
1000
0100
0001
0010
0100
0000
,
1000
0100
0010
0001
0000
1000
0000
0001
,
0000
0010
1000
0010
0000
0001
0000
1000
,
0000
0100
0001
0100
0000
1000
0000
0001
,
0000
0010
1000
0010
0000
2002
0000
0000
,
3003
0000
0000
0010
0000
0010
0000
0000
0000
0000
1000
0000
0100
0000
0010
0000
,
0001
0000
1001
0000
0020
0002
0000
0000
,
0000
0000
0033
0000
2000
0200
0000
3300
,
1000
0001
1000
0000
0020
0200
0000
0000
,
0000
0000
0330
0000
2000
0002
0000
3003
,
0010
0000
0100
0000
0001
0000
0000
0000
0100
0000
0010
0000
0100
0000
0000
0100
,
0000
0000
0000
0000
0000
0000
0000
0000
0010
0000
1000
0000
0010
0000
0000
0010
,
0000
0000
0000
0000
0000
0000
0000
0000
1000
0000
0100
0000
0010
0000
0000
0010
,
0000
0000
0000
0000
0000
0000
0000
0000
0001
0000
0100
0000
0010
0000
0000
0010
,
0000
0000
2002
0000
,
3003
0101
0000
0000
;

//---------------dance-single - ----------------
#NOTES:
     dance-single:
     :
     Easy:
     3:
     0.193997,0.220952,0.056115,0.303020,0.000000,121.000000,116.000000,5.000000,27.000000,0.000000,0.000000,0.193997,0.220952,0.056115,0.303020,0.000000,121.000000,116.000000,5.000000,27.000000,0.000000,0.000000:
0000
0000
0000
0000
,
0000
0000
0000
0000
,
0000
0000
0000
0000
,
0000
0000
0000
0000
,
0020
0002
0000
0033
0000
0000
0000
0000
,
2000
0002
0000
3003
0100
0000
0100
0000
,
0020
0000
0000
0000
,
1030
0100
0001
0000
,
0100
1000
0010
0000
,
1000
0001
1000
0010
,
0100
0100
0010
0010
,
0100
0010
1000
0001
,
2000
0000
0000
3000
,
0100
0100
1000
0100
,
0010
0010
0001
0001
,
0100
0100
1000
1000
,
0100
0001
0100
1000
,
0200
0000
0300
0000
,
0002
0000
1003
0100
,
0010
0100
1000
0001
,
2000
0000
3000
0000
,
0110
1001
0110
0000
,
0020
0000
1030
0000
,
0200
0000
0301
0000
,
0002
0000
0013
0000
,
2000
0000
3100
0000
,
0100
1000
0100
1000
,
0010
0100
0001
0010
,
0001
1000
0001
1000
,
0001
1000
0001
1000
,
0010
0010
0010
0010
,
0100
0100
0100
0100
,
0001
0001
0001
0001
,
0000
2000
0000
0000
0000
0000
3000
0000
,
0000
0020
0000
0000
0000
0000
0030
0000
,
2000
0002
0000
0000
0000
0000
3003
0000
,
0200
0020
0000
0330
0001
0000
1000
0000
,
0200
2000
0000
0000
0000
0000
3300
0000
,
0002
0020
0000
0033
1000
0000
0001
0000
,
0200
0000
0301
0000
,
0020
0000
1030
0000
,
0200
0000
1300
0000
,
0020
0000
0031
0000
,
0100
0001
1001
1100
;

//---------------dance-single - ----------------
#NOTES:
     dance-single:
     :
     Beginner:
     1:
     0.096197,0.171852,0.101007,0.033669,0.000000,60.000000,51.000000,9.000000,3.000000,0.000000,0.000000,0.096197,0.171852,0.101007,0.033669,0.000000,60.000000,51.000000,9.000000,3.000000,0.000000,0.000000:
0000
0000
0000
0000
,
0000
0000
0000
0000
,
0000
0000
0000
0000
,
0000
0000
0000
0000
,
0110
0000
0000
0000
,
1001
0000
0010
0000
,
0200
0000
0300
0000
,
1000
0000
0000
0000
,
0001
0000
0000
0000
,
0010
0000
0100
0000
,
0010
0000
0000
0000
,
0001
0000
0000
0000
,
2000
0000
3000
0000
,
0010
0000
0000
0000
,
0100
0000
1000
0000
,
0100
0000
0000
0010
,
0010
0000
0001
0000
,
0001
0000
0000
0000
,
0100
0000
0001
0000
,
0100
0000
0000
0000
,
0020
0000
0030
0000
,
1001
0000
0000
0000
,
0010
0000
0000
0000
,
0100
0000
0000
0000
,
0010
0000
0000
0000
,
0100
0000
0000
0000
,
1000
1000
1000
0000
,
0001
0000
0000
0000
,
0010
0000
0000
0000
,
0100
0000
0000
0000
,
1000
0000
0000
0000
,
0001
0000
0000
0000
,
0010
0000
0000
0000
,
0100
0000
0000
0000
,
0000
0000
0000
0000
,
1001
0000
0000
0000
,
0110
0000
1000
0000
,
0110
0000
0000
0000
,
1001
0000
0010
0000
,
0100
0000
0000
0000
,
1000
0000
0000
0000
,
0100
0000
0000
0000
,
1000
0000
0000
0000
,
0001
0000
1001
1001
;

//---------------dance-double - ----------------
#NOTES:
     dance-double:
     :
     Easy:
     3:
     0.177964,0.220952,0.089784,0.078561,0.000000,111.000000,103.000000,8.000000,7.000000,0.000000,0.000000,0.177964,0.220952,0.089784,0.078561,0.000000,111.000000,103.000000,8.000000,7.000000,0.000000,0.000000:
00000000
00000000
00000000
00000000
,
00000000
00000000
00000000
00000000
,
00000000
00000000
00000000
00000000
,
00000000
00000000
00000000
00000000
,
00110000
00000000
00000000
00000000
,
00001100
00000000
00001000
00010000
,
00000200
00000000
00000000
00000300
,
00001000
00000001
00000100
00000000
,
00001000
00010000
01000000
00000000
,
10000000
00100000
01000000
00010000
,
10000000
01000000
00100000
00001000
,
00000100
00000010
00000000
00001000
,
00000002
00000000
00000003
00000000
,
00000020
00000000
00000000
00000030
,
00001000
00000000
00010000
00100000
,
10000000
00000000
00000000
01000000
,
00100000
00000000
01000000
10000000
,
00100000
10000000
01000000
00000000
,
00200000
00000000
00301000
00010000
,
00001000
00010000
00000100
00001000
,
00000020
00000000
00000000
00000030
,
00000110
00000000
00000000
00001000
,
00000100
00000010
00000001
00000000
,
00000010
00000100
00001000
00000000
,
00010000
00100000
01000000
00000000
,
10000000
01000000
00100000
00000000
,
00001000
00010000
00001000
00000000
,
00000100
00001000
00000100
00000010
,
00000100
00010000
00000100
00010000
,
00001000
00100000
00001000
00100000
,
00010000
00010000
00010000
00000000
,
01000000
01000000
01000000
00000000
,
00100000
00100000
00100000
00000000
,
00002000
00000000
00000000
00000000
,
00003020
00000000
00000030
00000000
,
00000101
00000000
00000000
00000000
,
00011000
00000000
00000000
00000000
,
11000000
00000000
00000000
00000000
,
00011000
00000000
00000000
00000000
,
00000001
00000100
00001000
00000000
,
00010000
00100000
10000000
00000000
,
01000000
00010000
00100000
00000000
,
00001000
00000010
00000100
00000000
,
00010000
00001000
00001000
00011000
;

//---------------dance-double - ----------------
#NOTES:
     dance-double:
     :
     Medium:
     6:
     0.317450,0.417354,0.291797,0.303020,0.005611,198.000000,172.000000,26.000000,27.000000,0.000000,0.000000,0.317450,0.417354,0.291797,0.303020,0.005611,198.000000,172.000000,26.000000,27.000000,0.000000,0.000000:
00000000
00000000
00000000
00000000
,
00000000
00000000
00000000
00000000
,
00000000
00000000
00000000
00000000
,
00000000
00000000
00000000
00000000
00000000
00001000
00010000
00000100
,
00002000
00000020
00000000
00000000
00000000
00000000
00003030
00000000
,
00000200
00000002
00000000
00000303
00000010
00000100
00001000
00000000
,
00022000
00000000
00033000
00000000
,
00010000
00100000
01000000
10000000
00000000
00000000
00000000
00000000
,
11000000
00000000
00100000
00010000
01000000
00000000
00000000
00000000
,
00001000
00010000
00001000
00000000
00010000
00000100
00010000
00000000
,
00001100
00000110
00000011
00001001
,
00001100
00000000
00011000
00000000
00000000
00000000
00010000
00100000
,
02000000
00000000
00000000
03000000
,
10000000
01000000
00100000
00010000
01000000
00100000
20000000
00000000
,
31000000
00000000
01100000
00000000
00100000
00010000
00100000
00000000
,
00001000
00010000
00001000
00000000
00010000
00000010
00010000
00000010
,
00000200
00000000
00000000
00000000
00000000
00000000
00000000
00000000
00000301
00000000
00000000
00000001
00000000
00000000
00000001
00000000
,
00001000
00000100
00000000
00000000
,
00002200
00000000
00003300
00000000
00010000
00001000
00010000
00001000
,
00100000
00010000
10010000
11000000
,
00200000
00000000
00300000
00000000
,
00001000
00010000
00001000
00000000
00011000
00000000
00000000
00000000
,
00000100
00001000
00000010
00000000
00000100
00000000
00000110
00000000
,
00000001
00000010
00000100
00000000
00001000
00000000
00001100
00000000
,
00010000
00100000
01000000
00000000
10000000
00000000
11000000
00000000
,
00100000
00010000
01000000
00000000
00010000
00000000
01010000
00000000
,
00100000
00100000
00100000
00010000
,
00001000
00010000
00001000
00000000
00010000
00001000
00010000
00000000
,
00000100
00001000
00000100
00001000
00000010
00000100
00000010
00000100
,
00000001
00000010
00000001
00000010
00000001
00001000
00000001
00000000
,
00000220
00000000
00000000
00000330
,
00022000
00000000
00000000
00033000
,
02200000
00000000
00000000
03300000
,
00000000
10000000
01000000
00100000
00010000
00000000
10010000
00000000
,
00000000
00001000
00010000
00000100
00001000
00000010
00000200
00000000
,
00000302
00000020
00000000
00000000
00000000
00000000
00000033
00000000
,
00000200
00002000
00000000
00003300
00010000
00001000
00010000
00000000
,
00200000
00020000
00000000
00000000
00000000
00000000
00330000
00000000
,
20000000
02000000
00000000
33000000
00100000
00010000
00100000
00000000
,
00001000
00010000
00000100
00000000
00001000
00000000
00001100
00000000
,
00000010
00000100
00000001
00000000
00000010
00000000
00000110
00000000
,
00001000
00100000
00010000
00000000
00100000
00000000
00110000
00000000
,
01000000
00100000
10000000
00000000
01000000
00000000
01100000
00000000
,
00001000
00010000
00001000
00010000
00001000
00000000
00011000
00000000
;

//---------------dance-double - ----------------
#NOTES:
     dance-double:
     :
     Hard:
     8:
     0.371961,0.417354,0.022446,0.258128,0.404027,232.000000,230.000000,2.000000,23.000000,0.000000,0.000000,0.371961,0.417354,0.022446,0.258128,0.404027,232.000000,230.000000,2.000000,23.000000,0.000000,0.000000:
00000000
00000000
00000000
00000000
,
00000000
00000000
00000000
00000000
,
00000000
00000000
00000000
00000000
,
00000000
00000000
00000000
00000000
00000000
00001000
00100000
00010000
,
02000000
00200000
00000000
00000000
00000000
00000000
03300000
00000000
,
20000000
00000000
02000000
00000000
00000000
00000000
33000000
00000000
00100000
00010000
00100000
00010000
00100000
00000000
00000000
00000000
,
00001000
00000000
00000000
00000100
00000000
00000000
00000010
00000000
00000001
00000000
00000100
00000000
00000000
00000000
00000100
00000000
,
00000010
00000000
00000000
00001000
00000000
00000000
00000010
00000000
00001000
00000000
00000100
00000000
00000000
00000000
00000100
00000000
,
00010000
00000000
00000000
00001000
00000000
00000000
00010000
00000000
00001000
00000000
00100000
00000000
00000000
00000000
00100000
00000000
,
00010000
00000000
00000000
01000000
00000000
00000000
00010000
00000000
10000000
00000000
01000000
00000000
00000000
00000000
01000000
00000000
,
00100000
00000000
00000000
00001000
00000000
00000000
00010000
00000000
00001000
00000000
00010000
00000000
00000000
00000000
00000100
00000000
,
00001000
00000000
00000000
00000010
00000000
00000000
00000100
00000000
00000001
00000000
00000010
00000000
00000000
00000000
00000100
00000000
,
00001000
00000000
00000000
00000010
00000000
00000000
00000100
00000000
00000010
00000000
00010000
00000000
00000000
00000000
00001000
00000000
,
00000000
00010000
00001000
00100000
00010000
00200000
00000000
00300000
,
00020000
00000000
00000000
00000000
00000000
00000000
00000000
00000000
01030000
00100000
00000000
01000000
00000000
00010000
00000000
00200000
,
00000000
00000000
00000000
00000000
00000000
00000000
00000000
00000000
00300000
00000000
00010000
10000000
00010000
10000000
00010000
00000000
,
02000000
00000000
00000000
00000000
00000000
00000000
00000000
00000000
03001000
00000000
00000000
00010000
00000000
00000000
00000100
00000000
,
00001000
00000000
00000000
00000010
00000000
00000000
00000200
00000000
00000000
00000000
00000000
00000000
00000001
00000000
00000000
00000000
,
00000302
00000000
00000000
00000000
00000000
00000000
00000000
00000000
00000013
00000100
00000010
00000100
00000010
00000000
00000000
00000000
,
00000100
00000000
00000000
00001000
00000000
00000000
00010000
00000000
00100000
00000000
00000000
01000000
00000000
00000000
00100000
00000000
,
00022000
00000000
00000000
00033000
,
00001000
00010000
00001000
00010000
00000000
00001000
00000000
00010000
00001000
00000000
00000000
00000000
00010000
00000100
00010000
00000000
,
00000100
00000000
00001000
00000000
00000010
00000000
00000000
00000100
00000000
00000001
00000000
00000010
00000000
00000000
00000000
00000000
,
00000100
00000000
00001000
00000000
00010000
00000000
00000000
00100000
00000000
01000000
00000000
10000000
00000000
00000000
00000000
00000000
,
00100000
00000000
01000000
00000000
00010000
00000000
00000000
00100000
00000000
00001000
00000000
00010000
00000000
00000000
00000000
00000000
,
00000100
00000000
00001000
00000000
00000010
00000000
00000000
00000100
00000000
00000001
00000000
00000010
00000000
00000000
00000000
00000000
,
00000001
00000000
00000000
00000010
00000000
00000000
00000001
00000000
00000000
00000010
00000000
00000000
00000000
00000000
00000000
00000000
,
00000100
00010000
00000000
00001000
00000000
00100000
00010000
00000000
01000000
00000000
00100000
00000000
10000000
00000000
00000000
00000000
,
01000000
00100000
01000000
00100000
00001000
00010000
00001000
00010000
,
00000010
00000100
00000010
00000100
00000001
00000010
00000001
00000010
,
00000100
00000000
00000000
00001000
00000000
00000000
00000100
00000000
00000000
00002000
00000000
00000000
00003000
00000000
00000000
00000000
,
00010000
00000000
00000000
00100000
00000000
00000000
00010000
00000000
00000000
00200000
00000000
00000000
00300000
00000000
00000000
00000000
,
01000000
00000000
00000000
10000000
00000000
00000000
01000000
00000000
00000000
20000000
00000000
00000000
30000000
00000000
00000000
00000000
,
00000000
00000000
10000000
00000000
00100000
00000000
10000000
00000000
01000000
00000000
00100000
00010000
00000000
00010000
00000000
00000000
,
00000000
00000000
00001000
00000000
00000100
00000000
00000010
00000000
00000001
00000000
00000100
00000000
00000010
00000100
00000010
00000000
,
00002000
00000200
00000000
00000000
00000000
00000000
00003300
00000000
,
00200000
00000000
00020000
00000000
00000000
00000000
00330000
00000000
01000000
00100000
01000000
00100000
01000000
00000000
00000000
00000000
,
00200000
20000000
00000000
00000000
00000000
00000000
30300000
00000000
,
00020000
00000000
02000000
00000000
00000000
00000000
03030000
00000000
00001000
00010000
00001000
00010000
00001000
00000000
00000000
00000000
,
00000100
00000000
00001000
00000000
00000001
00000000
00000000
00000010
00000000
00000001
00000000
00001000
00000000
00000000
00000000
00000000
,
00000100
00000000
00010000
00000000
00001000
00000000
00000000
00100000
00000000
00010000
00000000
01000000
00000000
00000000
00000000
00000000
,
10000000
00000000
01000000
00000000
00100000
00000000
00000000
01000000
00000000
00100000
00000000
00010000
00000000
00000000
00000000
00000000
,
00001000
00000000
00000100
00000000
00000010
00000000
00000000
00000100
00000000
00000010
00000000
00000001
00000000
00000000
00000000
00000000
,
00001000
00000100
00001000
00000100
00000000
00010000
00000000
00010000
00001000
00000000
00000000
00000000
00011000
00000000
00000000
00000000
;
