#TITLE:Paris;
#SUBTITLE:;
#ARTIST:MSTRKRFT;
#TITLETRANSLIT:;
#SUBTITLETRANSLIT:;
#ARTISTTRANSLIT:;
#GENRE:House;
#CREDIT:;
#BANNER:paris-bn.png;
#BACKGROUND:paris-bg.png;
#LYRICSPATH:;
#CDTITLE:;
#MUSIC:Paris.ogg;
#OFFSET:0.000000;
#SAMPLESTART:31.720001;
#SAMPLELENGTH:12.000000;
#SELECTABLE:YES;
#BPMS:0.000000=135.979996
;
#STOPS:10.750000=0.441000,
17.750000=0.441000,
25.000000=0.221000,
32.500000=0.221000,
40.000000=0.221000,
47.500000=0.221000,
118.750000=0.441000,
125.750000=0.441000,
132.750000=0.441000,
139.750000=0.441000,
147.000000=0.221000,
154.500000=0.221000
;
#BGCHANGES:;
#KEYSOUNDS:;
#ATTACKS:;

//---------------dance-single - ----------------
#NOTES:
     dance-single:
     :
     Hard:
     10:
     0.767467,0.671371,0.394867,0.571518,0.846885,517.000000,479.000000,38.000000,55.000000,0.000000,0.000000,0.767467,0.671371,0.394867,0.571518,0.846885,517.000000,479.000000,38.000000,55.000000,0.000000,0.000000:
0000
0000
0000
0000
,
0000
0000
0000
0000
,
1001
0000
0000
0000
0000
0000
0010
0100
0010
0100
0010
0100
1001
0000
0000
0000
,
0000
0000
0100
0000
1100
0000
0010
0000
0000
0100
0000
0000
1001
0000
0000
0000
,
0000
0000
1000
0100
1000
0100
1000
0100
0011
0000
0000
0000
0000
0000
0100
0000
,
1010
0000
0100
0000
0000
0010
0000
0000
0101
0000
1000
0000
0100
0000
1000
0010
,
0100
0000
1000
0000
1010
0000
0100
0001
0100
0000
0010
0000
0001
0010
0001
0000
,
0010
0000
0000
1100
0000
0000
1000
0010
1000
0000
0010
0000
0100
0010
0100
0000
,
0001
0000
1001
0000
0100
1000
0010
0000
0100
0000
0001
1000
0001
0000
0100
0010
,
0000
0100
0010
0000
0100
0001
0010
0000
0100
0000
1000
0010
1000
0000
0001
0000
,
0110
0000
0100
1000
0100
0000
1000
0000
0010
0100
0001
0000
0101
0000
0000
0110
,
0000
0000
0100
0001
0100
0000
0010
0000
1000
0100
1000
0000
0010
0000
0101
0000
,
1001
0000
0000
0110
0000
0000
1010
0000
0000
0100
0001
0000
0000
1001
0000
0000
,
0010
1000
0010
0100
0010
0000
0100
0001
0100
0000
0001
0000
1000
0000
0100
1000
,
0100
0010
0001
0010
0100
0000
1000
0010
1000
0000
0001
0000
0100
0000
0010
1000
,
0010
0100
0001
1000
0010
0000
0100
1000
0100
0000
0001
0000
1000
0000
0010
1000
,
0100
0010
0100
1000
0001
0000
0100
0001
0100
0000
0010
0000
0001
0000
0010
1000
,
0010
0100
0001
1000
0010
0000
0100
0001
1000
0000
0010
0000
1000
0000
0100
0010
,
0100
1000
0010
0100
0001
0000
0010
0100
0010
0000
0001
0000
1000
0000
0100
0001
,
0100
1000
0010
0100
0001
0000
1000
0010
1000
0000
0001
0000
0100
0000
0010
0100
,
0010
1000
0010
0100
0001
0000
1000
0100
1000
0000
0010
0000
0100
0000
0010
0000
,
1000
0000
0200
2000
0000
0300
3002
0020
0000
0003
0230
0020
0000
0300
0032
2000
,
0000
0003
3200
0020
0000
0330
0200
2000
0000
0300
3200
0002
0000
0303
0011
0000
,
1001
0000
0200
0002
0000
0300
0023
0002
0000
0030
0203
2000
0000
0300
3200
0002
,
0000
0300
0023
0200
0000
0030
2300
0020
0000
3000
0230
0020
0000
0330
1001
0000
,
1100
0000
0010
1000
0010
0000
0200
0000
0001
0000
0301
0010
0001
0000
0020
0000
,
0100
0000
0130
1000
0100
0000
2000
0000
0010
0000
3010
0100
0010
0000
0100
0000
,
1001
0000
0010
0001
0010
0000
0020
0000
0001
0000
0031
0100
0001
0000
2000
0000
,
0010
0000
3010
0100
0010
0000
0002
0000
0010
0000
0013
0100
0010
0000
1000
0000
,
1001
0000
0200
0010
0000
0000
0320
0100
0000
0000
0230
0010
0301
0000
2000
0100
,
0000
3000
0200
1000
0000
0300
1000
0100
0000
0100
0001
0000
0110
0000
0200
0001
,
0000
0000
0302
0100
0000
0000
0203
0001
0310
0000
0020
0100
0000
0000
0230
1000
,
0000
0000
1300
0010
0000
0100
0001
0000
0110
0000
0010
1000
0000
0100
1000
0000
,
0100
0000
0010
0001
0100
0000
0010
1000
0000
0100
0010
0000
0100
0000
1000
0001
,
0000
1000
0001
0000
0101
0000
0010
0100
0000
1000
0010
0000
0100
0000
0001
1000
,
1010
0000
0100
0001
0000
0010
0100
0000
1000
0000
0001
1000
0000
0001
1000
0000
,
0010
1000
0010
0000
0100
0000
0010
1000
0010
0000
0100
0000
1001
0000
0100
0001
,
0100
0000
0010
0000
0100
0001
0100
0000
0010
0000
0000
1001
0000
0000
1000
0001
,
1000
0000
0010
0000
1000
0001
1000
0000
0010
0000
0110
0000
1001
0000
0000
0010
,
0000
0000
1001
0000
0000
0010
0100
0000
0000
1001
0000
0000
0010
0100
0010
0100
,
0000
0000
0001
0000
1000
0100
1000
0010
0000
0000
0100
0000
0001
0100
0001
0010
,
0000
0000
0100
0000
0010
0001
0010
0100
0000
0000
1000
0000
0010
0100
0010
1000
,
0000
0000
0100
0000
1000
0010
1000
0001
0000
0000
0100
0000
0001
0010
0001
1000
,
0000
0000
0010
0000
0100
1000
0100
0010
0000
0000
0100
0000
1000
0100
1000
0000
,
0010
0000
0100
0000
0001
0010
0001
0000
1000
0000
0100
0000
0001
0100
1000
0000
,
0010
0000
0100
0000
1000
0100
0001
0100
0000
0100
1000
0000
0010
0100
0001
0000
,
0010
0000
0100
0000
1000
0010
0100
0000
0010
0000
1000
0000
0100
0001
0100
0000
,
1000
0000
0010
0000
0001
0010
0001
0010
1000
0010
1000
0010
0001
0000
0200
0001
,
0000
0300
0200
1000
0000
0300
0200
0001
0000
0300
0020
1000
0000
0030
0020
0001
,
0000
0030
0020
1000
0000
0030
1001
0000
0000
0110
0000
0000
0101
0000
0200
1000
,
0000
0300
0020
0001
0000
0030
0200
1000
0000
0300
1001
0000
0000
0000
0020
1000
,
0000
0030
0200
0001
0000
0300
0010
1000
0100
0010
0100
0010
0000
0000
0000
0000
;

//---------------dance-single - ----------------
#NOTES:
     dance-single:
     :
     Challenge:
     10:
     0.850596,0.751935,0.519561,0.114304,0.992362,573.000000,523.000000,50.000000,11.000000,0.000000,0.000000,0.850596,0.751935,0.519561,0.114304,0.992362,573.000000,523.000000,50.000000,11.000000,0.000000,0.000000:
0000
0000
0000
0000
,
0000
0000
0000
0000
,
1001
0000
0100
0010
0001
0000
1000
0100
1000
0000
1000
0010
0110
0000
0010
1000
,
0010
0000
0010
0100
0010
0000
0100
0000
0000
0001
0000
0000
1000
0000
0010
1000
,
0100
0000
1000
0010
0100
0000
0001
1000
1001
0000
1000
0100
1000
0000
1000
0010
,
1000
0000
0001
0000
0000
0100
0000
0000
0010
0000
0100
0001
1000
0000
0100
1000
,
0100
1000
0010
0100
0001
0000
0110
0000
0001
1000
0001
0000
1000
0001
1000
0000
,
0010
0000
0000
1000
0000
0000
1000
0001
0100
0001
0000
0100
0010
1000
0010
0000
,
1000
0100
1000
0000
1100
0000
0010
1000
0010
0000
0010
0001
0010
0000
1000
0100
,
0000
0010
0001
0000
0100
0000
0010
0000
0100
0001
0010
0100
1000
0000
0010
1000
,
0100
0000
1001
0000
0010
1000
0010
0000
1000
0100
1000
0000
0010
0001
0000
1001
,
0000
0000
0100
1000
0100
0000
1000
0000
0010
0100
0010
0000
0100
0001
0100
0000
,
1001
0000
0000
0110
0000
0000
1001
0000
0000
0010
0100
0000
0000
1001
0000
0000
,
0001
0010
0001
0100
0001
0000
1000
0100
1000
0010
1000
0001
1000
0000
0010
0000
,
0100
0001
0100
0010
0100
0000
0010
1000
0010
0100
0010
1000
0010
0000
0100
0000
,
1001
0000
0001
1000
0001
0000
1000
0000
1100
0000
0100
1000
0100
0000
0000
0000
,
1010
0000
0010
0100
0010
0000
0100
0000
0101
0000
0001
0100
0001
0000
1000
0000
,
0001
0010
0001
0100
0001
0000
1000
0000
1000
0010
1000
0001
1000
0100
1000
0000
,
0010
0100
0010
1000
0010
0000
0100
0000
0010
0001
0010
0100
0010
1000
0010
0000
,
1100
0000
0100
1000
0100
0000
1000
0000
1010
0000
0010
0100
0010
0000
0000
0000
,
0101
0000
0001
0010
0001
0000
1000
0000
1100
0000
1000
0010
1000
0000
0000
0000
,
0110
0000
0100
0001
0000
0000
0100
0000
0110
0000
0010
1000
0000
1000
0001
0000
,
1100
0000
0100
0010
0000
0000
0001
0000
0101
0000
0100
0010
0000
0100
1000
0000
,
1001
0000
0010
0100
0000
0000
0100
0000
0101
0000
0001
1000
0000
0001
0100
0000
,
0110
0000
0100
0001
0000
0000
0010
0000
0110
0000
0100
0001
0000
0001
1000
0000
,
0010
1000
0010
1000
0000
0000
0100
0000
0010
0000
0010
0001
0000
0100
0001
0000
,
0100
0001
0100
0001
0000
0000
1000
0000
1000
0000
0010
0100
0000
0000
0110
0000
,
0010
1000
0010
1000
0000
0000
0100
0000
0100
0000
0010
0100
0000
0100
1000
0000
,
1001
0000
0100
0001
0000
0000
0100
0000
0001
1000
0001
1000
0000
0010
0100
0000
,
0001
0000
0000
0000
0110
0000
0000
0000
0000
0000
0000
0000
1000
0000
0020
0000
0000
0000
0000
0000
2030
0000
0002
0003
3100
0000
0000
0000
1000
0000
0100
0000
,
0000
0000
0010
0001
0010
0000
0001
0100
0000
1010
0000
1000
0001
0000
0110
0000
,
0100
0000
0000
0000
0001
0000
1000
0000
0000
0000
0000
0000
0200
0000
0020
0030
0310
0000
0000
0000
0001
0000
0010
0000
0001
0000
0000
0000
1000
0000
0010
0000
,
1000
0000
1000
0100
0000
0100
0001
0000
1100
0000
0020
2000
0030
0000
3200
0002
,
0000
0000
0303
0000
0020
0000
0200
0030
0301
0000
0000
0000
0100
0000
1000
0000
0000
0000
0000
0000
1010
0000
0000
0000
0010
0000
0000
0000
0100
0000
0001
0000
,
1000
0000
0100
0001
1000
0000
0100
1000
0100
0010
0100
0001
0100
1000
0100
0010
,
1001
0000
0010
1000
0010
0000
0100
0000
0001
0000
1000
0010
0000
1000
0010
0000
,
1000
0001
1000
0000
0010
0000
1000
0100
0010
0001
1000
0000
1001
0000
0001
0010
,
0001
0000
0001
0000
1000
0100
1000
0000
1000
0000
0000
0110
0000
0000
0001
0100
,
0010
0100
0010
0000
0100
0001
0100
0000
0010
0000
1000
0000
1100
0000
0000
0101
,
0000
0000
1100
0000
0000
0100
0001
0000
0000
1100
0000
0000
0010
1000
0010
1000
,
0100
0000
0010
0001
0010
0000
0001
0000
0100
0000
0010
0001
0010
0001
0010
1000
,
0100
0000
1000
0010
1000
0000
1010
0000
0000
0101
0000
0000
0100
1000
0100
0001
,
0100
0000
0001
0100
0001
0000
0100
0000
1000
0000
0010
0001
0010
1000
0010
0001
,
0010
0000
1000
0100
1000
0000
0110
0000
0000
0101
0000
0000
0010
1000
0010
0100
,
0000
0000
0100
0001
0100
0010
1000
0100
0000
0000
0100
1000
0100
0010
0100
1000
,
0000
0000
1000
0010
0001
0000
0011
0000
0000
0110
0000
0000
0010
0100
1000
0010
,
0000
0000
0100
0001
1000
0010
1000
0100
0000
0000
0100
1000
0010
0100
0010
0100
,
0000
0000
0100
0001
0010
0100
0010
0100
0010
0001
0010
0001
0100
0000
0010
1000
,
0010
0000
0010
0001
0010
0000
0010
1000
0010
0000
0010
0001
0010
0000
1001
0000
,
0100
0000
1001
0000
0000
0000
0010
0100
0000
0100
0010
0000
1010
0000
0100
1000
,
0100
0000
0100
0001
0100
0000
0100
1000
0100
0000
0100
0001
0100
0000
0010
1000
,
0100
0010
0001
1000
0010
0100
1000
0100
0001
1000
0001
1000
0000
0000
0000
0000
;

//---------------dance-single - ----------------
#NOTES:
     dance-single:
     :
     Medium:
     8:
     0.540344,0.537097,0.446823,0.259781,0.223411,364.000000,321.000000,43.000000,25.000000,0.000000,0.000000,0.540344,0.537097,0.446823,0.259781,0.223411,364.000000,321.000000,43.000000,25.000000,0.000000,0.000000:
0000
0000
0000
0000
,
0000
0000
0000
0000
,
1001
0000
0000
0000
0000
0000
0010
0000
0100
0000
0001
0010
0001
0000
0000
0000
,
0000
0000
0100
0000
1000
0000
0100
0000
0000
0001
0000
0000
1001
0000
0000
0000
,
0000
0010
1000
0100
0010
0000
0000
0100
,
1000
0000
1100
0000
0000
0100
0000
0000
0110
0000
0010
0000
0001
0000
0100
0000
,
0010
1000
0100
1000
0010
1000
0010
0100
,
0001
0000
0000
0001
0000
0000
0001
0000
0010
0000
0000
0000
0100
0000
0010
0000
,
0001
1000
0100
0010
0000
0100
1000
1001
,
0000
0010
0000
0000
1001
0000
0001
0000
1000
0000
0010
0000
0010
0000
0100
0000
,
0001
0000
0010
0000
1000
0000
0010
0000
0001
0000
0100
0000
0010
0000
0000
1000
,
0000
0100
0010
0000
0010
0100
1000
0001
,
1001
0000
0000
1001
0000
0000
1001
0000
0000
1000
0001
0000
0000
1001
0000
0000
,
0010
0100
0000
0100
0001
0100
0000
0100
,
1000
0100
0000
0100
0001
0100
1000
0100
,
1000
0010
0000
0010
0001
0010
0000
0010
,
1000
0010
0000
0010
0100
0010
0001
0010
,
1000
0000
0100
0000
0000
0000
0001
0000
0100
0000
1000
0100
0000
0000
0010
0000
,
0001
0000
0010
0001
0000
0000
1000
0000
0100
0000
0001
0000
0100
0000
1000
0000
,
0010
0000
0100
1000
0000
0000
1000
0000
0100
0000
0001
0010
0000
0000
0010
0000
,
0100
0000
0001
0100
0000
0000
0100
0000
1000
0000
0010
0000
1000
0000
0100
0000
,
0010
0000
0210
0000
0000
0000
2300
0000
0000
0000
3200
0000
0000
0000
0301
0100
,
0000
0000
0001
0100
0000
0000
1001
0000
0000
0000
0110
0000
0000
0000
1000
0000
,
0000
0000
0120
0000
0000
0000
0032
0000
0000
0000
0023
0000
0000
0000
1030
0100
,
0000
0000
1000
0100
0000
0000
1001
0000
0000
0000
0010
0000
0000
0010
0000
0000
,
0100
0201
0000
2300
0000
3200
0000
0301
,
0000
0000
1000
0100
0000
0000
0101
0000
0000
0000
0001
0100
0000
0000
1100
0000
,
0000
1020
0000
0032
0000
0023
0000
2030
,
0000
0000
3001
0010
0000
0000
1010
0000
0000
0000
1000
0010
0000
0000
0011
0000
,
0000
0100
1000
0100
1000
0100
0001
0010
,
0000
0000
0100
0000
1000
0000
0001
0000
0000
0001
0000
0000
0001
0000
1000
0000
,
0000
0000
0100
0000
0001
0000
0100
1000
0100
0000
0010
0000
0000
0000
0100
0000
,
1000
0000
0010
0000
0000
0010
0000
0000
0010
0000
0100
0000
0001
0000
0100
0010
,
0100
0001
1000
0100
0000
0010
0100
0010
,
0000
0001
0000
0000
1000
0000
0100
0000
0000
0000
0010
0000
0100
0000
1000
0100
,
1000
0000
0001
0000
0000
0000
0100
0001
0100
0000
0001
0000
0000
0001
0000
0000
,
0001
1000
0000
0110
0110
0000
0000
1000
,
0001
0000
0000
0000
0110
0000
0110
0000
0001
0000
0000
1000
0000
0000
0001
0000
,
0100
0000
0000
0000
0010
0000
1000
0000
0010
0000
1001
0000
0110
0000
0000
0110
,
0000
0000
0110
0000
0000
0010
0100
0000
0000
0110
0000
0000
0010
0000
1000
0000
,
0010
1000
0010
0001
0010
0100
0010
1000
,
0010
0000
1000
0000
0010
0000
0100
0000
0000
0001
0000
0000
0100
0000
1000
0000
,
0100
1000
0100
0001
0100
0010
0100
1000
,
0100
0000
1000
0000
0100
0000
0001
0000
0000
0010
0000
0000
0001
0000
0010
0000
,
0001
0010
0001
0100
0001
1000
0001
0010
,
0001
0000
0010
0000
0001
0000
1000
0000
0000
0100
0000
0000
0001
0000
0100
0000
,
0000
1000
0010
0100
0000
1000
0100
0001
,
0000
0000
0010
0000
1000
0000
0010
0000
0000
0101
0000
0000
1000
0000
1200
0000
,
0000
0300
1002
0000
0000
0003
0120
0000
0000
0030
0021
0000
0000
0030
1020
0000
,
0000
0030
2100
0000
0000
3000
0100
0010
0000
0100
0010
0000
1000
0000
1200
0000
,
0000
0300
0102
0000
0000
0003
0021
0000
0000
0030
2010
0000
0000
3000
1002
0000
,
0000
0003
0210
0000
0000
0300
0010
0000
1000
0100
1000
0100
0000
0000
0000
0000
;

//---------------dance-single - ----------------
#NOTES:
     dance-single:
     :
     Easy:
     7:
     0.454245,0.483387,0.363693,0.426040,0.129890,306.000000,271.000000,35.000000,41.000000,0.000000,0.000000,0.454245,0.483387,0.363693,0.426040,0.129890,306.000000,271.000000,35.000000,41.000000,0.000000,0.000000:
0000
0000
0000
0000
,
0000
0000
0000
0000
,
1100
0000
0000
0001
0001
0000
0110
0000
,
0000
0000
0010
0000
0001
0000
1000
0000
0000
1000
0000
0000
2000
0000
0000
0000
,
3000
0000
1000
0000
0100
0000
0001
0100
1000
0000
0000
0000
0000
0000
0010
0000
,
0100
0000
0010
0000
0000
1000
0000
0000
0001
0000
0010
0000
0001
0000
0100
0000
,
0001
1000
0000
0100
1000
0100
0010
0001
,
0210
0000
0000
0301
0010
0000
0100
1000
,
0100
0010
0100
1000
0000
0010
0100
0001
,
0000
0001
0000
0000
0001
0000
0101
0000
0000
0000
1000
0000
0100
0000
1100
0000
,
0010
0000
0100
0000
1000
0000
0000
0000
0100
0000
0010
0000
0100
0000
0000
1000
,
0000
1000
0010
0000
0010
0100
0000
0000
,
0110
0000
0000
1001
0000
0000
0110
0000
0000
0000
1001
0000
0000
0110
0000
0000
,
0010
1000
0010
0000
1000
0000
0001
0000
,
0100
1000
0100
0000
0001
0010
0000
0100
,
1000
0010
0000
0100
0001
0000
1000
0000
,
0001
0000
0100
0000
0010
0000
0000
0000
1000
0000
0100
0000
0000
0100
0000
0000
,
0100
0010
0001
0000
1000
0000
0100
0000
,
1000
0010
0100
0000
1000
0100
0000
0001
,
0010
0000
0100
1000
0100
0000
1001
0000
,
0010
0000
0000
0000
0100
0000
0000
0000
0010
0000
0001
0000
0000
0001
0000
0000
,
0001
0200
0000
2300
0000
3200
0000
0302
,
0000
0000
0023
0000
0000
0000
0032
0000
0000
0000
0103
0000
0000
0101
0000
0000
,
0001
2000
0000
3200
0000
0302
0000
0023
,
0000
0000
0032
0000
0000
0000
0203
0000
0000
0000
0310
0000
0000
1010
0000
0000
,
1000
0200
0000
0320
0000
2030
0000
3020
,
0000
0000
0032
0000
0000
0000
2003
0000
0000
0000
3010
0000
0000
1010
0000
0000
,
0100
2000
0000
3200
0000
0302
0000
0023
,
0000
0000
2030
0000
0000
0000
3200
0000
0000
0000
1300
0000
0000
0110
0000
0000
,
0001
0100
0001
0100
0001
0100
1000
0100
,
0000
0100
0001
2000
0000
0000
3010
1000
,
0000
0100
0010
0001
0101
0000
0000
0010
,
1000
0000
0010
0000
0000
0010
0000
0000
0010
0000
0100
0000
0000
0000
0001
0000
,
1000
0000
0100
1000
0200
0000
0000
0000
1300
0000
0010
0000
0100
0000
0010
0000
,
0000
0010
0000
0000
0010
0000
1000
0000
0000
0000
0001
0000
1000
0000
0000
0000
,
0100
0000
0010
0001
1000
1200
0000
0000
,
0310
0100
0000
1000
0001
1000
0000
0010
,
0100
0000
0000
0000
0001
0000
0010
0000
0100
0000
0000
0100
0000
0000
0100
0000
,
0010
0000
0000
0000
0001
0000
1000
0000
0100
0000
0000
0000
1100
0000
0000
0011
,
0000
0000
1100
0000
0000
0000
0011
0000
0000
1100
0000
0000
0001
0000
1000
0000
,
0001
0000
1000
0000
0100
0000
0001
0100
,
0001
0000
0000
0000
0100
0000
1000
0000
0000
0010
0000
0000
0100
0000
1000
0000
,
0100
0000
0001
0000
0010
0000
0001
0100
,
0001
0000
0000
0000
0010
0000
1000
0000
0000
0010
0000
0000
0001
0000
0100
0000
,
0001
0000
1000
0000
0100
0000
1000
0010
,
0100
0000
0000
0000
0001
0000
1000
0000
0000
0010
0000
0000
0100
0000
0000
0000
,
1000
0100
0001
0000
0010
0000
1100
0000
,
0010
0001
0010
1000
0001
0100
0010
0210
,
0000
0300
0201
0000
0000
0300
0210
0000
0000
0300
1200
0000
0000
0300
0210
0000
,
0000
0300
0201
0000
0000
0000
0010
0000
0000
0010
0000
0000
0310
0000
1020
0000
,
0000
0030
0120
0000
0000
0030
0021
0000
0000
0030
0120
0000
0000
0030
1020
0000
,
0000
0030
0120
0000
0000
0030
1000
0000
0010
0100
0010
0100
0000
0000
0000
0000
;

//---------------dance-single - ----------------
#NOTES:
     dance-single:
     :
     Beginner:
     3:
     0.241967,0.294332,0.353302,0.041565,0.000000,163.000000,129.000000,34.000000,4.000000,0.000000,0.000000,0.241967,0.294332,0.353302,0.041565,0.000000,163.000000,129.000000,34.000000,4.000000,0.000000,0.000000:
0000
0000
0000
0000
,
0000
0000
0000
0000
,
1001
0000
0010
0010
,
0000
0100
0000
1001
,
0000
0110
0110
0000
,
0001
0001
0001
0000
,
0110
0110
0000
0000
,
1001
0000
0000
0010
,
0000
1001
0000
0010
,
0000
0100
0000
1000
,
1000
0000
0000
0110
,
0000
0000
0001
0000
,
0220
0000
0330
0000
,
0010
0010
0010
0010
,
0010
0010
0010
0000
,
1000
1000
1000
1000
,
1000
1000
1000
0000
,
0100
0100
0100
0100
,
0100
0100
0100
0000
,
0001
0001
0001
0001
,
0001
0001
0001
0000
,
0110
0000
1001
0000
,
0010
0010
0010
0000
,
1001
0000
0110
0000
,
1000
1000
1000
0000
,
1001
0000
0110
0000
,
0100
0100
0100
0000
,
0110
0000
1001
0000
,
0001
0001
0001
0001
,
0001
0000
0100
0100
,
0000
1000
0000
1000
,
0000
0001
0001
0000
,
0000
0110
0110
0000
,
0000
0010
0000
0100
,
0100
0100
0000
1001
,
1001
0000
0000
0000
,
0010
0000
0110
0000
,
0000
1000
1000
0000
,
0000
0110
0000
2002
,
0000
3003
0000
0010
,
0010
0010
0010
0010
,
0010
0010
0000
0001
,
0001
0001
0001
0001
,
0001
0001
0000
0100
,
0100
0100
0100
0100
,
0100
0100
0000
1000
,
1000
1000
1000
1000
,
1000
1000
0000
0110
,
0000
1001
0000
0110
,
0000
1001
0000
1001
,
0000
0110
0000
1001
,
0000
0110
0110
0000
;

//---------------dance-double - ----------------
#NOTES:
     dance-double:
     :
     Easy:
     6:
     0.353302,0.375968,0.155868,0.498779,0.010391,238.000000,223.000000,15.000000,48.000000,0.000000,0.000000,0.353302,0.375968,0.155868,0.498779,0.010391,238.000000,223.000000,15.000000,48.000000,0.000000,0.000000:
00000000
00000000
00000000
00000000
,
00000000
00000000
00000000
00000000
00000000
00000000
00000000
00000100
,
00001000
00000000
00000000
00010000
00100000
00000000
11000000
00000000
,
00000000
01000000
00100000
00010000
00000000
00000000
00011000
00000000
,
00000000
00000100
00001000
00000100
00000010
00000000
00000000
00000001
,
00000100
00000002
00000000
00000000
00001003
00000000
00000100
00000000
,
00011000
00000000
00100000
01000000
10000000
00000000
01000000
10000000
,
00010000
00000000
00000000
00100000
00010000
00000000
00100000
00010000
,
00000000
00000000
00011000
00000000
00000000
00000100
00001000
00000010
,
00000000
00000000
00000101
00000000
00000000
00000010
00000001
00000000
,
00001001
00011000
00000000
00000000
00100000
00010000
01000000
00000000
,
00000000
10100000
00000000
00000000
10000000
01000000
00100000
00010000
,
00000100
00000000
00000000
00000100
00000000
00000000
00000100
00000000
00000000
00000000
00001001
00000000
00000000
00000000
00000000
00000000
,
00000100
00000010
00000001
00000000
00000100
00000000
00000010
00000000
,
00010000
00001000
00010000
00001000
00000000
00000000
00100000
00000000
,
01000000
00100000
00010000
00000000
10000000
00000000
01000000
00000000
,
00100000
00001000
00100000
00001000
00000000
00000000
00010000
00000000
,
00000010
00001000
00000000
00000010
00001000
00000000
00000000
00000000
,
00000001
00000100
00000000
00000100
00000010
00000000
00011000
00000000
,
00010000
00001000
00000000
00010000
00001000
00000000
00100000
00000000
,
00010000
10000000
00000000
10000000
01000000
00000000
00000000
00000000
,
00200000
00020000
00300000
00032000
00000000
00003200
00000000
00002300
,
00000000
00023000
00000000
00230000
00000000
02300000
00000000
13000000
,
00100000
02000000
00000000
03020000
00000000
00032000
00000000
00003020
,
00000000
00000032
00000000
00000203
00000000
00000320
00000000
00001030
,
00000100
00200000
00000000
00320000
00000000
00032000
00000000
00023000
,
00000000
00230000
00000000
02300000
00000000
23000000
00000000
31000000
,
00010000
00002000
00000000
00003200
00000000
00000302
00000000
00002003
,
00000000
00023000
00000000
20030000
00000000
30200000
00000000
01300000
,
00100000
00000000
00000000
01000000
01000000
00000000
00010000
00000000
,
00000000
00010000
00100000
00001000
00000000
00000000
00011000
00000000
,
00000000
00000010
00000010
00000000
00000101
00000000
00000000
00000010
,
00000100
00001000
00000000
00000000
00110000
00000000
00000000
01000000
,
10000000
00000000
01100000
00000000
00000000
00001000
00010000
00001000
,
00000000
00000000
00011000
00000000
00000000
00000100
00000100
00001000
,
00000001
00000000
00000000
00000010
00000100
00001000
00000000
00000000
,
00020000
00000000
00000000
00100000
00130000
00000000
00000000
02000000
,
00000000
00000000
10000000
13000000
00000000
00000000
00000000
00200000
,
00000000
00000000
00000000
00000000
00001000
00000000
00301000
00000000
00000000
00000000
00000000
00000000
00010000
00000000
00000000
00010000
,
00000000
00010000
00000000
00010000
00000000
00000000
00000010
00001000
,
00000001
00000000
00000100
00000000
00000010
00000000
00010000
00001000
,
00100000
00000000
00010000
00000000
01000000
00000000
00100000
10000000
,
01000000
00000000
00100000
00000000
00001000
00000000
00010000
00000100
,
00001000
00000000
00000010
00000000
00000100
00000000
00000001
00000100
,
00001000
00000000
00010000
00000000
00100000
00000000
10000000
01000000
,
00010000
00000000
00001000
00000000
00000010
00000000
00000001
00001000
,
00000010
00000000
00010000
00000000
00100000
00000000
10000000
01000000
,
00100000
00000000
00001000
00000000
00100000
00000000
00010000
02000000
,
00000000
03200000
00000000
00320000
00000000
00032000
00000000
00003020
,
00000000
00000230
00000000
00002300
00000000
00003000
00000010
00002000
,
00000000
00003200
00000000
00000320
00000000
00002030
00000000
00023000
,
00000000
00000000
00230000
00000000
00000000
00000000
02300000
00000000
20000000
00000000
00000000
33000000
00000000
00000000
00000000
00000000
;

//---------------dance-double - ----------------
#NOTES:
     dance-double:
     :
     Medium:
     8:
     0.497295,0.483387,0.311737,0.000000,0.228607,335.000000,305.000000,30.000000,0.000000,0.000000,0.000000,0.497295,0.483387,0.311737,0.000000,0.228607,335.000000,305.000000,30.000000,0.000000,0.000000,0.000000:
00000000
00000000
00000000
00000000
,
00000000
00000000
00000000
00000000
,
11000000
00000000
00000000
00100000
01000000
00010000
00110000
00000000
,
00000000
00000000
00001000
00000000
00010000
00000000
00000010
00000000
00000000
00000010
00000000
00000000
00000010
00000000
00000000
00000000
,
00000000
00000100
00000001
00000011
00001100
00000000
00000000
00010000
,
00001000
00000000
01000000
00000000
00000000
01000000
00000000
00000000
01000000
00000000
00000000
00000000
00100000
00000000
10000000
00000000
,
01000000
00100000
00010000
10000000
10000000
00000000
10000000
10000000
,
00010000
00000000
00000000
00010000
00000000
00000000
00010000
00000000
00000000
00000000
00000000
00000000
00010000
00000000
00000100
00000000
,
00010000
00000100
00000010
00000000
00000000
00000001
00000100
00000010
,
00000000
00000010
00000000
00000000
00000010
00000000
00000000
00000000
00000000
00000000
00001000
00000000
00000100
00000000
00001000
00000000
,
00000010
00000000
00011000
00000000
00000000
00100000
00010000
00100000
,
00000000
00100000
00000000
00000000
00100000
00000000
00000000
00000000
01000000
00000000
10000000
00000000
01000000
00000000
00100000
00000000
,
00011000
00000000
00000000
00001000
00000000
00000000
00010000
00000000
00000000
00001000
00010000
00000000
00000000
00001000
00000000
00000000
,
00010000
00000100
00001000
00000000
00000010
00000000
00000010
00000000
,
00000100
00000001
00000010
00000000
00000100
00001000
00000010
00010000
,
00001000
00100000
00010000
00000000
01010000
00000000
11000000
00000000
,
00100000
10000000
00100000
00000000
10000000
01000000
00100000
00010000
,
00000010
00001000
00000010
00000000
00000100
00000000
00000100
00000000
,
00000001
00000010
00000100
00000000
00000001
00001000
00000100
00010000
,
00001000
00100000
00010000
00000000
01100000
00000000
00011000
00000000
,
00000100
00010000
00001000
00100000
00010000
01000000
00100000
00000000
,
10000000
00000000
01000000
10000000
00000000
00000000
01000000
10000000
00000000
00000000
00100000
01000000
00000000
00000000
00100000
01000000
,
00000000
00000000
00010000
00100000
00000000
00000000
00010000
00100000
00000000
00000000
00001000
00010000
00000000
00000000
00001000
00010000
,
00000000
00011000
00000000
00001100
00000000
00000110
00000000
00000011
,
00000000
00000000
00000001
00000010
00000000
00000000
00000100
00001000
00000000
00000000
00000010
00001000
00000000
00000000
00000100
00010000
,
00000000
00000000
00011000
00000000
00000000
00000000
00001000
00100000
00000000
00000000
00001000
00100000
00000000
00000000
00010000
01000000
,
00000000
00000000
00010000
01000000
00000000
00000000
00001000
00010000
00000000
00000000
00001000
00010000
00000000
00000000
00000100
00001000
,
00000000
00011000
00000000
00000110
00000000
00000101
00000000
00001100
,
00000000
00000100
00010000
00001000
01000000
00100000
10000000
01000000
,
00100000
00000000
00010000
00000000
00000000
00000000
00010000
00100000
00000000
00000000
11000000
00000000
00100000
00000000
01000000
00000000
,
00100000
00000000
01000000
00000000
00010000
00000000
00100000
00000000
00000000
00001000
00000000
00000000
00100000
00000000
00001000
00000000
,
00000000
00011000
00000000
00010100
00000010
00000100
00000000
00000101
,
00000000
00000000
00001000
00000000
00000000
00000010
00000000
00000000
00001000
00000000
00000100
00000000
00010000
00000000
00001000
00000000
,
00100000
00010000
01000000
00100000
00000000
10000000
01000000
00100000
,
00000000
00010000
00000000
00000000
00110000
00000000
00000000
00000000
00000000
00000000
00001000
00010000
00001000
00000000
00010000
00000000
,
00000100
00000000
00001000
00000000
00000000
00000000
00000010
00000100
00000010
00000000
00000001
00000000
00000000
00001000
00000000
00000000
,
00001001
00000000
00000000
00000100
00010000
00000000
00000000
01100000
,
00000000
00000000
00000000
00000000
00100000
00000000
10000000
00000000
10100000
00000000
00000000
01010000
00000000
00000000
00110000
00000000
,
00000000
00000000
00000000
00000000
00100000
00000000
00001000
00000000
00000000
00000000
00000000
00000000
00011000
00000000
00000000
00010000
,
00000000
00000000
00001000
00000000
00000000
00010000
00001000
00000000
00000000
00010000
00000000
00000000
00000100
00000000
00001000
00000000
,
00000010
00000000
00000100
00000001
00000010
00000000
00001000
00000100
,
00010000
00000000
00001000
00000000
01000000
00000000
00100000
00000000
00000000
00100000
00000000
00000000
00100000
00000000
10000000
00000000
,
01000000
00000000
00100000
00010000
00100000
00000000
00001000
00010000
,
00000010
00000000
00001000
00000000
00000100
00000000
00000000
00000100
00000000
00000000
00000100
00000000
00001000
00000000
00000010
00000000
,
00000100
00000000
00000010
00010000
00000010
00000000
00001000
00000100
,
00010000
00000000
00001000
00000000
01000000
00000000
00100000
00000000
00000000
00100000
00000000
00000000
00100000
00000000
10000000
00000000
,
01000000
00000000
00100000
00001000
00010000
00000000
00000100
00001000
,
00000010
00000000
00000100
00000000
00000001
00000000
00000010
00000000
00000000
00000010
00000000
00000000
00000010
00000000
00000100
00000000
,
00001000
00000000
00000100
00010000
00001000
00000000
00100000
00010000
,
00100000
00000000
00010000
01000000
00100000
00000000
10000000
01000000
,
00100000
00000000
00010000
00100000
00010000
00000000
00100000
00001000
,
00010000
00000000
00000000
00000000
00000100
00000000
00001000
00000000
00000001
00001000
00000001
00001000
00000000
00000000
00000000
00000000
;

//---------------dance-double - ----------------
#NOTES:
     dance-double:
     :
     Hard:
     10:
     0.776373,0.751935,0.374084,0.000000,0.971580,523.000000,487.000000,36.000000,0.000000,0.000000,0.000000,0.776373,0.751935,0.374084,0.000000,0.971580,523.000000,487.000000,36.000000,0.000000,0.000000,0.000000:
00000000
00000000
00000000
00000000
,
00000000
00000000
00000000
00000000
,
00000011
00000000
00000000
00000000
00000000
00000000
00000100
00000000
00001000
00000000
00000100
00010000
00110000
00000000
00000000
00000000
,
00000000
00000000
01000000
10000000
01000000
00000000
10000000
00100000
00000000
01000000
00010000
00000000
00110000
00000000
00000000
00000000
,
00000000
00000000
00010000
00000000
00000010
00000000
00001000
00000100
00001000
00000000
00000000
00000000
00000010
00000000
00000100
00000001
,
00000100
00000000
00000010
00000000
00000000
00000010
00000000
00000000
00000010
00001000
00000010
00000000
00000000
00000000
00010000
00000000
,
00001000
00100000
00010000
00100000
00010000
00000000
10000000
01000000
10000000
00000000
00100000
00000000
01000000
00010000
01000000
00010000
,
01000000
00000000
00000000
10010000
00000000
00000000
00100000
00000000
00000000
00000000
00000000
00000000
01000000
00010000
01000000
00000000
,
00001000
00000000
00010000
00000000
00010100
00000000
00000000
00000000
00000000
00000000
00001000
00000100
00001000
00000000
00000001
00000010
,
00000000
00000010
00000100
00000000
00001100
00000000
00000000
00000000
00000000
00000000
00000010
00001000
00000100
00010000
00001000
00000000
,
00100000
00000000
00010000
01000000
00010000
01000000
00010000
00000000
10000000
01000000
10000000
00000000
00010000
00000000
00000000
11000000
,
00000000
00000000
00100000
01000000
00010000
00000000
00000000
00000000
00100000
00000000
00001000
00010000
00001000
00010000
00001000
00000000
,
00010100
00000000
00000000
00011000
00000000
00000000
01001000
00000000
00000000
00001000
00010000
00000000
00000000
00010100
00000000
00000000
,
00001000
00000100
00001000
00000010
00000000
00000000
00000100
00000000
00000001
00000010
00000100
00001000
00000000
00000000
00000100
00000000
,
00010000
00001000
00010000
00000100
00000000
00000000
00010000
00000000
00001000
00100000
00001000
01000000
00000000
01000000
00010000
00000000
,
10000000
01000000
00100000
00010000
00000000
00000000
00100000
00000000
00001000
00010000
00001000
00100000
00000000
00000000
00001000
00000000
,
00010000
00000010
00001000
00000100
00000000
00000000
00000010
00000000
00000001
00001000
00000100
00001000
00000000
00000000
00000010
00000000
,
00000100
00000001
00000100
00000010
00000000
00000000
00001000
00000000
00000100
00010000
00000100
00001000
00000000
00000000
00010000
00000000
,
00001000
00100000
00010000
01000000
00000000
00000000
00100000
00000000
10000000
00000000
01000000
00100000
00000000
00100000
00010000
00000000
,
01000000
00010000
01000000
00100000
00000000
00000000
10000000
00000000
00010000
00100000
01000000
00100000
00000000
00000000
00001000
00000000
,
00010000
00000100
00010000
00001000
00000000
00000000
00000010
00000000
00000100
00000001
00000100
00000010
00001000
00000010
00000100
00000001
,
00001000
00000000
00000001
00000010
00000000
00000000
00001000
00000100
00000000
00000000
00010000
00001000
00000000
00000000
00100000
00010000
,
00000000
00000000
01000000
10000000
00000000
00000000
01010000
00000000
00000000
00000000
00110000
00000000
00000000
00011000
00000000
00000000
,
00001100
00000000
00010000
00001000
00000000
00000000
01000000
00010000
00000000
00000000
10000000
00100000
00000000
00000000
00100000
00010000
,
00000000
00000000
00010000
00001000
00000000
00000000
00001000
00000010
00000000
00000000
00000011
00000000
00000000
00000110
00000000
00000000
,
00001100
00000000
00000010
00010000
00000000
00000000
00001000
00100000
00000000
00000000
00010000
01000000
00000000
00000000
00100000
01000000
,
00000000
00000000
00001000
00010000
00000000
00000000
00010100
00000000
00000000
00000000
00000110
00000000
00000000
00000101
00000000
00000000
,
00001001
00000000
00000010
00000100
00000000
00000000
00000001
00000010
00000000
00000000
00000010
00001000
00000000
00000000
00001000
00010000
,
00000000
00000000
00010000
00100000
00000000
00000000
00100000
10000000
00000000
00000000
10010000
00000000
00000000
01010000
00000000
00000000
,
10100000
00000000
00100000
10000000
00100000
00000000
01000000
00010000
01000000
00000000
00100000
00000000
11000000
00000000
00010000
00100000
,
00010000
00000000
00100000
00001000
00100000
00000000
00001000
00000000
00000000
00010000
00000000
00000000
00001000
00000000
00010000
00000100
,
00010000
00000000
00000010
00000100
00000010
00000000
00000100
00000000
00000001
00000010
00000001
00000000
00001000
00000100
00001000
00000000
,
00000010
00010000
00000010
00000000
00000000
00001010
00000000
00000000
00011000
00000000
00000000
00000000
00001000
00010000
00001000
00000000
,
00100000
00010000
00100000
00010000
01000000
00000000
00100000
10000000
00100000
00000000
10000000
01000000
10000000
00000000
00010000
00000000
,
00000000
10010000
00000000
00000000
10000000
00000000
00100000
01000000
00100000
00000000
01000000
00010000
01000000
00000000
00001000
00000000
,
00010000
00000010
00010000
00000000
00000010
00000100
00000010
00000000
00000100
00000001
00000100
00000000
00000000
00000011
00000000
00000000
,
00001000
00000100
00001000
00000100
00000000
00000000
00010000
00000000
00001000
00010000
00001000
00010000
00000000
00000000
01000000
00100000
,
01000000
00100000
00000000
00000000
10000000
00000000
00010000
00100000
00010000
01000000
00000000
00100000
10000000
00000000
00100000
01000000
,
00100000
01000000
00000000
00000000
00001000
00000000
00010000
00001000
00010000
00001000
00010000
00000000
00010010
00000000
00000000
00011000
,
00000000
00000000
00101000
00000000
00000000
00001000
00010000
00000000
00000000
00010010
00000000
00000000
00000100
00001000
00000100
00001000
,
00000100
00000010
00000100
00000010
00000100
00000000
00010000
00000000
00001000
00000000
00100000
00000000
00010000
01000000
00010000
01000000
,
00010000
00100000
00010000
00100000
00010000
00000000
10000000
00010000
00000000
00010000
01000000
00000000
00100000
10000000
00100000
10000000
,
00100000
01000000
00100000
01000000
00100000
00000000
01000000
00000000
00001000
00000000
00010000
00000000
00000010
00001000
00000010
00001000
,
00000010
00000001
00000010
00000001
00000010
00000000
00001000
00000001
00000000
00000001
00000100
00000000
00000001
00000010
00000001
00000010
,
00000001
00001000
00000001
00001000
00000001
00000000
00001000
00000000
00000100
00000000
00010000
00000000
00001000
00010000
00001000
00010000
,
00001000
00100000
00001000
00100000
00001000
00000000
01000000
00010000
00000000
00010000
10000000
00000000
10000000
01000000
10000000
01000000
,
10000000
00100000
10000000
00100000
10000000
00000000
00010000
00000000
01000000
00000000
00100000
00000000
01000000
00010000
01000000
00010000
,
01000000
00100000
01000000
00100000
01000000
00000000
00010000
00100000
00001000
00010000
00001000
00000000
00010100
00000000
00000010
00001000
,
00000100
00000000
00000100
00001000
00000010
00000000
00000010
00000100
00000001
00000000
00000001
00001000
00000100
00000000
00000100
00010000
,
00001000
00000000
00001000
01000000
00100000
00000000
00100000
10000000
00000000
10000000
01000000
00000000
10010000
00000000
00100000
10000000
,
01000000
00000000
01000000
00100000
00010000
00000000
00010000
01000000
00001000
00000000
00001000
00010000
00000010
00000000
00000010
00001000
,
00000100
00000000
00000100
00000010
00000001
00000000
00000001
00001000
00000100
00000010
00000001
00000010
00000000
00000000
00000000
00000000
;

//---------------dance-double - ----------------
#NOTES:
     dance-double:
     :
     Challenge:
     10:
     0.887708,0.805645,0.228607,0.031174,1.262534,598.000000,576.000000,22.000000,3.000000,0.000000,0.000000,0.887708,0.805645,0.228607,0.031174,1.262534,598.000000,576.000000,22.000000,3.000000,0.000000,0.000000:
// measure 0
00000000
00000000
00000000
00000000
,  // measure 1
00000000
00000000
00000000
00000000
,  // measure 2
01001000
00000000
00000000
00000000
00000000
00000000
00010000
00001000
00010000
00000100
00001000
00000010
00000100
00000000
00000001
00000000
,  // measure 3
00000000
00000000
00001000
00000010
00001000
00000000
00001000
00000100
00000000
00000100
00010000
00000000
00011000
00000000
00000000
00000000
,  // measure 4
00000000
00000000
00100000
00010000
01000000
00100000
10000000
01000000
00200000
00000000
00000000
00000000
00300000
00000000
00001000
00010000
,  // measure 5
00001000
00000000
00010000
00000100
00000000
00000100
00001000
00000000
00000001
00001000
00000100
00001000
00000010
00010000
00001000
00100000
,  // measure 6
00010000
01000000
00100000
10000000
01000000
00000000
10000000
00100000
10000000
00100000
00000000
00000000
01000000
00000000
00010000
00100000
,  // measure 7
00010000
00100000
00000000
00100000
00001000
00000000
00010000
00001000
00010000
00001000
00000000
00000000
00010000
00000000
00000100
00001000
,  // measure 8
00000100
00001000
00000000
00000000
00000220
00000000
00000000
00000000
00000330
00000000
00000001
00001000
00000001
00000000
00000100
00000010
,  // measure 9
00000000
00001000
00000100
00000000
00000010
00000001
00000010
00000001
00001000
00000100
00001000
00000100
00010000
00001000
00010000
00001000
,  // measure 10
00010000
00000000
00011000
00000000
00000000
00000000
00000000
00000000
00001000
00100000
00001000
00000000
01000000
00010000
00000000
00010000
,  // measure 11
10000000
00000000
00100000
10000000
00100000
01000000
00100000
00000000
01000000
00000000
00010000
00000000
00100000
01000000
00100000
00000000
,  // measure 12
10010000
00000000
00000000
01100000
00000000
00000000
10010000
00000000
00000000
00100000
01000000
00000000
00000000
00011000
00000000
00000000
,  // measure 13
00010000
00000100
00010000
00000100
00000000
00000000
00001000
00000010
00000100
00000001
00000100
00000001
00000000
00000000
00000001
00000010
,  // measure 14
00000100
00001000
00000100
00001000
00000000
00000000
00000100
00010000
00001000
00010000
00001000
00010000
00000000
00000000
00100000
00010000
,  // measure 15
01000000
00100000
01000000
00100000
00000000
00000000
10000000
00010000
00100000
01000000
00100000
01000000
00000000
00000000
00100000
00001000
,  // measure 16
00010000
00000100
00010000
00000100
00000000
00000000
00001000
00000010
00000100
00000001
00000100
00000001
00000000
00000000
00000010
00000100
,  // measure 17
00001000
00000001
00001000
00000001
00000000
00000000
00000010
00010000
00000100
00010000
00000100
00010000
00000000
00000000
00001000
00100000
,  // measure 18
00010000
01000000
00010000
01000000
00000000
00000000
00100000
10000000
01000000
10000000
01000000
10000000
00000000
00000000
00100000
01000000
,  // measure 19
00010000
00100000
00001000
00010000
00000000
00000000
00000100
00001000
00000010
00000100
00000010
00001000
00000000
00000000
00000001
00000010
,  // measure 20
00000100
00000010
00000001
00001000
00000000
00000000
00000100
00010000
00001000
00100000
00010000
01000000
00100000
00000000
10000000
00000000
,  // measure 21
11000000
00000000
00100000
01000000
00100000
00000000
00100000
10000000
00100000
00000000
01000000
00010000
01000000
00000000
01000000
00001000
,  // measure 22
01000000
00000000
00001000
00010000
00001000
00000000
00001000
00100000
00001000
00000000
00010000
00000100
00000000
00000100
00001000
00000000
,  // measure 23
00000010
00000000
00000100
00000001
00000100
00000000
00000100
00000010
00000100
00000000
00000001
00000010
00000001
00000000
00000001
00001000
,  // measure 24
00000001
00000000
00001000
00000100
00001000
00000000
00001000
00000010
00001000
00000000
00000100
00010000
00000000
00010000
00001000
00000000
,  // measure 25
00100000
00000000
00010000
01000000
00100000
00000000
00100000
10000000
01000000
00000000
01000000
10000000
00100000
00000000
00100000
01000000
,  // measure 26
00010000
00000000
00010000
00100000
00001000
00000000
00001000
00010000
00000100
00000000
00000100
00001000
00000000
00001000
00000010
00000000
,  // measure 27
00000100
00000000
00000001
00001000
00000100
00000000
00000100
00010000
00001000
00000000
00001000
00100000
00010000
00000000
00010000
01000000
,  // measure 28
00100000
00000000
00100000
10000000
01000000
00000000
01000000
00100000
00010000
00000000
00010000
10000000
00000000
00100000
01000000
00000000
,  // measure 29
01100000
00000000
01000000
00010000
01000000
00000000
00010000
00100000
00010000
00000000
00100000
00001000
00010000
00000000
00000100
00001000
,  // measure 30
00000100
00000000
00001000
00000010
00001000
00000000
00000010
00000000
00000000
00000101
00000000
00000000
00001000
00000000
00000010
00001000
,  // measure 31
00000010
00000000
00010000
00001000
00010000
00000000
00001000
01000000
00100000
00000000
10000000
01000000
00100000
00000000
00010000
01000000
,  // measure 32
00100000
00000000
10000000
00000000
00000000
01010000
00000000
00000000
00101000
00000000
00010000
00000010
00001000
00000000
00000010
00000100
,  // measure 33
00000001
00000000
00000010
00000100
00001000
00000000
00000010
00000100
00010000
00000000
00001000
01000000
00010000
00000000
01000000
00100000
,  // measure 34
00000000
01000000
00100000
00000000
10010000
00000000
00100000
01000000
00100000
00000000
10000000
00010000
10000000
00010000
10000000
00000000
,  // measure 35
00011000
00000000
00000100
00010000
00000100
00000000
00001000
00000010
00001000
00000000
00000001
00000000
00000000
00001100
00000000
00000000
,  // measure 36
00000001
00000010
00000100
00001000
00010000
00100000
01000000
10000000
00100000
01000000
00010000
00100000
00010000
00000000
10000000
01000000
,  // measure 37
00100000
00010000
00001000
00000100
00000010
00000001
00000100
00000010
00000100
00000001
00000000
00000001
00001000
00000000
00000001
00000100
,  // measure 38
00000010
00001000
00000100
00010000
00001000
00100000
00010000
10000000
01000000
00100000
01000000
00000000
10010000
00000000
00000000
00011000
,  // measure 39
00000000
00000000
00001001
00000000
00000000
00000100
00010000
00000000
00000000
00011000
00000000
00000000
00010000
00100000
00010000
00100000
,  // measure 40
01000000
10000000
01000000
10000000
00100000
01000000
00100000
01000000
00010000
00100000
00010000
00100000
00001000
00010000
00001000
00010000
,  // measure 41
00000100
00001000
00000100
00001000
00000010
00000000
00000100
00000000
00000000
00000001
00000000
00000000
00001000
00000010
00001000
00000010
,  // measure 42
00000100
00000001
00000100
00000001
00000010
00000100
00000010
00000100
00010000
00001000
00010000
00001000
00100000
00010000
00100000
00010000
,  // measure 43
01000000
00100000
01000000
00100000
10000000
00010000
10000000
00000000
00000000
00010000
00000000
00000000
01000000
00001000
01000000
00001000
,  // measure 44
00010000
00000100
00010000
00000100
00001000
00000010
00001000
00000010
00000100
00000001
00000100
00000001
00001000
00000100
00001000
00000100
,  // measure 45
00010000
00001000
00010000
00001000
00100000
00001000
00100000
00000000
00000000
00001000
00000000
00000000
00010000
00001000
00010000
00001000
,  // measure 46
01000000
00010000
01000000
00010000
00100000
00001000
00100000
00001000
01000000
00100000
01000000
00100000
10000000
00100000
10000000
00100000
,  // measure 47
01000000
00001000
01000000
00001000
01000000
00100000
01000000
00000000
00000000
00010000
00000000
00000000
00101000
00000000
00010000
00000100
,  // measure 48
00010000
00000000
00010000
00001000
00010000
00000000
00000100
00001000
00000100
00000000
00000100
00010000
00000100
00000000
00001000
00000010
,  // measure 49
00001000
00000000
00001000
00000001
00001000
00000000
00000001
00000100
00000000
00000100
00000010
00000000
00001100
00000000
00010000
00001000
,  // measure 50
00010000
00000000
00010000
00000010
00010000
00000000
00001000
00010000
00001000
00000000
00001000
00100000
00001000
00000000
01000000
00010000
,  // measure 51
01000000
00000000
01000000
00100000
01000000
00000000
00100000
10000000
00010000
00100000
00001000
00010000
00000000
00000000
00000000
00000000
;
