#TITLE:PARANOiA Dreams;
#SUBTITLE:;
#ARTIST:DC17;
#TITLETRANSLIT:;
#SUBTITLETRANSLIT:;
#ARTISTTRANSLIT:;
#GENRE:Drum'n'Bass;
#CREDIT:;
#BANNER:paranoidreams-bn.png;
#BACKGROUND:paranoiadreams-bg.png;
#LYRICSPATH:;
#CDTITLE:;
#MUSIC:PARANOiA DREAMS.ogg;
#OFFSET:0.000000;
#SAMPLESTART:11.270000;
#SAMPLELENGTH:12.000000;
#SELECTABLE:YES;
#BPMS:0.000000=170.000000
,32.000000=340.000000
,272.000000=170.000000
,280.000000=340.000000
,344.000000=21.250000
,345.000000=340.000000
;
#STOPS:
;
#BGCHANGES:;
#KEYSOUNDS:;
#ATTACKS:;

//---------------dance-single - ----------------
#NOTES:
     dance-single:
     :
     Hard:
     10:
     0.824562,0.916922,0.533109,0.041008,0.041008,563.000000,511.000000,52.000000,4.000000,0.000000,0.000000,0.824562,0.916922,0.533109,0.041008,0.041008,563.000000,511.000000,52.000000,4.000000,0.000000,0.000000:
// measure 0
0000
0000
0000
0000
,  // measure 1
0000
0000
0000
0000
,  // measure 2
0000
0000
0000
0000
,  // measure 3
0000
0000
0000
0000
0000
0000
0000
0010
,  // measure 4
0100
0000
0000
1000
0001
0000
0000
0000
,  // measure 5
0110
0000
0000
1000
0100
0000
0000
0010
,  // measure 6
0001
0000
0000
0100
0010
0000
0000
0000
,  // measure 7
1010
0000
0000
0000
0101
0000
0000
0000
0001
0000
1000
0000
0001
1000
0001
1000
,  // measure 8
0001
0000
0010
0000
0100
0000
0000
1000
,  // measure 9
0010
0100
0001
0000
1000
0000
0000
0000
,  // measure 10
0010
0000
0100
0000
1000
0000
0000
0100
,  // measure 11
0010
0001
0100
0000
0010
0000
0000
0000
,  // measure 12
0100
1000
0000
0100
,  // measure 13
1000
0000
0010
0100
,  // measure 14
0001
0000
0010
0000
0001
0000
0000
0100
,  // measure 15
0010
1000
0100
0000
0010
0000
0100
0000
,  // measure 16
1000
0010
0000
0010
,  // measure 17
0001
0000
0010
1000
,  // measure 18
0100
0000
0010
0000
0001
0000
0000
0100
,  // measure 19
0001
1000
0010
0000
1000
0000
0100
0000
,  // measure 20
0001
0100
0000
0100
,  // measure 21
1000
0000
0010
0100
,  // measure 22
0001
0000
0100
0000
0010
0000
0000
1000
,  // measure 23
0001
0100
0010
0000
1000
0000
0000
0000
,  // measure 24
1010
1001
0000
0101
,  // measure 25
1001
0000
0010
0100
,  // measure 26
0010
0000
1000
0000
0001
0000
0000
0100
,  // measure 27
0010
0100
0010
0000
1000
0000
0000
0000
,  // measure 28
1010
0110
0000
0101
,  // measure 29
0110
0000
0001
1000
,  // measure 30
0001
0000
0100
0000
1000
0000
0000
0100
,  // measure 31
0001
0100
0001
0000
1000
0000
0100
0000
,  // measure 32
1100
1010
0000
0101
,  // measure 33
0011
0000
0000
0010
0100
0000
0010
0100
,  // measure 34
1000
0000
0100
0000
0010
0000
0000
0001
,  // measure 35
0100
0010
1000
0000
0001
0000
0100
0000
,  // measure 36
0110
0101
0000
0011
,  // measure 37
0110
0000
0000
0100
1000
0000
0010
0100
,  // measure 38
0001
0000
1000
0100
1000
0000
0010
0100
,  // measure 39
0010
0000
0000
0000
0010
0100
1000
0000
,  // measure 40
0010
1000
0010
0000
0010
0100
0010
0000
,  // measure 41
0010
1000
0010
0100
0001
0010
0100
0000
,  // measure 42
0100
1000
0100
0000
0100
0010
0100
0000
,  // measure 43
0000
0000
0000
0000
,  // measure 44
1000
0100
0010
0001
0100
0010
1000
0001
,  // measure 45
0000
0000
0000
0100
,  // measure 46
0100
0001
0100
0010
0000
0000
0000
0000
,  // measure 47
0010
0000
1000
0001
0100
0000
0010
0000
,  // measure 48
1000
0010
1000
0000
1000
0100
1000
0000
,  // measure 49
1000
0010
1000
0100
0010
0001
0010
0000
,  // measure 50
0001
0100
0001
0000
0001
1000
0001
0010
,  // measure 51
0100
0000
1001
0000
,  // measure 52
0000
0000
1000
0100
1000
0000
0010
0100
,  // measure 53
0001
0010
0100
0000
1000
0100
0001
0000
,  // measure 54
0001
0100
1000
0000
1000
0010
0001
0000
,  // measure 55
0001
0010
1000
0000
1000
0001
1000
0000
,  // measure 56
0010
1000
0010
0000
0100
0001
0100
0000
,  // measure 57
0001
0010
0001
0100
0010
1000
0100
0000
,  // measure 58
0010
0001
0010
0000
0010
0100
0010
0000
,  // measure 59
0000
0000
0000
0000
,  // measure 60
0010
0100
0001
1000
0001
0100
0010
1000
,  // measure 61
0000
0000
0000
0100
,  // measure 62
1000
0010
1000
0010
1000
0000
0001
0100
,  // measure 63
0001
0000
0000
0010
,  // measure 64
0100
0001
0010
0000
0010
0001
0100
0000
,  // measure 65
0100
0010
1000
0000
1000
0010
0100
0001
,  // measure 66
0010
0000
0100
1000
0010
0000
0010
1000
,  // measure 67
0100
0010
0220
0000
,  // measure 68
0330
0000
0001
1000
0001
0000
1000
0001
0000
1000
0001
0000
0000
1000
0000
0000
,  // measure 69
0001
0000
0000
1000
0000
0000
0001
0000
0000
1000
0000
0000
0001
0000
0000
0000
,  // measure 70
1100
0001
0101
1000
,  // measure 71
1000
0001
1100
0001
,  // measure 72
0101
1000
1100
0001
,  // measure 73
1000
0000
0001
0000
0100
0010
0100
0000
,  // measure 74
0001
1000
0010
0100
,  // measure 75
0011
1000
1010
0001
,  // measure 76
1000
0001
0011
1000
,  // measure 77
1010
0001
0011
1000
,  // measure 78
0010
0100
0010
0000
0100
0010
0100
0000
,  // measure 79
0010
1000
0000
0110
,  // measure 80
0000
0001
1000
0001
,  // measure 81
0100
0010
1000
0000
,  // measure 82
0100
0001
0100
1000
,  // measure 83
0100
0000
0001
0100
,  // measure 84
1000
0000
0010
0000
0100
0001
0100
0000
,  // measure 85
0010
0000
1000
0000
0100
1000
0100
0010
,  // measure 86
0001
0000
0100
0001
0100
0000
0001
0100
,  // measure 87
0001
1000
0001
1000
,  // measure 88
0001
0000
1000
0100
1000
0000
0100
1000
,  // measure 89
0100
1000
0010
0100
,  // measure 90
0001
0000
0010
0100
0010
0000
0100
0010
,  // measure 91
0100
0010
0001
1000
,  // measure 92
0100
0000
1000
0010
1000
0000
0001
0100
,  // measure 93
0001
0100
0010
1000
,  // measure 94
0001
0000
0100
0001
0010
0000
0100
1000
,  // measure 95
0010
0000
0100
0001
0100
0000
0010
1000
,  // measure 96
0010
0000
1000
0000
0100
0000
0010
0001
,  // measure 97
0010
0000
0001
0100
0010
1000
0001
0000
,  // measure 98
1000
0000
0100
1000
0001
0000
0010
0100
,  // measure 99
1000
0000
0010
0100
0010
0000
1000
0010
,  // measure 100
1000
0000
0100
0000
0010
0000
0001
1000
,  // measure 101
0001
0000
0010
0100
1000
0010
0100
0000
,  // measure 102
0001
0101
1001
0000
,  // measure 103
1010
1001
0000
0000
,  // measure 104
0000
0000
0100
0010
1000
0001
0100
0010
,  // measure 105
1000
0010
1000
0000
0000
0000
0100
0000
,  // measure 106
0100
0011
0101
0000
,  // measure 107
1010
1100
0000
0000
,  // measure 108
0000
0000
0010
0001
1000
0100
0010
0100
,  // measure 109
1000
0001
0010
0000
0100
0000
1000
0000
,  // measure 110
0010
0110
1010
0000
,  // measure 111
1010
1001
0000
0000
,  // measure 112
0000
0000
0010
0001
0100
0010
1000
0100
,  // measure 113
0010
0001
0100
0000
0000
0000
0010
0000
,  // measure 114
0010
1001
0110
0000
,  // measure 115
0110
1001
0000
0000
,  // measure 116
0101
0000
1001
1010
,  // measure 117
0100
1000
0100
0000
0010
0001
0010
0000
,  // measure 118
0001
2002
0000
0000
,  // measure 119
0000
3003
0000
0000
;

//---------------dance-single - ----------------
#NOTES:
     dance-single:
     :
     Challenge:
     10:
     0.962233,1.283691,0.543361,0.123025,0.061513,657.000000,604.000000,53.000000,12.000000,0.000000,0.000000,0.962233,1.283691,0.543361,0.123025,0.061513,657.000000,604.000000,53.000000,12.000000,0.000000,0.000000:
0000
0000
0000
0000
,
0000
0000
0000
0000
,
0000
0000
0000
0000
,
0000
0000
0000
0000
0000
0000
0000
0010
,
0100
0000
0000
0000
,
1001
0000
0000
0000
,
0110
0000
0000
1000
1100
0000
0000
0010
,
0011
0000
0000
0000
1001
0000
0000
0000
0010
0000
0100
0000
0001
1000
0001
1000
,
0001
0000
0010
0000
0100
0000
0000
1000
,
0100
0010
0001
0100
0010
0000
1000
0000
,
0100
0000
1000
0000
0010
0000
0000
0100
,
0010
1000
0001
0010
0001
0000
0100
0000
,
0010
0000
0100
0000
0001
0000
0000
0010
,
0100
1000
0100
0010
0001
0000
0100
0000
,
0010
0000
1000
0000
0001
0000
0000
0100
,
0001
1000
0010
1000
0001
0000
0100
0000
,
0010
0000
1010
0000
1001
0000
0000
0010
,
0001
0000
0101
0000
1001
0000
0000
1000
,
0100
0010
0001
0100
0010
0000
0000
0001
,
0010
0100
1000
0010
0100
0000
0010
0000
,
1000
0000
1100
0000
0110
0000
0000
0001
,
0100
0000
0110
0000
1010
0000
0000
0010
,
0100
0001
1000
0010
0100
0000
0000
0100
,
0010
1000
0001
0100
0010
0000
0100
0000
,
0002
0000
0010
0000
0103
0000
0000
1000
,
0020
1000
0001
1030
,
0200
0000
1000
0000
0310
0000
0000
0001
,
0200
0001
1000
0301
,
1000
0000
0100
0000
0001
0000
0000
0100
,
1000
0010
0100
0001
0010
0000
0001
0000
,
1000
0000
0010
0000
0100
0000
0000
0010
,
1000
0001
0100
1000
0100
0000
0001
0000
,
0010
0000
0100
0000
1000
0000
0000
0100
,
0010
0001
1000
0010
0100
0000
0001
0000
,
1000
0000
0100
0000
0010
0000
0000
0100
,
1000
0010
0001
0010
1000
0000
0001
0000
,
0101
1010
0000
1100
,
0011
0000
0000
1000
0001
0000
1001
0000
,
0020
0200
0300
0230
,
0020
0000
0300
0000
1030
0100
0010
0000
,
0011
0000
0001
1000
0010
0000
1010
0000
,
1000
0001
0010
0000
0001
1000
0001
1000
,
0001
0000
0100
0010
0100
0010
0100
0000
,
0010
1000
0001
0100
,
0001
0010
0001
0010
0100
0010
0100
1000
,
0100
1000
0010
0100
,
0001
1000
0001
1000
0000
0000
0010
0000
,
0100
0000
0010
1000
0100
0000
0010
0000
,
0011
0000
0001
0100
0010
0000
1010
0000
,
1000
0100
0010
0000
0001
0010
0001
0010
,
0001
0000
1000
0100
1000
0100
1000
0001
,
0010
0100
1100
0000
,
1001
0000
0010
0100
0010
0000
1000
0010
,
0000
0100
1000
0000
0100
0001
0000
0010
,
0100
0000
1000
0001
0000
1000
0001
0000
,
0100
0001
0000
1000
0010
0000
0100
0000
,
1001
0000
0001
0100
1000
0000
1001
0000
,
1000
0100
0001
0000
1000
0100
0010
0100
,
1000
0000
0001
0010
0100
0010
0001
0000
,
1000
0000
0010
0100
0001
0000
0010
0000
,
0100
1000
0100
1000
0010
1000
0010
0100
,
0001
1000
0010
0100
,
0001
0010
0001
0000
1000
0100
1000
0100
,
1000
0000
0001
0010
0001
0000
1000
0000
,
1010
0000
0001
1000
0100
0000
1001
0000
,
0100
0001
0010
0000
1000
0100
0001
0100
,
1000
0000
0001
0100
1000
0100
0001
0000
,
1100
0000
0202
0000
,
0303
0000
0010
0100
1000
0000
0100
0010
0000
0001
0100
0000
0010
0100
0000
0010
,
1000
0000
0100
0010
0000
0100
1000
0000
0001
0010
0000
0100
0010
0000
0000
0000
,
1001
0010
0101
0010
,
1100
0010
0101
0010
,
1001
0010
0100
0001
,
0010
0000
0100
0000
1000
0010
0100
0000
,
1010
0100
0011
0100
,
1001
0100
1010
0100
,
0011
0100
1000
0010
,
0100
0001
0101
1010
,
0100
1000
0100
0000
0100
0001
0100
0000
,
1000
0010
0100
0001
,
0010
0100
1000
0100
,
0001
0100
1000
0010
,
1000
0010
1000
0000
1000
0100
1000
0000
,
0100
0000
0010
0000
0001
0010
0001
0000
,
0001
0100
0001
0000
1000
0001
1000
0001
,
1000
0000
0010
0100
0001
1000
0001
1000
,
0001
0000
0000
0000
0000
0000
0000
1001
0100
0000
0000
0000
1000
0000
0000
0000
0100
0000
0000
0000
0000
0000
0000
0000
1000
0000
0000
0000
0100
0000
0000
0000
,
1000
0000
0010
0100
0001
0010
0001
0100
,
0010
0000
0100
0001
0100
0000
0001
0010
,
0001
0000
0100
0010
1000
0100
0010
0100
,
1000
0000
0010
0100
0010
0000
0010
1000
,
0010
0000
0100
0001
1000
0010
1000
0100
,
0010
0000
0100
1000
0100
0000
0100
0001
,
0100
0000
1000
0010
0100
0001
0010
0100
,
1000
0000
0001
0010
0001
0000
0100
1000
,
0100
0000
1000
0010
1000
0000
0100
0001
,
0100
0000
0001
0010
0001
0010
0100
0010
,
0100
0010
0100
1000
0100
1000
0010
0100
,
0010
0100
0001
1000
0001
0000
0100
0010
,
0100
0000
0010
1000
0010
0000
0100
0001
,
0100
0000
0010
1000
0010
1000
0100
0010
,
0100
0010
0001
0010
0001
0010
0001
0100
,
0001
0100
0010
0000
1000
0000
0001
0000
,
1100
0000
0000
0000
,
0000
0010
0100
0001
,
0110
0000
0000
0010
0100
0010
0100
0000
,
0001
0000
0100
0001
0100
0000
0001
0010
,
0001
0000
0100
0001
1000
0010
1000
0100
,
0010
0000
0100
1000
0100
0000
1000
0010
,
1000
0000
0010
1000
0001
0100
0001
1000
,
0010
0000
0100
0001
0010
0000
0100
1000
,
0010
0000
0100
0001
1000
0010
1000
0100
,
0010
0000
0100
1000
0100
0000
1000
0010
,
1000
0000
0010
0100
0010
1000
0001
0100
,
0001
0101
1010
0000
,
1100
0011
0000
0100
,
0110
0000
1001
0101
,
0010
0100
0010
0000
0010
0100
0010
0000
,
0000
2002
0000
0000
,
0000
3003
0000
0000
;

//---------------dance-single - ----------------
#NOTES:
     dance-single:
     :
     Medium:
     9:
     0.610732,0.794666,0.471597,0.020504,0.020504,417.000000,371.000000,46.000000,2.000000,0.000000,0.000000,0.610732,0.794666,0.471597,0.020504,0.020504,417.000000,371.000000,46.000000,2.000000,0.000000,0.000000:
0000
0000
0000
0000
,
0000
0000
0000
0000
,
0000
0000
0000
0000
,
0000
0000
0000
0000
0000
0000
0000
0010
,
0010
0000
0000
0100
1000
0000
0100
0000
,
1000
0000
0100
0001
0100
1000
0000
0010
,
0100
0001
0000
0010
0001
0000
0000
0000
,
0101
0000
1010
0000
0010
0100
0001
1000
,
0100
0010
0000
0010
,
0001
0000
0001
1000
,
0001
0000
0010
0100
,
0010
0100
0000
0000
,
1000
0010
0000
0100
,
0001
0000
0010
0100
,
1000
0000
0101
0000
,
0000
0001
1000
0100
,
0001
0100
0000
1000
,
0010
0000
0100
0001
,
0010
0000
1010
0000
,
0001
1000
0000
0001
,
0100
0001
0000
0010
,
1000
0000
0010
0001
,
0010
0000
0101
0000
,
0001
1000
0001
0000
0100
0000
0100
0000
,
0010
1000
0000
0010
,
1000
0000
0000
0000
,
1001
1000
1010
0000
,
0100
0001
0100
0001
,
0010
0100
0000
0010
,
0001
0000
0100
1000
,
0100
0000
0001
0010
,
0100
1000
0000
0010
,
0100
0001
0000
0100
,
1000
0000
0100
0001
,
0010
0000
1100
0000
,
0010
0100
0000
0001
,
1000
0100
0000
0001
,
0100
0000
1000
0001
,
1000
1001
0000
0001
,
1001
0000
0000
0010
,
1010
0000
0101
0000
,
1010
0000
0101
0011
,
0000
1100
1010
0000
,
0000
0000
0000
0000
,
0010
0100
0010
0100
0001
1000
0001
1000
,
0000
0000
0000
0001
,
1000
0001
1000
0000
0000
0000
0000
0000
,
0000
0000
0000
0001
,
0101
0000
1100
0000
,
0101
0000
1000
1100
,
0000
0101
0011
0000
,
0000
0000
0110
0000
,
0000
0000
0100
1000
0100
0000
1000
0001
,
0000
1000
0001
0000
0000
0010
0000
0000
,
0100
0000
0000
1000
0000
0000
0010
0000
,
0000
0010
0000
0000
0010
0000
0000
0000
,
1100
0000
0110
0000
,
0011
0000
0101
1010
,
0000
1010
0101
0000
,
0000
0000
0000
0000
,
0001
0010
0001
0010
0100
1000
0100
1000
,
0000
0000
0000
0000
,
0000
0000
0000
0000
,
0000
0000
0000
0010
,
0110
0000
1100
0000
,
0011
0000
0110
1001
,
0000
1001
0110
0000
,
0000
0000
0001
0000
,
0000
0000
0000
0000
0100
0000
0000
0100
0000
0000
0100
0000
0000
0010
0000
0000
,
0001
0000
0000
0100
0000
0000
0010
0000
0000
1000
0000
0000
0001
0000
0000
0000
,
0100
1000
0100
0001
,
0100
1000
0100
0001
,
0100
1000
0100
0001
,
1000
0000
0010
0000
0100
0001
0100
0000
,
0010
1000
0001
0100
,
0010
1000
0001
0100
,
0010
0100
0001
1000
,
0010
0100
0001
1000
,
0100
1000
0100
0000
1000
0001
1000
0000
,
0010
0001
0010
1000
,
0010
0001
0010
1000
,
0010
0001
0010
1000
,
0011
0000
0101
0001
,
0100
0000
1010
1000
,
0100
0000
0010
0000
0001
1000
0001
0000
,
0100
0010
0100
0100
,
0100
0010
0001
0010
,
0001
0100
0100
0001
,
0100
0010
0010
0100
,
0010
1000
0100
0010
,
0001
0100
0010
0100
,
0010
1000
1000
0010
,
1000
0001
0001
0100
,
0001
0100
0010
1000
,
0001
1000
0100
1000
,
0100
0010
0010
0001
,
0010
0001
0001
0100
,
0001
0100
0010
1000
,
0001
0100
0001
0100
,
0001
0100
0100
0010
,
0100
0010
0010
1000
,
0010
1000
0100
0010
,
0100
1000
0001
0000
,
0001
1000
0000
0000
,
0000
0000
0000
0000
,
0000
0000
0010
0100
,
0010
1000
0100
0010
,
0001
0100
0001
0010
,
0001
0100
0010
1000
,
0001
1000
0100
0010
,
0100
1000
0010
0100
,
0001
0010
0100
1000
,
0100
0010
0001
1000
,
0100
0010
0100
1000
,
0100
0010
0110
0000
,
0001
1001
0000
0000
,
0101
0000
1010
1000
,
0001
1000
0001
0000
1000
0001
1000
0000
,
0010
0220
0000
0000
,
0000
0330
0000
0000
;

//---------------dance-single - ----------------
#NOTES:
     dance-single:
     :
     Easy:
     7:
     0.421801,0.733538,0.287059,0.061513,0.015378,288.000000,260.000000,28.000000,6.000000,0.000000,0.000000,0.421801,0.733538,0.287059,0.061513,0.015378,288.000000,260.000000,28.000000,6.000000,0.000000,0.000000:
0000
0000
0000
0000
,
0000
0000
0000
0000
,
0000
0000
0000
0000
,
0000
0000
0000
0000
0000
0000
0000
0001
,
0010
0000
0000
0100
1000
0000
0000
0010
,
0100
0000
0001
1000
0001
0100
0000
0010
,
0100
0000
1001
0000
,
1010
0000
0101
0000
0010
0100
1000
0010
,
0100
0001
0000
0001
,
1000
0000
0000
0000
,
0000
0000
0000
0010
,
0100
0010
0100
0001
,
0010
0001
0000
0001
,
0010
0000
0000
0000
,
0000
0000
0000
0000
,
0000
1100
0000
0000
,
0010
0100
0000
0100
,
0001
0000
0000
0000
,
0000
0000
0000
0000
,
0010
0100
0010
0100
,
0010
0100
0000
1000
,
0001
0000
0000
0000
,
0100
0001
0100
1000
,
0100
0001
0000
1000
,
0010
0100
0000
0001
,
0100
0000
0000
0000
,
0000
0000
0000
0000
,
0000
0001
0010
0001
,
0010
0001
0000
0100
,
1000
0000
0100
0001
,
0100
0001
0000
0010
,
0000
0000
0000
0000
,
0100
1000
0000
1000
,
0001
0000
0000
0000
,
0010
0100
0001
0000
,
0000
0000
0100
0010
,
1000
0001
0000
0001
,
1000
0000
0000
0000
,
0000
1010
0000
0001
,
0001
0000
0000
0000
,
0102
0000
1000
0000
,
0100
0000
1000
1000
,
0000
1000
1003
0000
,
0000
0000
0000
0000
,
0010
0100
0001
1000
,
0000
0000
0000
0000
,
0000
0000
0000
0000
,
0000
0000
0000
0010
,
2010
0000
0100
0000
,
0010
0000
0100
0100
,
0000
0100
3100
0000
,
0000
0000
0110
0000
,
0000
0000
0001
0010
,
0100
0000
1000
0000
,
0100
0000
0010
0000
,
0001
0000
1000
0000
,
1010
0000
0110
0000
,
0101
0000
0010
0010
,
0000
0100
0100
0000
,
0000
0000
0000
0000
,
0001
0010
0100
1000
,
0000
0000
0000
0000
,
0000
0000
0000
0000
,
0000
0000
0000
0000
,
0110
0000
1100
0000
,
0110
0000
0010
0010
,
0000
0001
0001
0000
,
0000
0000
0000
0000
2002
0000
0000
3003
,
0000
0000
0000
0000
0000
0000
0000
0000
0000
0000
0000
0000
0000
0010
0000
0000
,
0010
0000
0000
0100
0000
0000
0100
0000
0000
0100
0000
0000
0100
0000
0000
0000
,
1000
0100
1000
0100
,
1000
0000
0001
0000
,
1000
0000
0001
0000
,
0100
0001
0100
0001
,
0100
0000
0100
0000
,
0010
0000
0100
0000
,
0010
0000
0010
0000
,
1000
0000
0001
0000
,
1000
0001
1000
0001
,
1000
0000
0010
0000
,
0100
0000
0001
0000
,
0010
0000
0100
0000
,
1001
0000
1001
0000
,
0100
0001
0100
0000
,
0010
1000
0010
0100
,
0001
1000
0001
1000
,
0001
0101
0000
1001
,
0000
0101
0000
1001
,
0000
1000
0100
0010
,
0000
0001
0010
0100
,
0000
1010
0000
1100
,
0000
1010
0000
1100
,
0000
0010
0100
0001
,
0000
0100
0010
1000
,
0000
0001
0100
0000
,
0100
0010
0000
0000
,
0000
1000
0100
0010
,
0000
0001
1000
0000
,
0001
1000
0100
0000
,
0100
0010
0000
0000
,
0000
0001
0010
0001
,
0000
0000
0000
0000
,
0000
0100
0100
0000
,
0100
0100
0000
0000
,
0000
0010
1000
0010
,
0000
0000
0000
1000
,
0100
0010
0100
0000
,
0100
1000
0000
0000
,
0000
0010
1000
0100
,
0010
0001
0100
0010
,
1000
0001
0010
0000
,
0010
0100
0000
0000
,
0000
0100
1000
0100
,
0000
0010
0001
0100
,
0000
0010
1000
0000
,
1000
0001
0000
0001
,
0100
0000
0110
0000
,
1010
0000
0101
0000
,
0002
2000
0000
0000
,
0000
3003
0000
0000
;

//---------------dance-single - ----------------
#NOTES:
     dance-single:
     :
     Beginner:
     3:
     0.188932,0.366769,0.010252,0.020504,0.000000,129.000000,128.000000,1.000000,2.000000,0.000000,0.000000,0.188932,0.366769,0.010252,0.020504,0.000000,129.000000,128.000000,1.000000,2.000000,0.000000,0.000000:
0000
0000
0000
0000
,
0000
0000
0000
0000
,
0000
0000
0000
0000
,
0000
0000
0000
0000
,
0010
0000
0000
0000
,
0010
0000
0000
0000
,
0010
0000
0000
0000
,
0010
0010
0010
0010
,
0010
0000
0000
0000
,
0001
0000
0000
0000
,
0100
0000
0000
0000
,
0100
0000
0000
0000
,
0010
0000
0000
0000
,
1000
0000
0000
0000
,
0001
0000
0000
0000
,
0001
0000
0000
0000
,
1000
0000
0000
0000
,
0100
0000
0000
0000
,
0010
0000
0000
0000
,
0010
0000
0000
0000
,
0100
0000
0000
0000
,
1000
0000
0000
0000
,
0001
0000
0000
0000
,
0100
0000
0000
0000
,
0100
0000
0000
0000
,
0010
0000
0000
0000
,
1000
0000
0000
0000
,
0100
0000
0000
0000
,
0100
0000
0000
0000
,
0010
0000
0000
0000
,
0001
0000
0000
0000
,
1000
0000
0000
0000
,
1000
0000
0000
0000
,
0010
0000
0000
0000
,
0100
0000
0000
0000
,
0010
0000
0000
0000
,
1000
0000
0000
0000
,
1000
0000
0000
0000
,
0000
0001
0000
0000
,
0001
0000
0000
0000
,
0100
0000
0100
0000
,
0100
0000
0100
0000
,
0100
0000
0100
0000
,
0000
0000
0000
0000
,
0010
0000
0000
0000
,
0000
0000
0000
0000
,
1000
0000
0000
0000
,
0000
0000
0000
0000
,
0001
0000
0001
0000
,
0001
0000
0001
0000
,
0001
0000
0001
0000
,
0000
0000
0100
0000
,
0000
0000
0010
0000
,
0010
0000
0010
0000
,
0000
0000
1000
0000
,
0000
0000
0000
0000
,
1000
0000
1000
0000
,
1000
0000
1000
0000
,
1000
0000
1000
0000
,
0000
0000
0000
0000
,
0001
0000
0000
0000
,
0000
0000
0000
0000
,
0000
0000
0000
0000
,
0100
0000
0000
0000
,
0010
0000
0010
0000
,
0010
0000
0010
0000
,
0010
0000
0010
0000
,
0000
0000
1000
0000
,
0000
0000
0000
0000
,
0001
0001
0001
0000
,
0100
0000
0000
0000
,
0010
0000
0000
0000
,
1000
0000
0000
0000
,
0001
0000
0000
0000
,
0010
0000
0000
0000
,
0100
0000
0000
0000
,
1000
0000
0000
0000
,
0100
0000
0000
0000
,
0010
0000
0000
0000
,
0100
0000
0000
0000
,
1000
0000
0000
0000
,
0010
0000
0000
0000
,
0100
0000
0000
0000
,
0000
0000
0001
0000
,
0000
0000
1000
0000
,
0000
0000
0010
0000
,
0000
0100
0000
0010
,
0000
0100
0000
0000
,
0000
0001
0000
0000
,
0000
1000
0000
0000
,
0000
0010
0000
0100
,
0000
0010
0000
0000
,
0000
0100
0000
0000
,
0000
0001
0000
0000
,
0000
0010
0000
0001
,
0000
0010
0000
0000
,
0000
0001
0000
0000
,
0000
1000
0000
0000
,
0000
0100
0000
1000
,
0000
0100
0000
0000
,
0000
0010
0000
0000
,
0000
0000
0000
0000
,
0000
0100
0000
0000
,
0000
0100
0000
0000
,
0000
1000
0000
0000
,
0000
0000
0000
0000
,
0000
0010
0000
1000
,
0000
0010
0000
0000
,
0000
0100
0000
0000
,
0000
0001
0000
0000
,
0000
1000
0000
0001
,
0000
1000
0000
0000
,
0000
0100
0000
0000
,
0000
0010
0000
0000
,
0000
0001
0000
0000
,
0000
0001
0000
0000
,
1000
0000
0000
0000
,
0000
0000
0000
0000
,
0000
0220
0000
0000
,
0000
0330
0000
0000
;

//---------------dance-double - ----------------
#NOTES:
     dance-double:
     :
     Easy:
     7:
     0.432053,0.672410,0.297311,0.041008,0.020504,295.000000,266.000000,29.000000,4.000000,0.000000,0.000000,0.432053,0.672410,0.297311,0.041008,0.020504,295.000000,266.000000,29.000000,4.000000,0.000000,0.000000:
00000000
00000000
00000000
00000000
,
00000000
00000000
00000000
00000000
,
00000000
00000000
00000000
00000000
,
00000000
00000000
00000000
00000000
00000000
00000000
00000000
00100000
,
00001000
00000000
00000000
00000000
,
00010010
00000000
00000000
00000000
,
00001100
00000000
00011000
00000000
,
00100000
00000000
01000000
00000000
10000000
00100000
01000000
00010000
,
00001000
00000100
00000000
00000100
,
00001000
00000000
00000000
00000000
,
00000010
00000100
00000001
00000000
,
00000010
00000100
00001000
00000000
,
00010000
00100000
00000000
00100000
,
01000000
00000000
00000000
00000000
,
10000000
01000000
00100000
00000000
,
00100000
01000000
00010000
00000000
,
00001000
00010000
00000000
00010000
,
00001000
00000000
00000000
00000000
,
00000100
00001000
00000100
00000000
,
00000001
00000010
00000001
00000000
,
00000010
00000100
00000000
00000100
,
00001000
00000000
00000000
00000000
,
00010000
00100000
01000000
00000000
,
10000000
00010000
00100000
00000000
,
01000000
01000000
00000000
01000000
,
01000000
00000000
00000000
00000000
,
00001000
00010000
00001000
00000000
,
00001100
00000000
00000110
00000000
,
00000001
00001000
00000000
00010000
,
01000000
00000000
00000000
00000000
,
01000000
00000000
00010000
00000000
,
00100000
00000000
00001000
00000000
,
00010000
00001000
00000000
00000010
,
00000100
00000000
00000000
00000000
,
00000001
00000010
00000100
00000000
,
00001000
00010000
00100000
00000000
,
01000000
10000000
00000000
10000000
,
00100000
00000000
00000000
00000000
,
02000000
00010000
00000000
03020000
,
01000000
00000000
00030000
01000000
,
00010000
00000000
00011000
00000000
,
00001100
00000000
00000100
00000010
,
00000000
00000010
00000001
00000000
,
00000000
00000000
00000000
00000000
,
00000001
00000100
00000001
00000000
00001000
00000000
00000100
00000000
,
00000000
00000000
00000000
00010000
,
00100000
01000000
00000000
00000000
,
00000000
00000000
00000000
10000000
,
01000000
00000000
10100000
00000000
,
01100000
00000000
01000000
00010000
,
00000000
00010000
00001000
00000000
,
00000000
00000000
00001001
00000000
,
00000000
00000000
00000010
00000000
,
00000001
00000000
00000100
00000000
,
00000010
00000000
00001000
00000000
,
00010000
00000000
00100000
00000000
,
11000000
00000000
01010000
00000000
,
00110000
00000000
00001000
00010000
,
00000000
00000100
00001000
00000000
,
00000000
00000000
00000000
00000000
,
00000010
00000100
00000010
00000000
00001000
00000000
00000001
00000000
,
00000000
00000000
00000000
00000000
,
00000000
00000000
00000000
00000000
,
00000000
00000000
00000000
00000100
,
00001000
00000000
00011000
00000000
,
00101000
00000000
00010000
00000100
,
00000000
00001000
00000010
00000000
,
00000000
00000000
00001001
00000000
,
00000000
00000000
00001000
00000000
00010000
00000000
00000000
00100000
00000000
00000000
01000000
00000000
00000000
10000000
00000000
00000000
,
10000000
00000000
00000000
01000000
00000000
00000000
01000000
00000000
00000000
01000000
00000000
00000000
01000000
00000000
00000000
00000000
,
00100000
00001000
00100000
00001000
,
00100000
00000000
00001000
00000000
,
00010000
00000000
00000100
00000000
,
00001000
00000010
00001000
00000000
,
00000001
00000000
00001000
00000000
,
00000100
00000000
00010100
00000000
,
00110000
00000000
01000000
10000000
,
01000000
00000000
10000000
00000000
,
00100000
00000000
01000000
00010000
,
01000000
00000000
00001000
00000000
,
00001000
00000000
00010000
00000000
,
00010000
00000000
00001000
00000000
,
00010000
00000000
00011000
00000000
,
00001100
00000000
00000110
00000000
,
00000011
00000000
00000001
00000100
,
00000010
00001000
00000100
00010000
,
00001000
00010000
00100000
00010000
,
00000000
01000000
00100000
01000000
,
00000000
10000000
01000000
10000000
,
00000000
10010000
00000000
01100000
,
00000000
01000000
00010000
01000000
,
00000000
00001000
00010000
00001000
,
00000000
00010000
00000100
00010000
,
00000000
00000000
00000100
00001000
,
00000100
00000010
00000001
00000000
,
00000001
00000100
00000000
00000000
,
00000000
00000010
00001000
00000100
,
00000000
00010100
00000000
00011000
,
00000000
00010000
00100000
00000000
,
00100000
01000000
00000000
00000000
,
00000000
01000000
10000000
01000000
,
10000000
00000000
10000000
00000000
,
00000000
00100000
01000000
00000000
,
01000000
00010000
00000000
00000000
,
00000000
00010000
00100000
00010000
,
00000000
00100000
00000000
00001000
,
00000000
00010000
00000100
00000000
,
00001000
00000010
00000000
00000000
,
00000000
00000100
00000000
00000001
,
00000000
00000010
00000100
00000000
,
00000100
00001000
00000100
00000000
,
00000010
00000100
00000000
00000000
,
00000000
00001000
00000000
00010000
,
00000000
00100000
00000000
01000000
,
00000000
10000000
00010000
00000000
,
00010000
10000000
00000000
00000000
,
01100000
00000000
10010000
00000000
,
00100000
00000000
00100000
00000000
,
00000000
00022000
00000000
00000000
,
00000000
00033000
00000000
00000000
;

//---------------dance-double - ----------------
#NOTES:
     dance-double:
     :
     Hard:
     10:
     0.767443,0.978050,0.256302,0.143529,0.046134,524.000000,499.000000,25.000000,14.000000,0.000000,0.000000,0.767443,0.978050,0.256302,0.143529,0.046134,524.000000,499.000000,25.000000,14.000000,0.000000,0.000000:
00000000
00000000
00000000
00000000
,
00000000
00000000
00000000
00000000
,
00000000
00000000
00000000
00000000
,
00000000
00000000
00000000
00000000
00000000
00000000
00000000
00001000
,
00010000
00000000
00000000
00100000
01000000
00000000
00000000
00000000
,
11000000
00000000
00000000
00100000
00010000
00000000
00000000
00001000
,
00000100
00000000
00000011
00000000
,
00000110
00000000
00000000
00000000
00001100
00000000
00000000
00000000
00010000
00000000
00001000
00000000
00010000
00001000
00010000
00001000
,
00010000
00000000
00000100
00000000
00001000
00000000
00000000
00000001
,
00000010
00000100
00001000
00000000
00000010
00000000
00000000
00000000
,
00010000
00000000
00001000
00000000
01000000
00000000
00000000
00100000
,
10000000
01000000
10000000
00000000
00010000
00000000
00000000
00000000
,
00100000
00001000
00000000
00100000
,
00001000
00000000
00000100
00001000
,
00000010
00000000
00000100
00000000
00000001
00000000
00000000
00000100
,
00000010
00001000
00000100
00000000
00001000
00000000
00000000
00000000
,
00000001
00000010
00000000
00001000
,
00010000
00000000
00100000
10000000
,
01000000
00000000
00100000
00000000
00010000
00000000
00000000
00001000
,
00010000
00000010
00000100
00000000
00000010
00000000
00000100
00000000
,
00000001
00001000
00000000
00000100
,
00010000
01000000
00010000
00001000
,
00010000
00000000
01000000
00000000
10000000
00000000
00000000
10000000
,
00010000
01000000
00100000
00000000
10000000
00000000
00000000
00000000
,
00200000
01000000
00300000
00002000
,
00010000
00003000
00000000
00000000
,
00011000
00000000
00001100
00000000
00000010
00000000
00000000
00000001
,
00000100
00000001
00000100
00000000
00000010
00000000
00001000
00000000
,
00020000
00001000
00030000
00002000
,
00100000
00003000
00010000
01000000
,
00100000
00000000
10000000
00000000
01000000
00000000
00000000
00100000
,
00010000
00100000
00010000
00000000
00001000
00000000
00010000
00000000
,
00000200
00001000
00000300
00002000
,
00000001
00000000
00003000
00000001
00000010
00000000
00000100
00001000
,
00010000
00000000
00100000
00000000
01000000
00000000
00000000
10000000
,
00100000
01000000
00010000
00000000
10000000
00000000
01000000
00000000
,
20000000
00100000
30000000
02000000
,
00010000
00000000
03000000
00001000
00010000
00000000
00000100
00010000
,
00000100
00002100
00000000
00000001
,
00003010
00000000
00000000
00011000
,
00001000
00100000
00001000
00000000
00001000
01000000
00001000
00000000
,
00001000
00100000
00010000
01000000
00100000
10000000
00100000
01000000
,
00100000
00000000
00100000
00010000
00100000
00000000
00000000
00000000
,
00000000
00000000
00000000
00000000
,
00100000
00001000
00010000
00000100
00001000
00000010
00000100
00000000
,
00000000
00000000
00000000
00001100
,
00000100
00010000
00000100
00000000
00000000
00000000
00000000
00000000
,
00010000
00000000
00010000
00001000
00010000
00000000
00000000
00000000
,
00100000
00001000
00100000
00000000
00100000
00010000
00100000
00000000
,
00100000
01000000
00100000
00000000
00100000
00001000
00010000
00000100
,
00001000
00000010
00001000
00000000
00001000
00000100
00001000
00000000
,
00000000
00000000
00010010
00000000
,
00000000
00000000
00000100
00000001
00000010
00000000
00000100
00010000
,
00001000
00000000
01000000
00100000
10000000
00000000
00100000
10000000
,
00100000
00000000
01000000
00010000
01000000
00000000
00001000
00010000
,
00000010
00000000
00001000
00000100
00000010
00000000
00000000
00000000
,
00000001
00000010
00000001
00000000
00000001
00001000
00000001
00000000
,
00000001
00000100
00000001
00000000
00000001
00001000
00000010
00000100
,
00000010
00001000
00000010
00000000
00000010
00000100
00000010
00000000
,
00000000
00000000
00000000
00000000
,
00001000
00000100
00100000
00010000
01000000
00100000
10000000
00000000
,
00000000
00000000
00000000
01000000
,
10000000
00000000
00100000
00000000
01000000
00000000
00010000
00100000
,
00010000
00000000
00000000
00100000
,
00001000
00010000
00001000
00000000
00000100
00001000
00000100
00000000
,
00001000
00000010
00001000
00000000
00000010
00000001
00000010
00000000
,
00001000
00000010
00001000
00000000
00000100
00010000
00000100
00000000
,
00000000
00000000
00022000
00000000
,
00033000
00000000
00010000
00001000
00010000
00000000
00001000
00010000
00000000
00001000
00010000
00000000
00000000
00001000
00000000
00000000
,
00010000
00000000
00000000
00001000
00000000
00000000
00010000
00000000
00000000
00001000
00000000
00000000
00010000
00000000
00000000
00000000
,
00000100
00001000
00000100
00000000
00000010
00000000
00000001
00000000
,
00000100
00000001
00000100
00000000
00001000
00000000
00000010
00000000
,
00010000
00001000
00010000
00000000
00001000
00000000
00100000
00000000
,
00010000
01000000
00010000
00000000
10000000
00100000
10000000
00000000
,
00010000
10000000
00010000
00000000
00010000
10000000
00010000
00000000
,
01000000
00001000
01000000
00000000
00001000
00000000
00010000
00000000
,
00000100
00001000
00000100
00000000
00001000
00000000
00000010
00000000
,
00000100
00000001
00000100
00000000
00000010
00000000
00010000
00000000
,
00001000
00010000
00001000
00000000
00010000
00001000
00010000
00000000
,
00001000
00100000
00001000
00000000
01000000
00000000
00200000
00000000
,
00000000
00310000
10000000
01000000
,
00100000
00001000
00001000
00000000
,
00010000
00000100
00010000
00000010
,
00010000
00000000
00000110
00000010
,
00001000
00000000
00100000
00000000
00010000
10000000
00010000
00000000
,
01000000
00000000
00100000
00000000
10000000
01000000
00100000
00010000
,
01000000
00000000
00000000
00000000
00000000
00000000
00000000
00011000
00000100
00000000
00000000
00000000
00001000
00000000
00000000
00000000
00000100
00000000
00000000
00000000
00000000
00000000
00000000
00000000
00001000
00000000
00000000
00000000
00000010
00000000
00000000
00000000
,
00001000
00000000
00000001
00000100
00000001
00000000
00001000
00000100
,
00001000
00010100
00001000
00100000
,
00010000
10000000
00100000
10000000
,
00010000
00000000
00010000
00100000
00010000
00000000
10000000
01000000
,
10000000
00000000
00100000
01000000
00100000
00000000
01000000
00001000
,
01000000
00001000
00010000
00000100
,
00001000
00000010
00000100
00000001
,
00000010
00000000
00000100
00000001
00000100
00000000
00000010
00001000
,
00000010
00000000
00010000
00001000
00010000
00000000
00000100
00010000
,
00000100
00100000
00010000
10000000
,
00010000
01000000
00100000
10000000
,
01000000
00000000
10000000
00100000
10000000
00000000
00010000
00100000
,
00010000
00000000
00100000
00001000
00100000
00000000
00000100
00001000
,
00000100
00001000
00000010
00000100
,
00000001
00000010
00000100
00001000
,
00000100
00010100
00011000
00000000
,
00011000
00101000
00000000
00000000
,
00000000
01010000
10000000
00100000
,
00000000
01000000
00010000
00100000
00001000
00000000
00100000
00000000
,
00000000
00001000
00010000
00000000
00000100
00000000
00010000
00000000
,
00000000
00000010
00001000
00000001
00000100
00000000
00000010
00000000
,
00000000
00000010
00001000
00000000
00000100
00000000
00010000
00000000
,
00000000
00100000
00010000
01000000
00100000
00000000
10000000
00000000
,
00000000
01010000
00011000
00000000
,
00011000
00001100
00000000
00000000
,
00000000
00000100
00001000
00000010
00000100
00000001
00000010
00000000
,
00000000
00001000
00000100
00010000
00001000
00100000
00010000
00000000
,
00000000
00000000
10000000
01000000
00100000
00000000
00000000
00000000
,
00001000
00010000
00000100
00000000
00000000
00000000
00000000
00000000
,
00011000
00000000
00000000
00000000
00000100
00001000
00000100
00000000
,
00001000
00000010
00001000
00000000
00000010
00001000
00000010
00000000
,
00010000
00022000
00000000
00000000
,
00000000
00033000
00000000
00000000
;

//---------------dance-double - ----------------
#NOTES:
     dance-double:
     :
     Medium:
     9:
     0.588763,1.222563,0.338319,0.164034,0.056387,402.000000,369.000000,33.000000,16.000000,0.000000,0.000000,0.588763,1.222563,0.338319,0.164034,0.056387,402.000000,369.000000,33.000000,16.000000,0.000000,0.000000:
00000000
00000000
00000000
00000000
,
00000000
00000000
00000000
00000000
,
00000000
00000000
00000000
00000000
,
00000000
00000000
00000000
00000000
00000000
00000000
00000000
00001000
,
00010000
00000000
00000000
00000010
00000100
00000000
00000000
00000000
,
00000101
00000000
00000010
00001000
00000010
00000000
00000000
00000000
,
00011000
00000000
00110000
00000000
,
11000000
00000000
00000000
00000000
01100000
00000000
00000000
00000000
00001000
00000000
00010000
00000000
00001000
00010000
00001000
00010000
,
00001000
00100000
00000000
00100000
,
00010000
00000000
00000000
00000000
,
01000000
00100000
10000000
01000000
,
00100000
00001000
00010000
00000100
,
00001000
00000100
00000000
00000100
,
00000010
00000000
00000000
00000000
,
00000001
00000100
00000010
00001000
,
00000100
00010000
00001000
00100000
,
00010000
01000000
00000000
01000000
,
00100000
00000000
00000000
00000000
,
10000000
00010000
01000000
00010000
,
00100000
00001000
00010000
00000010
,
00000100
00000001
00000000
00000001
,
00001000
00000000
00000000
00000000
,
00000010
00000100
00001000
00010000
,
00001000
00000100
00000010
00001000
,
00000100
00010000
00000000
00001000
,
00100000
00000000
00000000
00000000
,
11000000
01100000
00110000
00000000
,
01000000
01000000
00010000
00010000
,
00100000
00010000
00000000
00010000
,
01000000
00000000
00000000
00000000
,
00100000
10000000
01000000
00100000
,
00010000
00001000
00000010
00000100
,
00000001
00000010
00000000
00000010
,
00000100
00000000
00000000
00000000
,
00010000
00001000
00010000
00000000
,
00001000
00100000
00010000
01000000
,
00100000
10000000
00000000
10000000
,
01000000
00000000
00000000
00000000
,
00100000
00110000
00000000
00011000
,
00001000
00000000
00000000
00001000
,
00000020
00000130
00000020
00001030
,
00000020
00000130
00000020
00000032
,
00000003
00000002
00000013
00000000
,
00000000
00000000
00000000
00000000
,
00000100
00010000
00000100
00010000
00000100
00000000
00010000
00000000
,
00000000
00000000
00000000
00011000
,
00001000
00010000
00001000
00000000
00000000
00000000
00000000
00000000
,
00000000
00000000
00000000
01000000
,
00200000
10300000
00200000
00310000
,
00200000
01300000
00200000
20300000
,
30000000
20000000
31000000
00000000
,
00000000
00000000
00110000
00000000
,
00000000
00000000
00010000
00000000
00001000
00000000
00000000
00000100
,
00000000
00000000
00000010
00000000
00000000
00001000
00000000
00000000
,
00000010
00000000
00000000
00000001
00000000
00000000
00000100
00000000
,
00000000
00000010
00000000
00000000
00001000
00000000
00000000
00000000
,
00001010
00000100
00010000
00000000
,
00011000
00100000
00010000
01000000
,
00000000
00100000
10000000
00000000
,
01000000
00000000
01000000
00100000
00010000
00000000
00000000
00000000
,
00001000
00010000
00001000
00010000
00001000
00000000
00010000
00000000
,
00000000
00000000
00000000
00000000
,
00000010
00000000
00000010
00001000
00000100
00000000
00000100
00001000
,
00000100
00000000
00000000
00000100
,
00001100
00000000
00011000
00000000
,
00110000
00000000
11000000
01100000
,
00000000
00011000
00001100
00000000
,
00000000
00000000
00022000
00000000
,
00033000
00000000
00001000
00100000
00001000
00000000
00010000
00000100
00000000
00010000
00001000
00000000
00100000
00001000
00000000
00010000
,
00001000
00000000
00010000
00000100
00000000
00010000
00001000
00000000
00100000
00001000
00000000
00010000
00001000
00000000
00000000
00000000
,
00010000
00000100
00001000
00000010
,
00000100
00000010
00001000
00000100
,
00010000
00001000
00100000
00010000
,
01000000
00000000
00100000
00000000
10000000
01000000
00100000
00000000
,
00010000
00001000
00010000
00001000
,
00000100
00000010
00000001
00001000
,
00000100
00001000
00000010
00010000
,
00001000
00100000
00010000
01000000
,
00100000
01000000
00100000
01000000
,
00100000
10000000
01000000
10000000
,
00100000
01000000
00010000
00100000
,
00001000
00010000
00000100
00000000
,
00001100
00000000
00011000
00001000
,
00100000
00010000
01000000
00000000
,
00001000
00010000
00001000
00000000
,
00010000
00000000
00000100
00000000
00001000
00000100
00001000
00000100
,
00001000
00000100
00001000
00000000
,
00001000
00000010
00000000
00000000
,
00000000
00010000
00001000
00100000
,
00010000
01000000
00010000
00000000
,
01000000
10000000
01000000
00000000
,
00010000
00001000
00000000
00000100
,
00000001
00000010
00000100
00000000
,
00001000
00000100
00010000
00001000
,
00100000
00010000
01000000
00000000
,
01000000
10000000
00000000
01000000
,
00010000
00100000
00001000
00010000
,
00000000
00001000
00010000
00001000
,
00010000
00000100
00001000
00000000
,
00001000
00000010
00000000
00000100
,
00000001
00000010
00000100
00000000
,
00001000
00000100
00000001
00000100
,
00001000
00000010
00001000
00000000
,
00010000
00000100
00000000
00000000
,
00000000
00011000
00101000
00010000
,
00000000
01000000
00010000
00010000
,
00100000
00010000
10000000
00000000
,
10000000
00100000
00000000
00010000
,
00001000
00000010
00000001
00000100
,
00000000
00000010
00001000
00000100
,
00000010
00000001
00001000
00000000
,
00001000
00000100
00000000
00001000
,
00010000
00100000
00000000
01000000
,
10000000
00100000
01000000
00010000
,
00100000
00110000
00110000
00000000
,
00011000
00011000
00000000
00000000
,
00001100
00000000
00000110
00000000
,
00000001
00001000
00000100
00000000
00000100
00001000
00000100
00000000
,
00000000
00022000
00000000
00000000
,
00000000
00033000
00000000
00000000
;

//---------------dance-double - ----------------
#NOTES:
     dance-double:
     :
     Challenge:
     10:
     0.968091,1.222563,0.574118,0.082017,0.061513,661.000000,605.000000,56.000000,8.000000,0.000000,0.000000,0.968091,1.222563,0.574118,0.082017,0.061513,661.000000,605.000000,56.000000,8.000000,0.000000,0.000000:
00000000
00000000
00000000
00000000
,
00000000
00000000
00000000
00000000
,
00000000
00000000
00000000
00000000
,
00000000
00000000
00000000
00000000
00000000
00000000
00000000
00010000
,
00001000
00000000
00000000
00000000
,
00011000
00000000
00000000
00000000
,
01100000
00000000
00011000
00000000
,
00000110
00000000
00000000
00000000
00011000
00000000
00000000
00000000
01100000
00000000
01000000
00000000
00100000
01000000
00100000
01000000
,
00010000
00000000
00100000
00000000
00001000
00000000
00000000
00000100
,
00001000
00000010
00000100
00000001
00000010
00000000
00000100
00000000
,
00001000
00000000
00010000
00000000
00100000
00000000
00000000
01000000
,
10000000
00100000
01000000
00010000
01000000
00000000
00100000
00000000
,
01000000
00000000
00010000
00000000
10000000
00000000
00000000
00100000
,
00001000
00010000
00000010
00001000
00000100
00000000
00000001
00000000
,
00000100
00000000
00001000
00000000
00010000
00000000
00000000
01000000
,
10000000
01000000
00010000
01000000
10000000
00000000
00100000
00000000
,
01000000
00000000
01010000
00000000
00011000
00000000
00000000
00001000
,
00010000
00000000
00010100
00000000
00001100
00000000
00000000
00000010
,
00000100
00000010
00001000
00000001
00000100
00000000
00000000
00001000
,
00000010
00010000
00001000
00100000
00010000
00000000
10000000
00000000
,
00010000
00000000
11000000
00000000
01100000
00000000
00000000
00010000
,
00100000
00000000
01100000
00000000
00110000
00000000
00000000
00100000
,
00001000
00010000
00001000
00100000
00010000
00000000
00000000
00001000
,
00010000
00000100
00001000
00000010
00001000
00000100
00010000
00000000
,
00000100
00000000
00001000
00000000
00001100
00000000
00000000
00000010
,
00000100
00000001
00000010
00000011
,
00001000
00000000
00000100
00000000
00010100
00000000
00000000
00010000
,
00001000
00100000
00010000
01010000
,
10000000
00000000
00100000
00000000
00010000
00000000
00000000
00001000
,
00000010
00000001
00000010
00000100
00001000
00000000
00010000
00000000
,
01000000
00000000
00100000
00000000
10000000
00000000
00000000
00100000
,
01000000
00001000
00010000
00000100
00001000
00000000
00000010
00000000
,
00000100
00000000
00000001
00000000
00000010
00000000
00000000
00000100
,
00001000
00010000
00100000
01000000
00100000
00000000
00010000
00000000
,
10000000
00000000
00010000
00000000
00100000
00000000
00000000
00010000
,
01000000
00100000
10000000
01000000
00100000
00000000
00001000
00000000
,
00101000
00011000
00000000
00001100
,
00001010
00000000
00000000
00000001
00000100
00000000
00002001
00000000
,
00000000
00003200
00000000
00010000
,
00010300
00000000
00000000
00001000
,
00110000
01100000
11000000
00000000
,
11000000
01100000
00110000
00021000
,
00000000
00000000
00030010
00000100
00000010
00000000
00000100
00000000
,
00000001
00000010
00000100
00001000
,
00000010
00010000
00000010
00010000
00001000
00010000
00001000
00010000
,
00001000
00000000
01000000
00100000
01000000
00000000
10010000
00000000
,
00100000
01000000
00010000
00000000
00000000
00000000
00100000
00000000
,
00001000
00000000
00010000
00001000
00010000
00000000
00000100
00000000
,
00010100
00001010
00000101
00000000
,
00000101
00001010
00010100
00012000
,
00000000
00000000
00103000
00010000
00100000
00000000
00010000
10000000
,
00010000
01000000
10010000
00000000
,
00100000
00000000
01000000
00010000
01000000
00010000
10000000
00100000
,
10000000
00100000
00000000
00000000
01000000
00010000
01000000
00010000
,
00100000
00001000
00100000
00001000
00000000
00000000
00000100
00010000
,
00000100
00010000
00000010
00001000
00000010
00001000
00000010
00000000
,
00000100
00000001
00000100
00000000
00000100
00000010
00000100
00000000
,
00010000
00001000
00010000
00000000
00010000
00000100
00010000
00000000
,
00001000
00100000
00001000
00100000
00001000
00000000
00010000
00000000
,
01000000
00000000
00100000
10000000
01000000
00000000
00000000
00000000
,
00100000
01000000
00100000
01000000
00010000
00100000
00010000
00100000
,
00001000
00000000
00011000
00001000
,
00010000
00000100
00010000
00000000
00000010
00000000
00000100
00000001
,
00001000
00000010
00001000
00010000
,
00100000
01000000
00100000
00000000
00100000
00010000
00100000
00000000
,
00010000
10000000
00010000
00000000
00010000
01000000
00010000
00000000
,
10000000
00000000
00010000
10000000
01000000
10000000
00100000
00000000
,
01010000
00100000
00022000
00000000
,
00033000
00000000
00001000
00100000
00010000
00000000
01000000
00100000
00000000
10000000
01000000
00000000
00100000
00010000
00000000
00001000
,
00000100
00000000
00000010
00000001
00000000
00000100
00000010
00000000
00001000
00000100
00000000
00010000
00001000
00000000
00000000
00000000
,
00010000
00000100
00010000
00000010
,
00010000
00000000
00001000
00000000
00100000
00010000
00100000
00000000
,
01000000
10000000
01000000
00000000
10000000
00000000
01000000
00000000
,
00100000
00000000
01000000
00000000
10000000
01000000
00010000
00000000
,
00001000
00000100
00001000
00000100
,
00000001
00000010
00000001
00000100
,
00000001
00001000
00000001
00000010
,
00000100
00001000
00000100
00000000
00010000
00001000
00010000
00000000
,
00001000
00100000
00001000
00010000
00001000
00100000
00001000
00000000
,
00100000
00010000
01000000
00100000
,
10000000
01000000
00100000
00010000
,
01000000
01000000
00100000
00100000
,
01000000
00010000
00100000
00000000
00100000
00001000
00010000
00000000
,
00011000
00000000
00010000
00000100
00001000
00000000
00001000
00000010
,
00000100
00000000
00000001
00000010
00000100
00001000
00000100
00000000
,
00010000
00001000
00100000
00010000
10000000
00010000
10000000
00010000
,
10000000
00000000
00000000
00000000
00000000
00000000
00000000
00011000
00000010
00000000
00000000
00000000
00000100
00000000
00000000
00000000
00000010
00000000
00000000
00000000
00000000
00000000
00000000
00000000
00001000
00000000
00000000
00000000
00000100
00000000
00000000
00000000
,
00001000
00000000
00000010
00000100
00000001
00000010
00000001
00001000
,
00000100
00000000
00010000
00001000
00010000
00000000
00001000
00100000
,
00001000
00000000
00100000
00010000
01000000
00100000
01000000
00010000
,
00100000
00000000
01000000
10000000
01000000
00000000
10000000
00100000
,
10000000
00000000
00100000
01000000
00010000
00100000
00001000
00010000
,
00000100
00000000
00001000
00000010
00001000
00000000
00000001
00000100
,
00000001
00000000
00001000
00000100
00000010
00000001
00000010
00000100
,
00001000
00000000
00010000
00100000
01000000
00000000
10000000
01000000
,
00100000
00000000
00001000
00100000
00010000
00000000
00100000
00001000
,
00010000
00000000
00000010
00000100
00000010
00000100
00000001
00000010
,
00000001
00000010
00000100
00001000
00000100
00001000
00010000
00001000
,
00010000
00001000
00100000
00010000
00100000
00000000
01000000
00100000
,
01000000
00000000
00100000
10000000
00010000
00000000
01000000
00010000
,
10000000
00000000
00100000
01000000
00100000
01000000
00010000
10000000
,
00010000
10000000
00010000
00100000
00010000
00100000
00001000
00010000
,
00001000
00011000
00010100
00000000
,
00000110
00000011
00000000
00000000
,
00000000
00000100
00001000
00000100
00000010
00000001
00000100
00000010
,
00001000
00000100
00010000
00001000
00100000
00010000
01000000
00100000
,
10000000
01000000
10000000
00010000
00100000
00010000
01000000
00100000
,
01000000
00010000
00100000
00001000
00010000
00000100
00001000
00000010
,
00000100
00000010
00001000
00000100
00010000
00001000
01000000
00010000
,
00100000
00010000
01000000
00100000
10000000
00100000
01000000
00010000
,
00100000
00000000
00010000
00100000
00010000
10000000
01000000
00100000
,
01000000
10000000
00100000
01000000
00010000
00100000
00001000
00010000
,
00001000
00100000
00010000
10000000
01000000
00100000
00010000
00001000
,
00000010
00000100
00000010
00001000
00000100
00000010
00000001
00000100
,
00000010
00000110
00001100
00000000
,
00011000
00110000
00000000
00000000
,
01000000
00000000
00011000
00000000
,
00010010
00000000
00101000
00000000
,
00000000
00022000
00000000
00000000
,
00000000
00033000
00000000
00000000
;
