#TITLE:Open The Door!;
#SUBTITLE:;
#ARTIST:Kid Whatever;
#TITLETRANSLIT:;
#SUBTITLETRANSLIT:;
#ARTISTTRANSLIT:;
#GENRE:Hardcore;
#CREDIT:;
#BANNER:openthedoor-bn.png;
#BACKGROUND:openthedoor-bg.png;
#LYRICSPATH:;
#CDTITLE:;
#MUSIC:Open the Door!.ogg;
#OFFSET:-0.020000;
#SAMPLESTART:20.529997;
#SAMPLELENGTH:12.000000;
#SELECTABLE:YES;
#BPMS:0.000000=187.080002
;
#STOPS:28.000000=0.321000,
155.000000=0.993000
;
#BGCHANGES:;
#KEYSOUNDS:;
#ATTACKS:;

//---------------dance-single - ----------------
#NOTES:
     dance-single:
     :
     Hard:
     9:
     0.684160,0.679687,0.463124,0.336817,0.063153,455.000000,411.000000,44.000000,32.000000,0.000000,0.000000,0.684160,0.679687,0.463124,0.336817,0.063153,455.000000,411.000000,44.000000,32.000000,0.000000,0.000000:
// measure 0
0000
0000
0000
0000
,  // measure 1
0000
0000
0000
0000
,  // measure 2
0000
0000
0000
0000
,  // measure 3
0000
0000
0000
0000
,  // measure 4
2010
0000
0100
3100
0000
0000
0000
0000
,  // measure 5
0012
0000
0100
0100
0000
1000
1003
0000
,  // measure 6
0120
0000
0001
0031
0000
0000
0000
0000
,  // measure 7
1100
0000
0010
0100
0010
0100
0001
0010
,  // measure 8
0100
0000
1100
0000
1000
0010
1000
0010
,  // measure 9
0100
0002
0000
1000
0000
1003
0010
0100
,  // measure 10
0001
1000
0100
1000
0010
1000
0010
0001
,  // measure 11
0100
0001
0100
1000
0010
0000
0100
0100
,  // measure 12
0100
0100
0001
0001
0001
0001
1000
0100
,  // measure 13
0010
0001
0000
0001
0010
0000
1100
0000
,  // measure 14
1010
0000
0000
0000
1100
0000
0000
0000
1010
0000
0000
0000
1000
0000
0000
1000
,  // measure 15
0001
0000
0000
0001
1000
0000
0000
1000
0010
0000
1000
0000
1010
0000
0000
0000
,  // measure 16
1000
0010
1000
0100
0000
0110
0000
0010
,  // measure 17
0001
0100
0001
0000
0000
0000
0101
0000
,  // measure 18
0001
0100
0010
0100
0000
0110
0000
0010
,  // measure 19
1000
0100
1000
0001
1000
2020
0000
3030
,  // measure 20
0010
1000
0010
0100
0000
0110
0000
0100
,  // measure 21
0001
0010
0001
0000
0000
0000
0011
0000
,  // measure 22
0001
0100
0010
0100
0000
0110
0000
0010
,  // measure 23
1000
0100
1000
0001
0010
0100
0110
0000
,  // measure 24
0010
0001
0000
0010
0100
0010
0110
0000
,  // measure 25
0010
1000
0000
0010
0100
0010
0110
0000
,  // measure 26
0010
0001
0000
0001
0100
0010
1000
1000
,  // measure 27
1000
1000
1000
1000
1000
0010
0001
0000
,  // measure 28
0010
1000
0010
1000
0000
0010
0001
0000
,  // measure 29
0010
1000
0010
1000
0000
0010
0001
0000
,  // measure 30
0010
0000
1000
0000
0010
0000
1000
0000
0000
0000
0000
0000
0001
0000
0000
0001
,  // measure 31
0100
0000
0000
0100
0001
0000
0000
0001
0100
0000
0001
0000
0020
0000
0000
0000
,  // measure 32
0130
1000
0200
0000
1300
0010
1000
0100
,  // measure 33
0001
0200
0000
2300
0000
3100
2000
0000
,  // measure 34
3001
1000
0200
0001
0001
0301
0100
1000
,  // measure 35
0010
0200
0000
0302
0000
1003
0020
0000
,  // measure 36
0130
0100
0002
0000
0103
0001
0020
1000
,  // measure 37
1000
2030
0000
3020
0000
0031
2000
0000
,  // measure 38
3001
0010
0200
0010
0010
0310
0002
0000
,  // measure 39
0103
0001
0010
0000
0001
0100
0100
0100
,  // measure 40
0100
0010
1000
0100
0000
0010
0010
0010
,  // measure 41
0001
1000
0100
0100
0100
1000
1000
1000
,  // measure 42
0100
0010
0001
2000
0000
0001
0001
3001
,  // measure 43
1000
0010
0001
0000
1010
0000
0001
0001
,  // measure 44
0001
0010
0100
1000
0000
0000
0000
0000
,  // measure 45
1001
0110
1001
0110
,  // measure 46
0100
0100
0100
0100
0100
0100
0100
0000
,  // measure 47
1000
0000
0000
1000
0001
0000
0000
0001
1000
0000
0000
1000
0010
0000
0010
0000
,  // measure 48
0001
0000
0000
0001
1000
0000
0000
1000
0001
0000
0000
0001
0010
0000
0010
0000
,  // measure 49
1000
0001
0010
0010
0001
1000
0010
0010
,  // measure 50
1001
0000
0110
0000
1001
0000
0110
0100
,  // measure 51
0001
0000
0010
0100
0010
1000
0000
0011
,  // measure 52
0000
0010
0100
0010
1000
0001
0001
0000
,  // measure 53
1010
0000
0010
0100
0010
0001
0000
1010
,  // measure 54
0000
0010
0100
0010
0001
1000
0100
2200
,  // measure 55
0000
3300
0100
0010
0100
0001
0000
1100
,  // measure 56
0000
0100
0010
0100
0001
0000
0000
0000
,  // measure 57
1001
0000
1000
0010
0001
0010
0000
1001
,  // measure 58
0000
0001
0010
1000
0010
0001
0100
0010
,  // measure 59
2000
0000
3010
0200
0000
0301
0010
0100
,  // measure 60
2000
0000
3100
0020
0000
0031
1000
0010
,  // measure 61
0002
0000
0013
2000
0000
3100
0010
0001
,  // measure 62
1000
1000
1000
1000
1000
1000
1000
0010
,  // measure 63
1000
0000
0100
0001
0100
1000
0000
0001
,  // measure 64
1000
0000
0010
0001
0010
1000
0000
1000
,  // measure 65
0001
0000
0100
1000
0100
0001
0000
1000
,  // measure 66
0001
0000
0010
1000
0010
0001
0000
1000
,  // measure 67
1010
0000
0100
0010
0011
0000
0100
0010
,  // measure 68
1010
0000
0100
0010
0011
0000
0100
0010
,  // measure 69
1010
1100
0011
0101
,  // measure 70
0001
0100
0010
1000
0100
0010
0001
1000
,  // measure 71
0020
0000
0000
0030
;

//---------------dance-single - ----------------
#NOTES:
     dance-single:
     :
     Medium:
     6:
     0.437562,0.485754,0.357868,0.105255,0.000000,291.000000,257.000000,34.000000,10.000000,0.000000,0.000000,0.437562,0.485754,0.357868,0.105255,0.000000,291.000000,257.000000,34.000000,10.000000,0.000000,0.000000:
0000
0000
0000
0000
,
0000
0000
0000
0000
,
0000
0000
0000
0000
,
0000
0000
0000
0000
,
1100
0000
0100
1000
0000
0000
0000
0000
,
0101
0000
0100
0001
0000
0000
0000
0000
,
1100
0000
0100
1000
0000
0000
0000
0000
,
0000
0000
0220
0000
0330
0000
1000
0010
,
1000
0000
0001
0000
0010
0100
0010
0100
,
0010
0100
0000
0000
0000
0000
0010
0000
,
0001
0000
1000
0100
1000
0100
1000
0000
,
1000
0000
1000
0000
0000
0000
0010
1000
,
0010
1000
0010
0000
0010
0000
0100
0000
,
0100
0000
0000
1010
,
0110
1010
0110
2002
,
0000
0000
3003
0100
,
0100
0000
0100
0010
0000
0100
0000
0100
,
0000
0100
0010
0000
0000
0000
1000
0000
,
1000
0000
1000
0001
0000
1000
0000
1000
,
0000
1000
0001
0000
0000
0000
0010
0000
,
0010
0000
0010
0001
0000
0010
0000
0010
,
0000
0010
0001
0000
0000
0000
1000
0000
,
1000
0000
1000
0100
0000
1000
0000
1000
,
0000
1000
0100
0000
0000
0000
1001
0000
,
0010
0100
0000
0000
0010
0000
1001
0000
,
0100
0010
0000
0000
1000
0000
1100
0000
,
0010
0001
0000
0000
0101
0000
0010
0000
,
0010
0010
1100
1000
,
0010
0100
0010
0100
0000
0000
0001
0000
,
0100
0010
0100
0010
0000
0000
1000
0000
,
0010
0100
0010
0100
0000
0000
2002
0000
,
0000
0000
3003
0010
,
0000
1000
0000
0100
,
0000
0001
0000
0001
0000
0000
0100
0000
,
0000
1000
0000
0010
,
0000
0001
0000
0001
0000
0000
1000
0000
,
0000
0010
0000
0100
,
0000
1000
0000
1000
0000
0000
0100
0000
,
0000
0001
0000
0000
,
0010
0010
1001
0010
,
0010
0000
0100
0010
0000
1000
0001
0000
,
1000
0100
0100
0010
,
0010
0000
0001
1000
0000
0010
1000
0010
,
1000
1000
1100
0010
,
0010
0000
0010
0001
0000
0000
0000
0000
,
0200
0302
2003
3020
,
0130
0100
0100
0100
0100
0100
0100
0000
,
0001
0000
0000
1000
,
1001
0000
0000
0001
,
1001
0000
1001
0000
,
1001
1001
1001
1001
,
1000
0000
1000
0000
1000
0100
0000
1000
,
0000
1000
0000
1000
0100
0000
0000
0000
,
0010
0000
0010
0000
0010
0001
0000
0010
,
0000
0010
0000
0010
0001
0000
0000
0000
,
0100
0000
0100
0000
0100
0010
0000
0100
,
0000
0100
0000
0100
0010
0000
0000
0000
,
1000
0000
1000
0000
1000
0001
0000
1000
,
0000
1000
0000
1000
0001
0000
0000
0000
,
1100
0000
0010
0001
0000
0000
0100
0000
,
0101
0000
0010
1000
0000
0000
1000
0000
,
1100
0000
0010
0001
0000
0100
0010
0100
,
0010
0010
0010
1001
,
1000
0000
1000
0100
0010
0001
0000
0000
,
0001
0000
0001
0010
0100
1000
0000
0000
,
1000
0000
1000
0100
0010
0001
0000
0000
,
0001
0000
0001
0010
0100
1000
0000
0000
,
1001
0010
1001
0010
,
1001
0010
1001
0010
,
0100
0100
0100
0100
,
0001
0001
0001
1100
,
1010
0000
0000
0000
;

//---------------dance-single - ----------------
#NOTES:
     dance-single:
     :
     Easy:
     4:
     0.332306,0.373657,0.105255,0.168409,0.000000,221.000000,211.000000,10.000000,16.000000,0.000000,0.000000,0.332306,0.373657,0.105255,0.168409,0.000000,221.000000,211.000000,10.000000,16.000000,0.000000,0.000000:
0000
0000
0000
0000
,
0000
0000
0000
0000
,
0000
0000
0000
0000
,
0000
0000
0000
0000
,
2020
0000
0000
3030
0000
0000
0000
0000
,
0202
0000
0000
0303
0000
0000
0000
0000
,
0220
0000
0000
0330
0000
0000
0000
0000
,
0000
1000
1000
0100
,
0100
1000
0010
0010
,
0100
0000
0000
0001
,
0010
0001
0001
0100
,
1000
0100
0001
1000
,
1000
0001
0001
0100
,
0010
0000
0100
0001
,
0001
0001
0001
0202
,
0000
0000
0303
1000
,
1000
2000
0000
0010
,
0010
3010
0000
0001
,
0001
0002
0000
0100
,
0100
0103
0000
0100
,
0100
0200
0000
0010
,
0010
0310
0000
0001
,
0001
0002
0000
1000
,
1000
1003
0000
0010
,
1000
0001
1000
0010
,
0001
1000
0001
0010
,
1000
0001
1000
0010
,
0010
0010
1001
0100
,
0100
1000
0000
0010
,
0010
0001
0000
1000
,
0010
0001
0010
2002
,
0000
0000
3003
1000
,
0000
0100
0000
0010
,
0000
0001
0000
0001
,
0000
0100
0000
0010
,
0000
1000
0000
0001
,
0000
1000
0000
0010
,
0000
0100
0000
0100
,
0000
0010
0000
2000
,
3100
0100
1000
0010
,
0010
0001
0010
0010
,
1000
0100
0100
0001
,
0001
0100
1000
0010
,
0100
1000
0100
0001
,
0001
0010
0100
1000
,
0010
0010
0010
0010
,
1000
0001
1000
0001
,
0100
0100
0100
1000
,
0100
0100
0100
0001
,
0100
1000
0100
0001
,
1000
0001
1000
0001
,
0010
0100
0001
0000
,
0010
0100
0001
0000
,
0100
0010
1000
0000
,
0100
0010
1000
0000
,
1000
0100
0001
0000
,
1000
0100
0001
0000
,
0010
1000
0001
0000
,
0010
1000
0001
0000
,
1000
0100
0001
0100
,
1000
0010
0001
0010
,
1000
0100
0001
0100
,
1000
1000
1000
0001
,
1000
0010
1010
0000
,
0100
0001
0101
0000
,
0001
0010
0011
0000
,
0100
1000
1100
0000
,
0001
0100
1000
0100
,
0001
0100
1000
0100
,
0001
0001
0001
0001
,
0002
0000
0000
0000
,
0013
0000
0000
0000
;

//---------------dance-single - ----------------
#NOTES:
     dance-single:
     :
     Beginner:
     1:
     0.106759,0.224194,0.010526,0.000000,0.000000,71.000000,70.000000,1.000000,0.000000,0.000000,0.000000,0.106759,0.224194,0.010526,0.000000,0.000000,71.000000,70.000000,1.000000,0.000000,0.000000,0.000000:
0000
0000
0000
0000
,
0000
0000
0000
0000
,
0000
0000
0000
0000
,
0000
0000
0000
0000
,
1000
0000
0000
0000
,
1000
0000
0000
0000
,
0001
0000
0000
0000
,
0000
0000
0000
0010
,
0000
0000
0000
0000
,
0000
0000
0000
0100
,
0000
0000
0000
0000
,
0000
0000
0000
1000
,
0000
1000
0000
1000
,
0000
0000
0000
0010
,
0010
0010
0010
0010
,
0000
0000
0000
0100
,
0000
0000
0000
0000
,
0000
0000
0000
0001
,
0000
0000
0000
0000
,
0000
0000
0000
1000
,
0000
0000
0000
0000
,
0000
0000
0000
0010
,
0000
0000
0000
0000
,
0000
0000
0000
1000
,
0000
0000
0000
1000
,
0000
0000
0000
0001
,
0000
0000
0000
1000
,
0000
0000
0000
0010
,
0000
0000
0000
0010
,
0000
0000
0000
0010
,
0000
0010
0000
0100
,
0000
0000
0000
1000
,
0000
0100
0000
1000
,
0000
0000
0000
0001
,
0000
0100
0000
0001
,
0000
0000
0000
0100
,
0000
0000
0000
0000
,
0000
0000
0000
0010
,
0000
0000
0000
0000
,
1000
0000
0000
0000
,
0000
0000
0000
0010
,
0010
0000
0000
0000
,
0000
0000
0000
0000
,
0100
0000
0000
0000
,
0001
0000
0000
0000
,
1000
1000
1000
1000
,
1000
0000
0000
0000
,
0010
0000
0000
0000
,
0010
0000
0000
0000
,
0010
0000
0010
0000
,
0010
0000
0000
0000
,
0100
0000
0000
0000
,
0000
0000
0000
0000
,
1000
0000
0000
0000
,
0000
0000
0000
0000
,
0001
0000
0000
0000
,
0000
0000
0000
0000
,
0010
0000
0000
0000
,
0000
0000
0000
0000
,
0100
0000
0000
0000
,
1000
0000
0000
0000
,
0010
0000
0000
0000
,
0001
0000
0000
0000
,
1000
0000
0000
0000
,
0010
0000
0000
0000
,
0001
0000
0000
0000
,
0010
0000
0000
0000
,
1000
0000
0001
0000
,
1000
0000
0001
0000
,
0100
0100
0100
0100
,
0000
0000
0000
0000
,
0110
0000
0000
0000
;

//---------------dance-double - ----------------
#NOTES:
     dance-double:
     :
     Easy:
     4:
     0.264642,0.336291,0.063153,0.073679,0.000000,176.000000,170.000000,6.000000,7.000000,0.000000,0.000000,0.264642,0.336291,0.063153,0.073679,0.000000,176.000000,170.000000,6.000000,7.000000,0.000000,0.000000:
00000000
00000000
00000000
00000000
,
00000000
00000000
00000000
00000000
,
00000000
00000000
00000000
00000000
,
00000000
00000000
00000000
00000000
,
00100000
00000000
00000000
00100000
00000000
00000000
00000000
00000000
,
00001000
00000000
00000000
00001000
00000000
00000000
00000000
00000000
,
00010000
00000000
00000000
00010000
00000000
00000000
00000000
00000000
,
00000000
00000000
00000000
00000000
00000000
00000000
00000100
00001000
,
00000100
00000100
00000000
00000000
,
00000000
00000000
00000000
00010000
00000000
00010000
00000000
00000000
,
00000000
00100000
00100000
01000000
,
00100000
01000000
00000000
00010000
,
00010000
00001000
00001000
00010000
,
00001000
00000000
00000000
00000010
,
00000010
00000010
00000010
00000000
,
00000000
00000000
00000000
00000100
,
00000100
00000001
00000000
00000000
,
00000100
00000001
00000000
00001000
,
00001000
00000100
00000000
00000000
,
00001000
00000100
00000000
00010000
,
00010000
00001000
00000000
00000000
,
00010000
00001000
00000000
00100000
,
00100000
00010000
00000000
00000000
,
00100000
00010000
00000000
20000000
,
00000000
30010000
00000000
02000000
,
00000000
03100000
00000000
20000000
,
00000000
00000000
30010000
00000000
00000000
00000000
00100000
01000000
,
00100000
00100000
00100000
00010000
,
00010000
00100000
00000000
00001000
,
00001000
00010000
00000000
00000100
,
00000100
00001000
00000000
00000000
,
00000000
00000000
00000000
00000001
,
00000000
00000010
00000000
00000100
,
00000000
00001000
00000000
00001000
00000000
00000000
00010000
00000000
,
00000000
00100000
00000000
01000000
,
00000000
10000000
00000000
10000000
00000000
00000000
10000000
00000000
,
00000000
01000000
00000000
00100000
,
00000000
00010000
00000000
00010000
00000000
00000000
00001000
00000000
,
00000000
00000100
00000000
00000000
,
00000010
00000001
00000010
00000001
,
00000001
00000010
00000000
00000000
,
00000100
00001000
00001000
00000100
,
00000100
00001000
00000000
00000000
,
00000001
00001000
00000001
00000000
00000001
00000000
00000010
00000000
,
00000100
00001000
00000000
00000000
,
00010000
00010000
00010000
00010000
,
00020000
00000000
00000000
00030000
,
10010000
00000000
00000000
00000000
,
00110000
00000000
00000000
00000000
,
00011000
00000000
00001100
00000000
,
00000220
00000000
00000000
00000330
,
00000010
00000100
00001000
00000000
,
00000010
00000100
00001000
00000000
,
00010000
00100000
01000000
00000000
,
00010000
00100000
01000000
00000000
,
10000000
01000000
00010000
00000000
,
10000000
01000000
00010000
00000000
,
01000000
00100000
00010000
00000000
,
01000000
00100000
00010000
00000000
,
00001000
00000000
00000000
00000010
00000000
00000000
00000000
00000000
,
00000100
00000000
00000000
00000001
00000000
00000000
00000000
00000000
,
00000010
00000000
00000000
00000100
00000000
00000000
00000000
00000000
,
00001000
00000000
00000000
00000000
,
00010000
00010000
00100000
00000000
,
01000000
01000000
10000000
00000000
,
00100000
00100000
01000000
00000000
,
00001000
00001000
00010000
00000000
,
00000100
00001000
00010000
00100000
,
00010000
00001000
00000100
00001000
,
00010000
00010000
00010000
00010000
,
00002000
00000000
00000000
00003000
,
00011000
00000000
00000000
00000000
;

//---------------dance-double - ----------------
#NOTES:
     dance-double:
     :
     Medium:
     6:
     0.354861,0.523119,0.115781,0.094730,0.000000,236.000000,225.000000,11.000000,9.000000,0.000000,0.000000,0.354861,0.523119,0.115781,0.094730,0.000000,236.000000,225.000000,11.000000,9.000000,0.000000,0.000000:
00000000
00000000
00000000
00000000
,
00000000
00000000
00000000
00000000
,
00000000
00000000
00000000
00000000
,
00000000
00000000
00000000
00000000
,
00000100
00000000
00000000
00001000
00000000
00000000
00000000
00000000
,
00000010
00000000
00000000
00000100
00000000
00000000
00000001
00000000
,
00000010
00000000
00000000
00000100
00000000
00000000
00000000
00000000
,
00010000
00000000
00200000
00000000
00000000
00000000
01300000
10000000
,
01000000
00000000
01000000
00000000
10000000
00000000
10000000
00010000
,
10000000
00010000
00000000
00000000
00000000
00000000
00100000
00000000
,
00100000
00000000
01000000
00000000
01000000
00000000
00100000
00010000
,
00100000
00010000
00000000
00000000
00000000
00000000
00001000
00000000
,
00001000
00000000
00000100
00000000
00000100
00000000
00000010
00000001
,
00000010
00000001
00000000
00000000
00000000
00000000
00000101
00000000
,
00001010
00000101
00001010
00000202
,
00000000
00000000
00000303
00000001
,
00000001
00000000
00000001
00000010
00000000
00000100
00000000
00000100
,
00000000
00000100
00001000
00000000
00000000
00000000
00010000
00000000
,
00010000
00000000
00010000
00100000
00000000
01000000
00000000
01000000
,
00000000
01000000
10000000
00000000
00000000
00000000
00100000
00000000
,
01000000
00000000
00100000
01000000
00000000
00000000
00010000
00000000
,
10000000
10010000
00000000
00001000
,
00000100
00000000
00001000
00000100
00000000
00000000
00001000
00000000
,
00000001
00001001
00000000
00000020
,
00000030
00000010
00000000
00000000
00000000
00000000
00000200
00000000
,
00000300
00000100
00000000
00000000
00000000
00000000
00000002
00000000
,
00000003
00000001
00000000
00000000
00000000
00000000
00002000
00000000
,
00000000
00003000
00000000
00010000
,
00010000
00100000
00000000
01000000
,
01000000
10000000
00000000
00100000
,
00100000
01000000
00000000
02000000
,
00000000
00000000
03000000
00010000
,
00000000
00001000
00000000
00000010
,
00000000
00000100
00000000
00000001
00000000
00000000
00000010
00000000
,
00000000
00000100
00000000
00001000
,
00000000
00010000
00000000
00100000
00000000
00000000
01000000
00000000
,
00000000
10000000
00000000
00100000
,
00000000
00010000
00000000
00001000
00000000
00000000
00000010
00000000
,
00000000
00000001
00000000
00000000
,
00001000
00000100
00001000
00000010
,
00000100
00000001
00000100
00000001
00000000
00000000
00000000
00000000
,
00000010
00000000
00000100
00000000
00000100
00001000
00000100
00001000
,
00000100
00001000
00000100
00001000
00000000
00000000
00000000
00000000
,
00010000
00100000
01000000
10000000
,
10000000
00010000
10000000
00010000
00000000
00000000
00000000
00000000
,
01000000
01000000
01000000
01000000
,
00010000
01000000
00010000
01000000
00000000
00000000
00000000
00000000
,
10000000
00000000
00010000
00000000
10000000
00000000
00010000
10000000
,
00010000
00000000
00100000
00000000
00010000
00000000
00100000
00010000
,
00100000
00001000
00010000
00001000
,
00010000
00000000
00010000
00000000
00010000
00000000
00010000
00000100
,
00010000
00000000
00000100
00000000
00001000
00000010
00000000
00000000
,
00000100
00000000
00000001
00000010
00000000
00000000
00000000
00000000
,
00000100
00000000
00001000
00000000
00000010
00000100
00000000
00000000
,
00000001
00000000
00001000
00000010
00000000
00000000
00000000
00000000
,
00000100
00000000
00001000
00000000
00010000
00100000
00000000
00000000
,
01000000
00000000
10000000
00100000
00000000
00000000
00000000
00000000
,
01000000
00000000
00010000
00000000
00100000
00010000
00000000
00000000
,
00100000
00000000
01000000
10000000
00000000
00000000
00000000
00000000
,
00100000
00000000
00000000
00010000
00000000
00000000
00000000
00000000
,
00001000
00000000
00000000
00000100
00000000
00000000
00000000
00000000
,
00000010
00000000
00000000
00000001
00000000
00000000
00000000
00000000
,
00000100
00000000
00000100
00000000
00000100
00000000
00000100
00000010
,
00001000
00000000
00000100
00000000
00001000
00000100
00000000
00000000
,
00010000
00000000
00001000
00000000
00010000
00001000
00000000
00000000
,
00100000
00000000
00010000
00000000
00100000
00010000
00000000
00000000
,
01000000
00000000
10000000
00000000
01000000
10000000
00000000
00000000
,
10000000
10010000
00100000
00110000
,
00001000
00011000
00000100
00001100
,
00000100
00000100
00000100
00000100
,
00002000
00000000
00000000
00000000
,
00003010
00000000
00000000
00000000
;

//---------------dance-double - ----------------
#NOTES:
     dance-double:
     :
     Hard:
     9:
     0.670627,0.717447,0.410496,0.042102,0.068416,446.000000,407.000000,39.000000,4.000000,0.000000,0.000000,0.670627,0.717447,0.410496,0.042102,0.068416,446.000000,407.000000,39.000000,4.000000,0.000000,0.000000:
00000000
00000000
00000000
00000000
,
00000000
00000000
00000000
00000000
,
00000000
00000000
00000000
00000000
,
00000000
00000000
00000000
00000000
,
01010000
00000000
00010000
00100000
00000000
00000000
00000000
00000000
,
00011000
00000000
00001000
00010000
00000000
00000000
00000110
00000000
,
00001100
00000000
00000100
00000010
00000000
00000000
00000000
00000000
,
00000100
00000000
00001000
00000100
00001000
00000100
00000010
00000001
,
00000100
00000000
00000010
00000000
00001000
00000100
00001000
00000100
,
00001000
00000100
00000000
00010000
00000000
01000000
10000000
00100000
,
01000000
00100000
01000000
00010000
00100000
00010000
00100000
01000000
,
10000000
00100000
00000000
01000000
00000000
00000000
00010000
00100000
,
00010000
00100000
00001000
00000100
00001000
00000100
00000010
00000100
,
00000001
00001000
00000000
00000010
00010000
00000000
00001010
00000000
,
00001100
00011000
00110000
02200000
,
00000000
00000000
03300000
11000000
,
01000000
10000000
01000000
00100000
00000000
11000000
00000000
01000000
,
10000000
01000000
00100000
00000000
00000000
00000000
00110000
00000000
,
00100000
00001000
00100000
00010000
00000000
00110000
00000000
00100000
,
00001000
00100000
00010000
00000000
00000000
00011000
00000000
00010000
,
00000100
00010000
00001000
00010000
00000000
00011000
00000000
00010000
,
00000100
00010000
00001000
00000000
00000000
00000000
00001100
00000000
,
00001000
00000010
00001000
00000100
00000000
00001100
00000000
00001000
,
00000010
00001000
00000100
00000000
00000000
00000000
00000110
00000000
,
00000001
00001000
00000000
00000010
00010000
00001000
00011000
00000000
,
01000000
00001000
00000000
01000000
00100000
10000000
10100000
00000000
,
01000000
00001000
00000000
00000100
00000001
00001000
00000100
00000100
,
00000100
00000100
00000100
00000100
00000010
00000001
00001000
00000000
,
00010000
00001000
00010000
00001000
00000000
00100000
00010000
00000000
,
01000000
00010000
01000000
00010000
00000000
10000000
00100000
00000000
,
10000000
00000000
01000000
00000000
00010000
00000000
01000000
00000000
00000000
00000000
00000000
00000000
10000000
00000000
00000000
00100000
,
01000000
00000000
00000000
00010000
00100000
00000000
00000000
00000000
00001000
00000000
00001000
00000000
00010000
00000000
00000000
00000000
,
00000100
00010000
00000100
00000000
00001000
00010000
00001000
00010000
,
00000100
00001000
00000000
00000010
00000000
00000100
00000001
00000000
,
00000010
00000100
00000010
00000100
00001000
00000010
00001000
00000010
,
00001000
00000100
00000000
00010100
00000000
00010000
00001000
00000000
,
00100000
00010000
00100000
00000000
00010000
01000000
00010000
01000000
,
00100000
10000000
00000000
01000000
00000000
10000000
10100000
00000000
,
01010000
00010000
10000000
00100000
00100000
00100000
20000000
00000000
,
30100000
01000000
00100000
00000000
01000000
00010000
01000000
00010000
,
01000000
00001000
00010000
00000100
00000000
00000100
00001000
00000100
,
00001000
00000010
00000100
00000001
00000010
00000100
00001000
00000010
,
00000100
00000001
00000010
00000100
00001000
00100000
01000000
00100000
,
00001000
00000100
00000001
00000000
00000101
00000000
00000100
00001000
,
00000100
00001000
00000010
00000100
00000000
00010000
00001000
00000000
,
00110000
01100000
11000000
01100000
,
01000000
01000000
01000000
01000000
01000000
01000000
00100000
00000000
,
01000000
00000000
00010000
01000000
00010000
00000000
00010000
01000000
00010000
00000000
00000000
00000000
10000000
00000000
10000000
00000000
,
00100000
00000000
01000000
00100000
01000000
00000000
01000000
00100000
01000000
00000000
00000000
00000000
00010000
00000000
00010000
00000000
,
00100000
00000000
00010000
00100000
00010000
00000000
00000000
00000000
00001000
00000000
00010000
00001000
00010000
00000000
00000000
00000000
,
00000100
00001000
00000010
00000100
00000001
00000010
00000100
00001000
,
00000010
00000100
00000001
00000010
00001000
00000010
00000000
00000001
,
00000100
00000001
00000010
00001000
00000010
00000000
00000000
00000000
,
00010000
00000100
00001000
00010000
00001000
00000100
00000000
00010000
,
00000000
00000100
00001000
00010000
00001000
00000000
00001000
00100000
,
00000000
00100000
01000000
00100000
10000000
00100000
00000000
00100000
,
01000000
00000000
00100000
00010000
00100000
01000000
00100000
00000000
,
10010000
00000000
00010000
01000000
00100000
10000000
00000000
10000000
,
01000000
00000000
00000000
00000000
00100000
00000000
00010000
00000000
00001000
00000000
00000100
00001000
00000100
00000000
00000000
00000000
,
00001100
00000000
00000010
00000100
00000000
00000010
00000100
00000001
,
00000011
00000000
00000100
00010000
00000000
00000010
00000100
00000001
,
00001001
00000000
00000100
00001000
00000000
00100000
00010000
01000000
,
00100000
00100000
00100000
00100000
00100000
00100000
00100000
10000000
,
01000000
00000000
00000000
00000000
10000000
00000000
00010000
10000000
00010000
00000000
00000000
00000000
00000000
00000000
01000000
00000000
,
00010000
00000000
00000000
00000000
00100000
00000000
00010000
00100000
00010000
00000000
00000000
00000000
00000000
00000000
00001000
00000000
,
00010000
00000000
00000000
00000000
00001000
00000000
00010000
00001000
00010000
00000000
00000000
00000000
00000000
00000000
00000010
00000000
,
00001000
00000000
00000000
00000000
00000010
00000000
00000100
00000010
00000100
00000000
00000000
00000000
00000000
00000000
00000100
00000000
,
00000001
00000000
00000010
00000001
00000110
00000000
00001000
00000100
,
00011000
00000000
00100000
00010000
01010000
00000000
01000000
00100000
,
11000000
01100000
00110000
00011000
,
00000100
00001000
00000010
00000100
00000001
00000010
00000100
00001000
,
00020000
00000000
00000000
00030000
;
