#TITLE:One Room Disco;
#SUBTITLE:;
#ARTIST:Perfume;
#TITLETRANSLIT:;
#SUBTITLETRANSLIT:;
#ARTISTTRANSLIT:;
#GENRE:Pop;
#CREDIT:;
#BANNER:oneroomdisco-bn.png;
#BACKGROUND:oneroomdisco-bg.png;
#LYRICSPATH:;
#CDTITLE:;
#MUSIC:One Room Disco.ogg;
#OFFSET:-5.880000;
#SAMPLESTART:24.159990;
#SAMPLELENGTH:12.000000;
#SELECTABLE:YES;
#BPMS:0.000000=128.000000
,72.000000=64.000000
,88.000000=128.000000
;
#STOPS:118.000000=0.469000
;
#BGCHANGES:;
#KEYSOUNDS:;
#ATTACKS:;

//---------------dance-single - ----------------
#NOTES:
     dance-single:
     :
     Hard:
     7:
     0.382697,0.383492,0.143146,0.235169,0.076686,262.000000,248.000000,14.000000,23.000000,0.000000,0.000000,0.382697,0.383492,0.143146,0.235169,0.076686,262.000000,248.000000,14.000000,23.000000,0.000000,0.000000:
// measure 0
0100
0100
1000
0100
0100
1000
0000
1001
,  // measure 1
0000
0001
0100
0100
0001
0100
0020
0000
,  // measure 2
0130
0002
0203
2300
,  // measure 3
3100
0001
0100
1000
0100
0000
0010
0000
,  // measure 4
1001
2000
3200
0302
,  // measure 5
0103
1000
0100
0001
0100
0000
0010
0000
,  // measure 6
1001
0020
2030
3200
,  // measure 7
1300
0010
0100
0001
0000
0001
0100
0010
,  // measure 8
0000
0000
0100
0010
1000
0000
0010
0100
,  // measure 9
0202
0000
0303
2020
0000
3030
0001
1000
,  // measure 10
1001
0000
0000
0010
1000
0100
1000
0020
,  // measure 11
0000
0000
0000
0130
0001
0100
0010
1000
,  // measure 12
0000
0001
0100
0001
1000
0001
0000
1020
,  // measure 13
0000
0130
0001
1000
0010
1000
0001
1000
,  // measure 14
0000
0000
0000
0010
0100
0010
1000
0001
,  // measure 15
0000
0201
0000
0010
0000
0301
0010
0001
,  // measure 16
0000
0010
0100
1000
0100
0010
0001
0100
,  // measure 17
0010
0100
0010
1000
0000
1000
0001
0010
,  // measure 18
0100
0100
0100
0100
0010
0000
0000
0000
,  // measure 19
0010
0000
0010
0000
0010
0000
0010
0000
0010
0100
0000
0000
0000
0000
0000
0000
,  // measure 20
1000
1000
1000
1000
0001
0000
0000
0100
,  // measure 21
0001
0001
0001
0001
0100
0000
0000
0000
,  // measure 22
0001
0000
0000
0001
0100
0000
0000
0100
0010
0000
0000
0010
1000
0000
0000
0000
,  // measure 23
1100
0000
0010
0001
1000
0000
0011
0000
,  // measure 24
1000
0000
0000
1000
0100
0000
0000
0100
0010
0000
0000
0010
0001
0000
0000
0000
,  // measure 25
1000
0001
1000
0000
0100
1000
0001
0000
,  // measure 26
1000
0000
0000
0000
0010
0000
0000
0010
1000
0000
0000
1000
0001
0000
0000
0001
,  // measure 27
0100
0000
0000
0100
0010
0000
0000
0010
1000
0000
0000
1000
0100
0000
0000
0100
,  // measure 28
0020
0000
0000
0000
,  // measure 29
0200
0000
0330
1001
,  // measure 30
0000
1000
0010
0001
0010
1000
0000
0001
,  // measure 31
0000
0010
0100
1000
0100
0001
0000
0100
,  // measure 32
1000
0010
0100
0010
0000
2000
0000
3001
,  // measure 33
0100
0010
1000
0001
0100
0101
0000
1000
,  // measure 34
0000
0010
0100
0001
1000
0002
0000
1000
,  // measure 35
0000
0013
0000
1000
0100
0010
0000
0001
,  // measure 36
0100
0010
1000
0200
0000
0020
0000
0000
,  // measure 37
0000
0330
0000
0001
0001
0100
0010
0010
,  // measure 38
1000
0010
0010
1000
0000
1001
0000
0001
,  // measure 39
0010
0010
0001
0010
0010
0001
1000
1000
,  // measure 40
0001
1000
1000
0001
0000
0110
0000
0100
,  // measure 41
0100
0000
0010
0100
0001
1000
0001
0010
,  // measure 42
0100
0010
0100
1000
0000
0000
0100
0000
,  // measure 43
0000
0000
0000
0000
0010
0000
0000
0000
0000
0000
0000
0000
0100
0000
0000
0010
,  // measure 44
0000
0001
0000
0000
0000
0000
0000
0000
;

//---------------dance-single - ----------------
#NOTES:
     dance-single:
     :
     Medium:
     5:
     0.277529,0.315817,0.163596,0.235169,0.005112,190.000000,174.000000,16.000000,23.000000,0.000000,0.000000,0.277529,0.315817,0.163596,0.235169,0.005112,190.000000,174.000000,16.000000,23.000000,0.000000,0.000000:
1000
0001
0000
0001
1000
0000
0000
0000
,
0010
0100
0001
0000
,
0000
2000
3200
0320
,
0031
0010
0001
0010
0000
0000
0000
0000
,
0000
0002
0023
0230
,
1300
0100
1000
0100
0000
0000
0000
0000
,
0000
2000
3002
0203
,
0310
0100
0010
0100
0000
1000
0001
1000
,
0000
0001
1001
1000
,
2002
0000
0003
0020
0000
3030
0110
0000
,
1001
0000
0000
0010
0100
0000
0001
1000
,
0000
0000
0000
0000
1000
0000
0100
0001
,
0000
0100
1000
0000
0001
0000
1000
0001
,
0000
0000
0000
0000
0000
0000
0000
0101
,
0000
0000
0000
0100
0010
0100
0010
0100
,
0000
0010
0000
0000
0000
1000
0001
1000
,
0000
0001
0100
0000
0010
1000
0010
1000
,
0001
0100
0010
0100
0000
0000
1000
0000
,
0001
1000
0001
1000
0001
0000
0000
0000
,
1000
0000
0100
0000
1000
0000
0100
0000
1000
0100
0000
0000
0000
0000
0000
0000
,
0001
0100
0001
0100
0001
0000
0000
0100
,
0010
0010
0100
0100
0220
0000
0330
0000
,
1000
0100
0001
0100
,
2200
0000
0000
3300
,
0001
0100
1000
0100
,
0002
2000
0000
0000
0000
0000
0000
3003
,
0000
0010
0011
0001
,
1001
1000
1100
1010
,
2002
0000
0000
3000
,
0020
0000
0033
0100
,
0000
0001
0100
0000
0001
1000
0000
0010
,
0000
0000
1000
0100
1000
0100
0000
1000
,
0001
1000
0001
1000
0000
0101
0000
0000
,
0000
0000
0000
0010
0100
0010
0000
0000
,
0000
1000
0001
0000
0100
0010
0000
0100
,
0000
0000
0000
0010
1000
0100
0000
1000
,
0001
0000
0100
0010
0100
0020
0000
0000
,
0000
0000
0030
0000
0101
0000
1000
0001
,
0000
0001
1000
0000
0000
0110
0000
0001
,
0010
0000
0100
1000
0100
1000
0010
0100
,
0000
0100
0010
0000
0000
1001
0000
1000
,
0010
0000
0100
0010
0100
0010
0100
0000
,
0000
0001
0000
0000
0000
0000
1000
0000
,
0000
0001
0000
0200
,
0000
0300
0000
0000
0000
0000
0000
0000
;

//---------------dance-single - ----------------
#NOTES:
     dance-single:
     :
     Easy:
     3:
     0.182585,0.270700,0.040899,0.163596,0.000000,125.000000,121.000000,4.000000,16.000000,0.000000,0.000000,0.182585,0.270700,0.040899,0.163596,0.000000,125.000000,121.000000,4.000000,16.000000,0.000000,0.000000:
0100
0010
0110
0000
,
0000
0000
0000
0000
,
0000
0010
1000
0100
,
1000
0010
0000
0000
,
0000
0100
0001
1000
,
0100
0000
0000
0000
,
0000
0010
0100
0001
,
1000
0010
0000
1000
,
0000
1000
0100
0001
,
0200
0000
0000
0020
0000
0000
0000
0330
,
0100
0000
0100
0001
,
1000
0000
0100
1000
,
0000
0000
0001
0000
0100
0000
0000
0001
,
0000
0000
0000
1000
,
0100
0000
0000
0000
0010
0000
0000
0100
,
0000
0000
0000
1000
,
0010
0100
0100
0001
,
0100
1000
0010
0000
,
0010
0100
0001
1000
0100
0000
0000
0000
,
1000
0100
0010
0001
1000
0000
0000
0000
,
0001
1000
0010
0100
0001
0000
0000
0001
,
1000
0100
0010
0100
1000
0000
0000
0000
,
0020
0230
0302
0023
,
0230
0000
0000
0300
,
0200
2300
3020
0230
,
0302
0000
0000
0003
,
0000
1000
0100
0100
,
1000
0001
0100
0010
,
0200
0000
0000
0000
,
0020
0000
0330
1001
,
0000
0000
0010
0000
0000
0100
0000
0000
,
0000
0100
0001
0100
,
1000
0000
0010
0000
0000
1000
0000
0000
,
0000
0000
0000
0001
0000
0100
0000
0000
,
0000
0000
0001
0000
0000
1000
0000
0000
,
0000
0000
0100
1000
,
0001
1000
2000
0000
,
0000
0000
3000
0010
,
0100
0000
0110
0000
0000
0001
0000
0000
,
1000
0010
0010
1000
,
0001
0000
1001
0000
0000
0010
0000
0000
,
0100
0001
1000
0100
,
0000
0010
0000
0000
0000
0000
0001
0000
,
0000
1000
0000
0020
,
0000
0030
0000
0000
0000
0000
0000
0000
;

//---------------dance-single - ----------------
#NOTES:
     dance-single:
     :
     Beginner:
     1:
     0.096405,0.156566,0.000000,0.000000,0.000000,66.000000,66.000000,0.000000,0.000000,0.000000,0.000000,0.096405,0.156566,0.000000,0.000000,0.000000,66.000000,66.000000,0.000000,0.000000,0.000000,0.000000:
1000
0000
0000
0000
,
0010
0000
0000
0000
,
0000
0100
0100
0100
,
0100
0000
0000
0000
,
0000
0001
0001
0001
,
0001
0000
0000
0000
,
0000
1000
1000
1000
,
1000
0000
0000
0000
,
0000
0010
0000
0000
,
0100
0000
0000
0000
,
0001
0000
0000
0000
,
1000
0000
0000
0100
,
0000
0000
0000
0000
,
0000
0000
0000
1000
,
0000
0000
0010
0000
,
0010
0000
0000
0000
,
0001
0000
1000
0000
,
0000
0000
0000
0000
,
0010
0010
0010
0000
,
0100
0100
0100
0000
,
0001
0001
0001
0000
,
1000
0000
0001
0000
,
0100
0000
0100
0000
,
0100
0000
0000
0000
,
0001
0000
0001
0000
,
0001
0000
0000
0000
,
0000
1000
0000
1000
,
0000
0001
0000
0001
,
0001
0000
0000
0000
,
1000
0000
0000
0010
,
0000
0000
0100
0000
,
0000
0001
0000
1000
,
0000
0100
0000
0000
,
0000
0000
0010
0000
,
0000
0000
0100
0000
,
0000
0000
0001
0000
,
0000
0100
0100
0000
,
0000
0000
0000
0010
,
0000
0010
0000
0000
,
0100
0000
0100
0100
,
0000
0000
0000
0001
,
0000
1000
0000
1000
,
0000
0000
0000
0000
,
0000
0000
0000
0010
;
