#TITLE:Mozart Is Back;
#SUBTITLE:;
#ARTIST:Rose;
#TITLETRANSLIT:;
#SUBTITLETRANSLIT:;
#ARTISTTRANSLIT:;
#GENRE:Eurobeat;
#CREDIT:;
#BANNER:mozartisback-bn.png;
#BACKGROUND:mozartisback-bg.png;
#LYRICSPATH:;
#CDTITLE:;
#MUSIC:Mozart Is Back.ogg;
#OFFSET:-0.030000;
#SAMPLESTART:42.299995;
#SAMPLELENGTH:12.000000;
#SELECTABLE:YES;
#BPMS:0.000000=185.740005
;
#STOPS:
;
#BGCHANGES:;
#KEYSOUNDS:;
#ATTACKS:;

//---------------dance-single - ----------------
#NOTES:
     dance-single:
     :
     Hard:
     7:
     0.520762,0.643612,0.270425,0.292059,0.037860,337.000000,312.000000,25.000000,27.000000,0.000000,0.000000,0.520762,0.643612,0.270425,0.292059,0.037860,337.000000,312.000000,25.000000,27.000000,0.000000,0.000000:
// measure 0
0000
0000
0000
0000
,  // measure 1
0000
0000
0000
0000
,  // measure 2
0000
0000
0000
0000
,  // measure 3
0000
0000
0000
0000
,  // measure 4
0001
0010
0100
1000
0010
0010
0000
0000
,  // measure 5
1000
0100
0010
0001
0000
0000
0000
0000
,  // measure 6
1000
0001
0100
0010
1000
1000
0000
0000
,  // measure 7
0220
0000
0000
0330
,  // measure 8
0002
0000
0000
0000
0000
0000
1003
0100
,  // measure 9
1000
0000
0010
1000
0010
0000
1000
0100
,  // measure 10
1000
0000
0100
0000
0010
0000
0001
0100
,  // measure 11
0002
0023
0230
2300
,  // measure 12
3001
0000
1000
0000
1001
0000
0100
0010
,  // measure 13
0100
0000
0001
0010
0001
0000
0100
0010
,  // measure 14
0100
0000
0010
0000
1000
0000
0100
1000
,  // measure 15
0200
0320
0032
2003
,  // measure 16
3010
0100
0001
0100
0010
0000
1000
0000
,  // measure 17
1001
0000
0001
0000
1001
0000
1000
0001
,  // measure 18
1000
0010
0100
0001
,  // measure 19
0101
0000
0100
0000
0101
0000
0001
0010
,  // measure 20
0001
0000
1000
1000
1000
0000
0010
1000
,  // measure 21
0010
0000
1000
0100
1000
0000
0010
1000
,  // measure 22
0010
0000
0100
0000
0001
0000
0010
0001
,  // measure 23
0020
0032
2003
3200
,  // measure 24
0310
0000
1001
0000
0100
0000
0010
1000
,  // measure 25
0001
0000
0010
1000
0001
0000
0010
0000
,  // measure 26
0100
0000
1000
0000
0001
0000
0100
0001
,  // measure 27
1000
0000
0100
0001
1000
0000
0100
0000
,  // measure 28
0010
0000
0001
0000
1000
0000
0001
0010
,  // measure 29
0001
0000
0100
0001
0100
0000
0001
0010
,  // measure 30
0001
0000
1000
0000
0100
0000
1000
0010
,  // measure 31
2000
0000
3200
0000
0320
0000
0032
1000
,  // measure 32
0000
1000
0000
1000
1003
0000
0010
0100
,  // measure 33
0001
0000
0010
0100
0001
0010
0100
1000
,  // measure 34
0001
0000
1000
0000
0001
0000
0100
0010
,  // measure 35
1000
0000
0100
0010
1000
0100
0010
0001
,  // measure 36
0100
0000
0010
0000
0100
0000
1000
0001
,  // measure 37
0100
0000
1000
0001
0100
0010
1000
0001
,  // measure 38
0010
0000
0001
0000
1000
0000
0100
0010
,  // measure 39
1000
0000
0100
0010
1000
0010
0100
0001
,  // measure 40
0010
0000
0100
0000
1000
0000
1000
0001
,  // measure 41
1000
0000
0010
1000
0010
0100
0010
1000
,  // measure 42
0020
0000
0100
0000
0130
0000
0001
0010
,  // measure 43
0001
0000
1000
0100
1000
0010
1000
0100
,  // measure 44
2000
0000
0001
0000
3010
0000
1000
0100
,  // measure 45
1000
0000
0100
0010
0100
1000
0100
0010
,  // measure 46
0200
0000
1000
0000
1300
0000
0001
0010
,  // measure 47
0001
0000
0001
1000
0001
0010
0001
0100
,  // measure 48
0002
1000
0013
0000
,  // measure 49
0100
0001
0010
0100
0010
0010
0000
0000
,  // measure 50
0100
0010
1000
0010
0000
0000
0000
0000
,  // measure 51
1000
0100
0010
0100
1000
1000
0000
0000
,  // measure 52
0001
0100
0010
1000
0000
0000
0000
0000
,  // measure 53
1010
1001
0101
0001
,  // measure 54
0101
0011
0010
0001
,  // measure 55
0011
1001
1100
0001
,  // measure 56
0022
0000
0000
0033
,  // measure 57
1000
0000
0000
0100
0000
0000
1000
0000
0100
0000
0000
0000
0000
0000
0000
0000
,  // measure 58
0001
0000
0000
0010
0000
0000
0001
0000
0000
0000
0000
0000
0000
0000
0000
0000
,  // measure 59
0100
0000
0000
0001
0000
0000
0100
0000
0001
0000
0000
0000
0000
0000
0000
0000
,  // measure 60
1000
0000
0000
0001
0000
0000
1000
0000
0000
0000
0000
0000
0000
0000
0000
0000
,  // measure 61
0010
0000
0000
1000
0000
0000
0010
0000
1000
0000
0000
0000
0000
0000
0000
0000
,  // measure 62
0010
0000
0000
0100
0000
0000
0010
0000
0000
0000
0000
0000
0000
0000
0000
0000
,  // measure 63
0001
0000
0000
0010
0000
0000
0001
0000
0010
0000
0000
0000
0000
0000
0000
0000
,  // measure 64
2002
0000
0000
3003
,  // measure 65
1010
0000
0000
0000
,  // measure 66
0101
0000
0000
0000
,  // measure 67
0011
0000
0110
0000
,  // measure 68
1100
1001
0011
0110
,  // measure 69
0010
0001
0010
0001
0100
0010
1000
0100
,  // measure 70
0001
0000
0000
0000
;

//---------------dance-single - ----------------
#NOTES:
     dance-single:
     :
     Challenge:
     8:
     0.599571,0.681472,0.237974,0.281242,0.173072,388.000000,366.000000,22.000000,26.000000,0.000000,0.000000,0.599571,0.681472,0.237974,0.281242,0.173072,388.000000,366.000000,22.000000,26.000000,0.000000,0.000000:
0000
0000
0000
0000
,
0000
0000
0000
0000
,
0000
0000
0000
0000
,
0000
0000
0000
0000
,
0010
0000
0000
1000
0000
0000
0100
0000
0010
0000
0001
0000
0000
0000
0000
0000
,
0010
0000
0000
0001
0000
0000
1000
0000
0000
0000
0000
0000
0000
0000
0000
0000
,
0100
0000
0000
1000
0000
0000
0010
0000
0100
0000
0010
0000
0000
0000
2000
0000
,
0002
0000
0000
3003
,
0101
0000
0000
0000
0000
0000
0001
0010
,
0100
0000
0001
0100
0010
0000
0001
0010
,
0200
2300
3002
1003
,
0010
1000
0010
0000
0100
0001
0100
0000
,
0010
1000
0010
0100
0001
0000
1000
0100
,
0010
0000
1000
0010
0100
0000
1000
0100
,
0020
0230
2300
3010
,
0010
0000
0000
0000
0100
0000
0000
0100
0010
0000
0000
0010
1000
0000
0000
0000
,
0001
0100
0010
0100
0001
0000
2100
0000
,
0010
0000
0100
0000
3010
0000
0100
0010
,
1000
0010
0100
0000
0001
0000
0201
0000
,
0010
0000
0001
0000
0310
0000
0001
0100
,
0010
0100
0001
0000
0010
0000
0100
0001
,
0200
0000
0310
0100
0020
0000
1030
0010
,
1000
0000
1000
0000
1001
0000
0001
0100
,
0010
0010
1000
0001
0010
0010
0001
1000
,
0001
0000
0000
0001
1000
0000
0000
1000
0001
0000
0000
0000
0010
0000
0001
0000
,
0010
0000
0001
0100
0001
0000
0100
0010
,
0100
0010
1000
0000
1000
0000
0010
1000
,
0010
0000
0100
0010
0100
0000
0001
0010
,
0001
0010
0001
0000
0001
0000
0100
0001
,
0200
0000
0310
1000
0020
0000
0130
0001
,
0100
0000
0100
0000
0101
0000
0010
1000
,
0100
0100
1000
0001
0100
0100
0010
2000
,
0000
0001
0000
0001
3001
0000
1000
0100
,
0001
0000
1000
0100
0001
0100
1000
0000
,
1002
0000
0100
0000
0013
0100
0001
0100
,
1000
0000
0001
0100
1000
0100
0001
0000
,
2001
0000
0100
0000
3010
0000
1000
0010
,
0001
0000
1000
0010
0001
0010
1000
0000
,
0210
0000
0001
0000
0310
0100
0001
0010
,
1000
0000
0001
0010
1000
0010
0001
1000
,
0010
0100
0010
1000
0001
0000
0100
0001
,
0100
0000
0100
0010
0100
1000
0100
0010
,
0200
0000
0001
0000
0301
0000
0010
1000
,
0010
0000
0010
0100
0010
0001
0010
0000
,
0110
0000
1010
0000
0101
0000
1000
0100
,
1000
0000
1000
0010
1000
0100
1000
0010
,
2000
0000
0010
0000
3010
0000
0001
0010
,
0001
0000
0001
0100
0001
0010
0001
0000
,
1001
0110
1200
0000
,
1300
0000
0000
0100
0000
0000
0010
0000
0001
0000
1000
0000
0000
0000
0000
0000
,
0001
0000
0000
0010
0000
0000
0100
0000
0000
0000
0000
0000
0000
0000
0000
0000
,
0010
0000
0000
1000
0000
0000
0001
0000
0100
0000
0010
0000
0000
0000
0000
0000
,
0100
0000
0000
0001
0000
0000
1000
0000
0000
0000
0000
0000
0000
0000
0000
0000
,
2000
0000
0000
0010
0000
0000
3010
0000
0100
0000
0010
0000
0000
0000
0000
0000
,
0002
0000
0000
0010
0000
0000
0013
0000
0000
0000
0000
0000
0000
0000
0000
0000
,
0200
0000
0000
0001
0000
0000
0301
0000
0100
0000
0001
0000
0000
0000
0100
0000
,
0010
1000
0001
0010
0100
0010
0001
1000
,
0100
0000
1000
0100
0000
0100
1000
0000
0010
0000
0100
0000
0000
0000
0001
0000
,
0010
0000
0001
0010
0000
0010
0001
0000
0000
0000
0000
0000
0000
0000
0000
0000
,
0100
0000
0001
0010
0000
0010
0001
0000
1000
0000
0100
0000
0000
0000
0010
0000
,
0100
0000
1000
0010
0000
0010
1000
0000
0000
0000
0000
0000
0000
0000
0000
0000
,
0001
0000
0010
0100
0000
0100
0010
0000
0001
0000
1000
0000
0000
0000
0100
0000
,
0010
0000
0001
1000
0000
1000
0001
0000
0000
0000
0000
0000
0000
0000
0000
0000
,
1000
0000
0010
0100
0000
0100
0010
0000
0100
0000
0001
0000
0000
0000
0002
0000
,
2000
0000
0000
3003
,
1001
0000
0010
0100
0000
0010
0100
0000
0000
0000
0000
0000
0000
0000
0000
0000
,
1001
0000
0100
0010
0000
0100
0010
0000
0000
0000
0000
0000
0000
0000
0000
0000
,
1100
0010
0001
0000
0101
0010
1000
0000
,
1001
0101
0110
1100
,
0001
0010
0100
0010
0001
1000
0100
0010
,
0100
0000
0000
0000
;

//---------------dance-single - ----------------
#NOTES:
     dance-single:
     :
     Medium:
     5:
     0.401775,0.567893,0.313693,0.335327,0.000000,260.000000,231.000000,29.000000,31.000000,0.000000,0.000000,0.401775,0.567893,0.313693,0.335327,0.000000,260.000000,231.000000,29.000000,31.000000,0.000000,0.000000:
0000
0000
0000
0000
,
0000
0000
0000
0000
,
0000
0000
0000
0000
,
0000
0000
0000
0000
,
1000
0100
0010
0001
0000
0000
0000
0000
,
1001
0010
0000
0000
,
0001
0010
0100
1000
0000
0000
0000
0000
,
2002
0000
0000
0000
,
3003
0000
0000
0000
,
0020
0000
2030
0000
,
3001
0001
0101
1000
,
0100
0010
0001
0100
,
0010
1000
0010
1000
0010
0000
0000
0000
,
0200
0000
0302
0000
,
0013
0100
1100
1000
,
0020
0230
0302
0023
,
0130
0010
0100
0010
0100
0000
0001
0000
,
0002
1000
2003
0001
,
3002
1000
1003
0010
,
0020
0100
0230
0010
,
0310
0000
1000
1000
1000
0000
0001
0000
,
0011
0001
0011
0000
,
1000
1000
1000
0010
,
1000
0001
0100
0010
,
1000
0101
1100
0010
,
0020
1000
2030
0010
,
3020
1000
1030
0001
,
0002
0100
0203
0001
,
0302
0100
0103
0010
,
1010
0010
1010
1000
,
0001
0100
0010
0100
,
0001
0000
0010
0000
0100
0000
2000
0100
,
0000
0100
0000
0100
3100
0000
1000
0010
,
1000
0010
0100
0010
,
2000
0000
0001
0000
3001
0000
0001
0100
,
0001
0100
0010
0100
,
0002
0000
1000
0000
1003
0000
0010
1000
,
0010
0100
0001
0100
,
0020
0000
0100
0000
0130
0000
0100
0001
,
0100
0010
1000
0010
,
0200
0000
0010
0000
0310
0000
0100
0001
,
0100
0000
0100
0001
0100
0000
0100
0000
,
0110
0000
1001
0000
0110
0000
0010
1000
,
0010
0000
0010
0100
0010
0000
0010
0000
,
0110
1001
0110
0000
,
1000
0000
1000
0010
1000
0000
1000
0000
,
1001
0000
0110
0000
1001
0000
0001
0100
,
0001
0000
0001
0010
0001
0000
0001
0000
,
0101
1010
0101
0000
,
1001
0000
0000
0000
,
0010
0000
0000
0000
,
1100
0000
0000
0000
,
0001
0000
0000
0000
,
1000
0100
0001
0010
,
0100
0010
0001
0100
,
1000
0010
0001
0100
,
0202
0000
0000
0303
,
0010
1000
0001
0100
0000
0000
0000
0000
,
1001
0000
0000
0000
,
1000
0100
0010
0001
0000
0000
0000
0000
,
1010
0000
0000
0000
,
0010
0100
0001
0100
0000
0000
0000
0000
,
0011
0000
0000
0000
,
0100
0010
1000
0010
0000
0000
0000
0000
,
0202
0000
0000
0303
,
0010
0000
0000
0000
,
0010
0000
0000
0000
,
0010
0000
0010
0000
,
0010
0010
0010
0010
,
0010
0100
0010
0100
0020
0000
0000
0000
,
1030
0000
0000
0000
;

//---------------dance-single - ----------------
#NOTES:
     dance-single:
     :
     Easy:
     3:
     0.270425,0.340736,0.129804,0.292059,0.000000,175.000000,163.000000,12.000000,27.000000,0.000000,0.000000,0.270425,0.340736,0.129804,0.292059,0.000000,175.000000,163.000000,12.000000,27.000000,0.000000,0.000000:
0000
0000
0000
0000
,
0000
0000
0000
0000
,
0000
0000
0000
0000
,
0000
0000
0000
0000
,
0002
0000
0013
0000
,
0100
0100
0000
0000
,
0020
0000
1030
0000
,
0100
0001
1000
0000
,
0101
0000
0000
0000
,
0010
0000
0001
0000
,
1000
1000
1000
0010
,
0100
0000
0100
0000
,
0002
0000
0000
0103
,
0001
0000
1000
0000
,
0010
0010
0010
1000
,
0001
0100
0001
0100
,
0010
0000
0000
1000
,
1000
0000
0010
0000
,
1000
0000
0100
0000
,
0010
0000
0001
0000
,
0010
0000
0100
0010
,
0001
0010
0100
0010
,
0001
0001
0001
0000
,
1000
0000
0001
0000
,
2002
0000
3003
0000
,
0010
0000
1000
0000
,
0010
0000
0100
0000
,
0001
0000
0010
0000
,
0001
0000
0010
1000
,
0100
1000
0010
1000
,
0001
0001
0001
0000
,
0010
0000
0001
0000
,
0022
0000
0033
0000
,
0001
0000
0100
0000
,
0002
0203
0320
0030
,
1000
0000
0100
0000
,
2000
3200
0320
0030
,
1000
0000
0001
0000
,
2000
3002
0023
0030
,
0100
0000
0010
0000
,
0200
0320
0032
1003
,
0010
1000
0010
0100
,
0001
0001
0001
0010
,
0001
0010
0001
0100
,
0010
0010
0010
0000
,
0100
0001
0100
0010
,
1000
1000
1000
0001
,
0010
0001
1000
0001
,
0010
0010
0010
0000
,
1001
0000
0000
0000
,
0110
0000
0000
0000
,
0101
0000
0000
0000
,
1010
0000
0000
0000
,
1000
0100
0001
0000
,
0100
1000
0000
0000
,
0001
0010
0100
0000
,
2200
0000
3300
0000
,
0020
1000
1030
0000
,
0020
0031
0000
0000
,
0002
0100
0103
0000
,
0002
1003
0000
0000
,
0010
1000
0100
0000
,
0010
0001
0000
0000
,
0100
0001
1000
0000
,
0020
0000
0000
0030
,
0110
0000
0000
0000
,
1001
0000
0000
0000
,
0110
0000
1001
0000
,
0010
0100
0001
1000
,
0020
0000
0000
0000
,
0130
0000
0000
0000
;

//---------------dance-single - ----------------
#NOTES:
     dance-single:
     :
     Beginner:
     2:
     0.160710,0.340736,0.043268,0.075719,0.000000,104.000000,100.000000,4.000000,7.000000,0.000000,0.000000,0.160710,0.340736,0.043268,0.075719,0.000000,104.000000,100.000000,4.000000,7.000000,0.000000,0.000000:
0000
0000
0000
0000
,
0000
0000
0000
0000
,
0000
0000
0000
0000
,
0000
0000
0000
0000
,
0010
0010
0010
0000
,
0100
0000
0000
0000
,
0001
0001
0001
0000
,
0020
0000
0000
0000
,
0030
0000
0000
0000
,
1000
0000
0100
0000
,
1000
1000
1000
0000
,
0010
0000
0010
0000
,
0010
0000
0000
0000
,
0100
0000
0001
0000
,
0100
0100
0100
0000
,
1000
1000
1000
1000
,
1000
0000
0000
0000
,
0001
0000
0000
0000
,
0000
0000
0000
0000
,
0010
0000
0000
0000
,
0000
0000
0000
0100
,
0100
0000
1000
0000
,
0100
0100
0100
0000
,
0010
0000
0010
0000
,
0010
0000
0000
0000
,
0001
0000
0000
0000
,
0000
0000
0000
0000
,
1000
0000
0000
0000
,
0000
0000
0000
0010
,
0010
0000
0100
0000
,
0010
0010
0010
0000
,
1000
0000
1000
0000
,
0000
0000
0000
0001
,
0001
0000
0000
0000
,
0100
0000
0000
0010
,
0010
0000
0000
0000
,
1000
0000
0000
0100
,
0100
0000
0000
0000
,
0010
0000
0000
0001
,
0001
0000
0000
0000
,
1000
0000
0000
0000
,
0010
0000
0000
0000
,
2000
0000
3000
0000
,
0010
0000
0000
0000
,
0002
0000
0003
0000
,
0100
0000
0000
0000
,
0002
0000
0003
0000
,
0100
0000
0000
0000
,
2000
0000
3000
0000
,
0010
0000
0000
0000
,
1000
0000
0000
0000
,
0001
0000
0000
0000
,
0100
0000
0000
0000
,
0001
0000
0000
0000
,
0010
0000
0000
0000
,
0100
0000
0000
0000
,
2000
0000
0000
3000
,
1000
1000
1000
0000
,
0010
0000
0000
0000
,
0001
0001
0001
0000
,
0100
0000
0000
0000
,
0010
0010
0010
0000
,
1000
0000
0000
0000
,
0001
0001
0001
0000
,
0100
0000
0000
0000
,
1001
0000
0000
0000
,
1001
0000
0000
0000
,
1001
0000
1001
0000
,
0001
0001
0001
0001
,
0002
0000
0000
0000
,
0003
0000
0000
0000
;

//---------------dance-double - ----------------
#NOTES:
     dance-double:
     :
     Easy:
     3:
     0.254972,0.302876,0.010817,0.054085,0.000000,165.000000,164.000000,1.000000,5.000000,0.000000,0.000000,0.254972,0.302876,0.010817,0.054085,0.000000,165.000000,164.000000,1.000000,5.000000,0.000000,0.000000:
00000000
00000000
00000000
00000000
,
00000000
00000000
00000000
00000000
,
00000000
00000000
00000000
00000000
,
00000000
00000000
00000000
00000000
,
00100000
00010000
00100000
00000000
,
00001000
00010000
00001000
00000000
,
00000100
00001000
00000100
00000000
,
00000020
00000000
00000000
00000000
,
00000031
00000000
00000000
00000000
,
00000001
00000000
00000100
00000000
,
00000010
00001000
00000010
00000000
,
00001000
00010000
00001000
00010000
,
00100000
00010000
00100000
00000000
,
01000000
00000000
00100000
00000000
,
01000000
10000000
01000000
00000000
,
10000000
10000000
10000000
10000000
,
00010000
00100000
00010000
00000000
,
01000000
00000000
01000000
00000000
,
00010000
00010000
00010000
00000000
,
00001000
00000000
00001000
00000000
,
00000010
00000010
00000010
00000000
,
00000100
00000000
00000100
00000000
,
00000100
00000010
00000100
00000000
,
00000001
00000010
00000100
00001000
,
00010000
00010000
00010000
00000000
,
00100000
00000000
00100000
00000000
,
00100000
00100000
00100000
00000000
,
10000000
00000000
10000000
00000000
,
10000000
10000000
10000000
00000000
,
01000000
00000000
01000000
00000000
,
01000000
00100000
01000000
00000000
,
10000000
01000000
00100000
00010000
,
00001000
00000000
00000100
00000000
,
00001000
00000000
00001000
00000000
,
00000010
00001000
00000001
00000000
,
00000100
00000000
00000100
00000000
,
00000100
00000010
00001000
00000000
,
00010000
00000000
00010000
00000000
,
00100000
01000000
00010000
00000000
,
10000000
00000000
10000000
00000000
,
01000000
00100000
00010000
00000000
,
00100000
00000000
00010000
00000000
,
00100000
00010000
00100000
00000000
,
00001000
00000000
00010000
00000000
,
00001000
00010000
00001000
00000000
,
00000100
00000000
00001000
00000000
,
00000100
00001000
00000100
00000000
,
00000010
00000000
00000001
00000000
,
00000010
00000001
00000010
00000000
,
00000001
00000000
00000000
00000000
,
00001000
00000000
00000000
00000000
,
00010000
00000000
00000000
00000000
,
10000000
00000000
00000000
00000000
,
10000000
01000000
00100000
00000000
,
01000000
00100000
00010000
00000000
,
00010000
00001000
00000100
00000000
,
00000020
00000000
00000000
00000000
,
00000031
00000100
00000010
00000000
,
00000100
00000010
00001000
00000000
,
00010000
00001000
00100000
00000000
,
00010000
01000000
00100000
00000000
,
10000000
01000000
00100000
00000000
,
01000000
00010000
00100000
00000000
,
00001000
00010000
00000100
00000000
,
00022000
00000000
00000000
00033000
,
00001000
00000000
00000000
00000000
,
00001000
00000000
00000000
00000000
,
00000010
00000000
00000100
00000000
,
00000010
00001000
00010000
00001000
,
00200000
00000000
00000000
00000000
,
00310000
00000000
00000000
00000000
;

//---------------dance-double - ----------------
#NOTES:
     dance-double:
     :
     Medium:
     5:
     0.355416,0.492174,0.140621,0.064902,0.000000,230.000000,217.000000,13.000000,6.000000,0.000000,0.000000,0.355416,0.492174,0.140621,0.064902,0.000000,230.000000,217.000000,13.000000,6.000000,0.000000,0.000000:
00000000
00000000
00000000
00000000
,
00000000
00000000
00000000
00000000
,
00000000
00000000
00000000
00000000
,
00000000
00000000
00000000
00000000
,
20000000
00000000
30100000
00000000
,
00010000
00100000
00000000
00000000
,
02000000
00000000
03010000
00000000
,
00200000
00000000
00000000
00000000
,
01300000
00000000
00000000
00000000
,
00010000
00000000
00001000
00000000
,
00000100
00000000
00000010
00000000
00000001
00000000
00000000
00001000
,
00000100
00000100
00000010
00000100
,
00001000
00010000
00001000
00000000
,
00000100
00000000
00001000
00000000
,
00000010
00000010
00000100
00000010
,
00001000
00001000
00001000
00001000
,
00000010
00000100
00000001
00000000
,
00000010
00000000
00000100
00000000
,
00001000
00010000
00001000
00000000
,
00010000
00000000
00100000
00000000
,
01000000
00000000
10000000
00000000
01000000
00000000
10000000
01000000
,
10000000
00000000
01000000
00000000
00100000
00000000
00010000
00100000
,
00010000
01000000
01000000
00100000
,
01000000
00010000
00100000
00001000
,
00010000
00010000
00010000
00000000
,
00000100
00000000
00001000
00000000
,
00000010
00000100
00000001
00000000
,
00000010
00000000
00000001
00000000
,
00000100
00000000
00000001
00000000
00001000
00000000
00000010
00001000
,
00000010
00000000
00000100
00000000
00000001
00000000
00000010
00000001
,
00000010
00000001
00000001
00000100
,
00000010
00001000
00000100
00010000
,
00001000
00001000
00001000
00000000
,
00011000
00010000
00001000
00010000
,
00100000
00100000
00100000
01000000
,
11000000
10000000
00100000
01000000
,
00010000
00010000
00010000
00100000
,
00110000
00010000
01000000
00100000
,
01000000
01000000
01000000
00010000
,
00110000
00100000
00001000
00010000
,
00001000
00001000
00001000
00000010
,
00000100
00000010
00000100
00000010
,
00000100
00000100
00000100
00000000
,
00000001
00000010
00000001
00000010
,
00000001
00000001
00000001
00000000
,
00001000
00000100
00001000
00000100
,
00001000
00001000
00001000
00000000
,
00010000
00001000
00010000
00001000
,
00010000
00010000
00010000
00000000
,
00110000
00000000
00000000
00000000
,
11000000
00000000
00000000
00000000
,
00101000
00000000
00000000
00000000
,
00010100
00000000
00000000
00000000
,
00000001
00000001
00000010
00000100
,
00001000
00001000
00000010
00000100
,
00000001
00001000
00000010
00000100
,
00002020
00000000
00000000
00003030
,
00000100
00000000
00001000
00010000
00001000
00000000
00010000
00000000
,
00100000
00000000
01000000
10000000
01000000
00000000
00000000
00000000
,
10000000
00000000
00100000
01000000
00100000
00000000
01000000
00000000
,
00010000
00000000
00100000
00010000
00100000
00000000
00000000
00000000
,
00001000
00000000
00010000
00001000
00010000
00000000
00000100
00000000
,
00001000
00000000
00000010
00001000
00000010
00000000
00000000
00000000
,
00000100
00000000
00000001
00000010
00000001
00000000
00000100
00000000
,
00000020
00000000
00000000
00000030
,
00001010
00000000
00000000
00000000
,
00011000
00000000
00000000
00000000
,
00110000
00000000
01100000
00000000
,
10000000
01000000
00100000
00010000
,
00001000
00000100
00000010
00000001
00001000
00000100
00000010
00000001
,
00001000
00000000
00000000
00000000
;

//---------------dance-double - ----------------
#NOTES:
     dance-double:
     :
     Hard:
     7:
     0.468222,0.567893,0.346144,0.097353,0.000000,303.000000,271.000000,32.000000,9.000000,0.000000,0.000000,0.468222,0.567893,0.346144,0.097353,0.000000,303.000000,271.000000,32.000000,9.000000,0.000000,0.000000:
00000000
00000000
00000000
00000000
,
00000000
00000000
00000000
00000000
,
00000000
00000000
00000000
00000000
,
00000000
00000000
00000000
00000000
,
00000001
00000100
00000010
00001000
00000000
00000000
00000000
00000000
,
00001000
00010000
00011000
00000000
,
00010000
01000000
00100000
10000000
00000000
00000000
00000000
00000000
,
20020000
00000000
00000000
30030000
,
00100000
00000000
00000000
00000000
00000000
00000000
10000000
01000000
,
00100000
00000000
00010000
00000000
00010000
00000000
00100000
00001000
,
00010000
00001000
00010000
00000000
,
00000100
00000100
00001000
00001000
,
00000010
00000000
00000010
00000000
00000100
00000000
00000001
00000010
,
00000100
00000000
00001000
00000000
00000100
00000000
00010000
00001000
,
00010000
01000000
00100000
10000000
,
11000000
00110000
00011000
00010100
,
00001000
00000010
00000100
00000001
00000010
00000000
00000100
00000000
,
00001000
00000000
00000100
00000000
00001000
00000000
00000010
00001000
,
00000010
00000100
00001000
00010000
,
00100000
00010000
00100000
01000000
,
10000000
00000000
00100000
00100000
00100000
00000000
01000000
00010000
,
01000000
00000000
00100000
00000000
10000000
00000000
01000000
00100000
,
00010000
00000000
00001000
00000000
00000100
00000000
00000010
00000001
,
00001000
00000000
00000001
00000000
00001000
00000000
00000001
00001000
,
00000100
00000100
00001100
00000010
,
00001000
00000000
00000010
00000000
00001000
00000000
00000001
00001000
,
00000001
00000010
00001000
00000100
,
00010000
00000100
00010000
00001000
,
00010000
00000000
00100000
00000000
01000000
00000000
10000000
01000000
,
00100000
00000000
00010000
00000000
01000000
00000000
00010000
00100000
,
00001000
00000000
00010000
00000000
00001000
00000000
00010000
00001000
,
00010000
00000100
00001000
00000010
,
00000100
00000100
00000100
00000001
,
00001001
00000001
00001001
00000010
,
00001000
00001000
00001000
00000100
,
00001100
00000100
00001100
00000010
,
00000100
00001000
00010000
00100000
,
00110000
00100000
00110000
01000000
,
00010000
10000000
00100000
10000000
,
11000000
10000000
11000000
00100000
,
00010000
00000000
10010000
00000000
01010000
00000000
00100000
01000000
,
00100000
00000000
00100000
00010000
00100000
00010000
00100000
00000000
,
00010000
00000000
01010000
00000000
11000000
00000000
00100000
10000000
,
00100000
00000000
00100000
01000000
00100000
01000000
00100000
00000000
,
01000000
00010000
00100000
00001000
00010000
00000000
00001000
00010000
,
00001000
00000000
00001000
00000100
00001000
00000100
00001000
00000000
,
00000010
00000000
00000110
00000000
00000101
00000000
00000001
00000010
,
00000001
00000000
00000001
00001000
00000001
00001000
00000001
00000000
,
00000100
00000010
00001000
00000100
00001000
00000000
00000000
00000000
,
00000021
00000100
00000031
00000000
,
00001200
00001000
00000300
00000000
,
00120000
01000000
00130000
00000000
,
20010000
00010000
30000000
00000000
,
01000000
00010000
01000000
00010000
00000000
00000000
00000000
00000000
,
00100000
00010000
00000000
00000000
,
00001000
00010000
00001000
00010000
00000000
00000000
00000100
00001000
,
00000002
00000000
00000000
00000003
,
00000001
00000010
00000100
00001000
00000000
00000000
00000000
00000000
,
00010000
00001000
00011000
00000000
,
00010000
00100000
01000000
10000000
00000000
00000000
00000000
00000000
,
00010000
00001000
00011000
00000000
,
00000100
00001000
00000001
00000010
00000000
00000000
00000000
00000000
,
00000100
00010000
00010100
00000000
,
00100000
00010000
10000000
01000000
00000000
00000000
00000000
00200000
,
02000000
00000000
00000000
03300000
,
10100000
00000000
00000000
00000000
,
00101000
00000000
00000000
00000000
,
00010010
00000000
00000011
00000000
,
00000001
00000010
00000100
00001000
,
00010000
00100000
01000000
10000000
00010000
00100000
01000000
10000000
,
00010000
00000000
00000000
00000000
;

//---------------dance-double - ----------------
#NOTES:
     dance-double:
     :
     Challenge:
     8:
     0.559394,0.643612,0.465131,0.043268,0.091945,362.000000,319.000000,43.000000,4.000000,0.000000,0.000000,0.559394,0.643612,0.465131,0.043268,0.091945,362.000000,319.000000,43.000000,4.000000,0.000000,0.000000:
00000000
00000000
00000000
00000000
,
00000000
00000000
00000000
00000000
,
00000000
00000000
00000000
00000000
,
00000000
00000000
00000000
00000000
,
01000000
00100000
10000000
00010000
00100000
01000000
00000000
00000000
,
00100000
00010000
00001000
00010000
00000000
00000000
00000000
00000000
,
00001000
00010000
00001000
00000100
00000010
00000001
00000000
00000000
,
00000202
00000000
00000000
00000303
,
00001010
00000000
00000000
00000000
00000000
00000000
00000010
00000100
,
00001000
00000000
00000010
00000100
00000001
00000000
00000010
00000100
,
00001000
00000000
00001000
00000000
00001001
00000000
00000100
00010000
,
00001000
00000000
00001000
00000000
00010000
00000000
00010000
00001000
,
00100000
00010000
01000000
00100000
01000000
00000000
00100000
10000000
,
00010000
00000000
00100000
01000000
00010000
00000000
00100000
10000000
,
00010000
00000000
00010000
00000000
00110000
00000000
00001000
00010000
,
00001000
00001000
00010000
00010000
,
00000100
00001000
00000010
00000100
00000001
00000000
00000010
00000000
,
00000011
00000000
00000100
00000000
00000101
00000000
00000010
00000001
,
00000100
00000010
00001000
00000100
00010000
00000000
00001000
00000000
,
00011000
00000000
00010000
00000000
00011000
00000000
00001000
00010000
,
01000000
00100000
00010000
10000000
00100000
00000000
01000000
00010000
,
01000000
00000000
00100000
10000000
00100000
00000000
01000000
00010000
,
01000000
00000000
00010000
00000000
10010000
00000000
00100000
00010000
,
00001000
00000100
00000010
00000001
00000100
00000010
00001000
00000100
,
00000010
00000000
00000000
00000001
00001000
00000000
00000000
00000000
00000110
00000000
00000000
00000000
00000100
00000000
00000000
00000000
,
00000101
00000000
00000010
00000000
00001010
00000000
00000001
00000100
,
00000010
00001000
00000100
00010000
00001000
00000000
00010000
00000000
,
00110000
00000000
01000000
00000000
01100000
00000000
00100000
10000000
,
00010000
00100000
01000000
00100000
00010000
00000000
00100000
00010000
,
00100000
00000000
00001000
00010000
00001000
00000000
00100000
00010000
,
00100000
00000000
00001000
00000000
00011000
00000000
00000100
00001000
,
00000010
00000100
00000001
00000010
00000100
00001000
00000010
00000100
,
00000001
00000000
00001000
00000000
00000100
00000000
00010000
00001000
,
00010000
00100000
00010000
01000000
,
10100000
00000000
01010000
00000000
10100000
00000000
10000000
01000000
,
10000000
00100000
01000000
00010000
,
00110000
00000000
00011000
00000000
00001100
00000000
00000010
00000100
,
00000001
00000010
00000100
00001100
,
00011000
00000000
00101000
00000000
01000000
00000000
10000000
00100000
,
10000000
00100000
01000000
00010000
,
00110000
00000000
00011000
00000000
00010100
00000000
00001000
00010000
,
00001000
00000000
00010000
00100000
00010000
00100000
00010000
00000000
,
10000000
00000000
10000000
00000000
10100000
00000000
01000000
00010000
,
01000000
00000000
00010000
00100000
00010000
00100000
00010000
00000000
,
00100000
00000000
00100000
00000000
00110000
00000000
00001000
00010000
,
00001000
00000000
00000100
00001000
00000100
00001000
00000100
00000000
,
00000010
00000000
00000010
00000000
00000011
00000000
00000100
00000001
,
00000100
00000000
00000010
00000100
00000010
00000100
00000010
00000000
,
00001000
00001000
00001001
00000000
,
00000010
00000000
00000000
00000010
00000000
00000000
00000010
00000000
00000000
00000000
00000000
00000000
00000000
00000000
00000000
00000000
,
00001000
00000000
00000000
00001000
00000000
00000000
00001000
00000000
00000000
00000000
00000000
00000000
00000000
00000000
00000000
00000000
,
00100000
00000000
00000000
00100000
00000000
00000000
00100000
00000000
00000000
00000000
00000000
00000000
00000000
00000000
00000000
00000000
,
10000000
00000000
00000000
10000000
00000000
00000000
10000000
00000000
00000000
00000000
00000000
00000000
00000000
00000000
00000000
00000000
,
01000000
00000000
00000000
00100000
00000000
00000000
00010000
00000000
00001000
00000000
00000000
00000000
00000000
00000000
00000000
00000000
,
00000010
00000000
00000000
00000001
00000000
00000000
00001000
00000000
00000000
00000000
00000000
00000000
00000000
00000000
00000000
00000000
,
00000010
00000000
00000000
00000100
00000000
00000000
00001000
00000000
00010000
00000000
00000000
00000000
00000000
00000000
00000000
00000000
,
02200000
00000000
00000000
03300000
,
10000000
00000000
00000000
01000000
00000000
00000000
00100000
00000000
00010000
00000000
10000000
00000000
00000000
00000000
00000000
00000000
,
00001000
00000000
00000000
00010000
00000000
00000000
00011000
00000000
00000000
00000000
00000000
00000000
00000000
00000000
00000000
00000000
,
00000100
00000000
00000000
00001000
00000000
00000000
00000010
00000000
00000100
00000000
00000001
00000000
00000000
00000000
00000000
00000000
,
00000010
00000000
00000000
00000001
00000000
00000000
00000011
00000000
00000000
00000000
00000000
00000000
00000000
00000000
00000000
00000000
,
00000100
00000000
00000000
00010000
00000000
00000000
00001000
00000000
00100000
00000000
00010000
00000000
00000000
00000000
00000000
00000000
,
10000000
00000000
00000000
01000000
00000000
00000000
11000000
00000000
00000000
00000000
00000000
00000000
00000000
00000000
00000000
00000000
,
10000000
00000000
00000000
00100000
00000000
00000000
01000000
00000000
00010000
00000000
00100000
00000000
00000000
00000000
00001000
00000000
,
00010000
00000100
00010000
00000100
00010000
00000100
00010000
00000100
,
00001000
00000000
00000000
00000010
00000000
00000000
00000101
00000000
00000000
00000000
00000000
00000000
00000000
00000000
00000000
00000000
,
00000010
00000000
00000000
00000100
00000000
00000000
00001001
00000000
00000000
00000000
00000000
00000000
00000000
00000000
00000000
00000000
,
00011000
00000000
00110000
00000000
,
11000000
01010000
00110000
00011000
,
00000100
00001000
00000010
00000100
00001000
00010000
01000000
00100000
,
00010000
00000000
00000000
00000000
;
