#TITLE:Mirando;
#SUBTITLE:;
#ARTIST:Ratatat;
#TITLETRANSLIT:;
#SUBTITLETRANSLIT:;
#ARTISTTRANSLIT:;
#GENRE:Rock;
#CREDIT:;
#BANNER:mirando-bn.png;
#BACKGROUND:mirando-bg.png;
#LYRICSPATH:;
#CDTITLE:;
#MUSIC:Mirando.ogg;
#OFFSET:-0.020000;
#SAMPLESTART:21.327999;
#SAMPLELENGTH:12.000000;
#SELECTABLE:YES;
#BPMS:0.000000=179.839996
;
#STOPS:
;
#BGCHANGES:;
#KEYSOUNDS:;
#ATTACKS:;

//---------------dance-single - ----------------
#NOTES:
     dance-single:
     :
     Hard:
     9:
     0.601228,0.709646,0.206980,0.098562,0.177412,427.000000,406.000000,21.000000,10.000000,0.000000,0.000000,0.601228,0.709646,0.206980,0.098562,0.177412,427.000000,406.000000,21.000000,10.000000,0.000000,0.000000:
0000
0000
0000
0000
,
0000
0000
0000
0000
,
0000
0000
0000
0000
,
0000
0000
0000
0000
,
1000
0100
0000
0000
0000
0000
0010
0001
0000
0000
0001
0000
1000
0000
0000
0000
,
0001
0010
0000
0000
0000
0000
0100
1000
0000
0000
1000
0000
0001
0000
0000
0000
,
0100
0010
0000
0000
0000
0000
1000
0001
0000
0000
0001
0000
0100
0000
0000
0000
,
0010
0010
0100
0010
0010
0010
0100
0001
,
1000
0100
0000
0000
0000
0000
1000
0001
0000
0000
0001
0000
0101
0000
0000
0000
,
0001
0100
0000
0000
0000
0000
0001
1000
0000
0000
1000
0000
1010
0000
0000
0000
,
0010
0100
0000
0000
0000
0000
0001
1000
0000
0000
1000
0000
1001
0000
0000
0000
,
0001
0001
1000
0001
0001
0001
1000
0010
,
0100
0000
0010
1000
0000
0000
0000
0000
,
0001
0000
0010
0100
0000
0000
0000
0000
,
1000
0000
0010
0100
0000
0000
0000
0000
,
0001
0010
0100
1000
0001
0010
0100
1000
,
0001
0100
0000
0001
0100
0000
0001
0000
1000
0000
0001
0000
1001
0000
0000
0000
,
1000
0010
0000
1000
0010
0000
1000
0000
0001
0000
1000
0000
1001
0000
0000
0000
,
0010
0100
0000
0010
0100
0000
0001
0000
1000
0000
0010
0000
0110
0000
0000
0000
,
1000
1000
0010
1000
1000
1000
0010
0100
,
0001
0010
0000
0010
0001
0000
1000
0000
0010
0000
0100
0000
0110
0000
0000
0000
,
1000
0010
0000
0010
1000
0000
0010
0000
0100
0000
0001
0000
0011
0000
0000
0000
,
0001
1000
0000
1000
0010
0000
0100
0000
0010
0000
1000
0000
1001
0000
0000
0000
,
0100
0100
0001
0100
0100
0100
0001
1000
,
0001
0000
0100
1000
0000
0000
0000
0000
,
0100
0000
0001
1000
0000
0000
0000
0000
,
0010
0000
1000
0001
0000
0000
0000
0000
,
1000
0100
0010
0001
1000
0100
0010
0001
,
0100
0001
1000
2001
0000
0010
3010
0000
,
0010
1000
0001
1002
0000
0103
0010
1000
,
0001
0010
0100
2000
0000
0000
3001
0100
,
0001
0001
1000
0001
0001
0001
1000
0010
,
0100
0010
1000
2010
0000
0001
3001
0000
,
0100
0010
1000
1200
0000
1300
0010
0100
,
0001
0100
1000
1200
0000
0000
0301
1000
,
0010
0010
0100
0010
0010
0010
0100
0001
,
1001
0000
1000
0100
0000
0000
0000
0000
,
1001
0000
0001
0100
0000
0000
0000
0000
,
0110
0000
0100
0010
0000
0000
0000
0000
,
0100
0010
1000
0001
0100
0010
1000
0001
,
0011
0000
0100
1000
0000
0000
0000
0000
,
0101
0000
1000
0010
0000
0000
0000
0000
,
1010
0000
0100
0001
0000
0000
0000
0000
,
0001
0010
0001
0100
0010
1000
0010
0100
,
0001
0000
0000
0100
0001
0000
0100
0000
0000
0000
0100
0000
0001
0000
0000
0000
,
1000
0000
0000
0010
1000
0000
0010
0000
0000
0000
0010
0000
1000
0000
0000
0000
,
0001
0000
0000
1000
0001
0000
1000
0000
0000
0000
1000
0000
0001
0000
0000
0000
,
0100
0000
0000
0010
0100
0000
0010
0000
0000
0000
0010
0000
0100
0000
0000
0000
,
0001
0100
0100
0001
0000
0001
1000
0000
,
1000
0010
0010
1000
0000
1000
0001
0000
,
0001
0100
0100
0010
0000
0010
1000
0000
,
0010
0100
0100
0001
0000
0001
1000
0001
,
0001
0000
0000
0001
0100
0000
0010
0000
0000
0000
0010
0000
1000
0000
0000
0000
,
1000
0000
0000
1000
0010
0000
0100
0000
0000
0000
0100
0000
0001
0000
0000
0000
,
0100
0000
0000
0100
0010
0000
1000
0000
0000
0000
1000
0000
0001
0000
0000
0000
,
0010
0000
0000
0010
0100
0000
0001
0000
0000
0000
0100
0000
1000
0000
0001
0000
,
1000
0000
0000
0000
0010
0100
0001
0000
0000
0000
0001
0000
1000
0000
0000
0000
,
0001
0000
0000
0000
0100
0010
1000
0000
0000
0000
1000
0000
0001
0000
0000
0000
,
0100
0000
0000
0000
0010
1000
0001
0000
0000
0000
0001
0000
0100
0000
0000
0000
,
0100
0000
0000
0000
0001
0100
0001
0000
0000
0000
0001
0000
1000
0000
1000
0000
,
0001
0100
0001
0010
0001
0100
0001
0100
,
0010
1000
0010
0100
0010
1000
0001
0100
,
0001
0010
0001
0100
0001
0010
0001
0010
,
0100
1000
0100
0010
0100
1000
0001
0010
,
0001
1000
0001
0100
0001
1000
0001
1000
,
0010
0100
0010
0001
0010
0100
0010
0100
,
0001
0100
0001
0010
0001
0100
0001
0100
,
0010
1000
0001
0100
0001
1000
0010
0100
,
0201
0000
0000
0000
,
2300
0000
0000
0000
,
3200
0000
0000
0000
,
0302
0000
0000
0000
,
1003
0000
0000
0000
;

//---------------dance-single - ----------------
#NOTES:
     dance-single:
     :
     Medium:
     7:
     0.415368,0.567717,0.177412,0.384392,0.000000,295.000000,277.000000,18.000000,39.000000,0.000000,0.000000,0.415368,0.567717,0.177412,0.384392,0.000000,295.000000,277.000000,18.000000,39.000000,0.000000,0.000000:
// measure 0
0000
0000
0000
0000
,  // measure 1
0000
0000
0000
0000
,  // measure 2
0000
0000
0000
0000
,  // measure 3
0000
0000
0000
0000
,  // measure 4
1000
0000
0000
0100
0000
0000
0011
0000
,  // measure 5
0001
0000
0000
0100
0000
0000
1010
0000
,  // measure 6
1000
0000
0000
0001
0000
0000
0110
0000
,  // measure 7
0002
0000
0000
2000
0000
0000
0000
3003
,  // measure 8
0010
0000
0000
0100
0000
0000
0011
0000
,  // measure 9
0100
0000
0000
0010
0000
0000
1100
0000
,  // measure 10
0001
0000
0000
0100
0000
0000
0011
0000
,  // measure 11
0200
0000
0000
0020
0000
0000
0000
0330
,  // measure 12
1000
0000
0100
0001
0000
0000
0000
0000
,  // measure 13
0001
0000
0100
1000
0000
0000
0000
0000
,  // measure 14
1000
0000
0100
0001
0000
0000
0000
0000
,  // measure 15
2000
0000
0000
0020
0000
0000
0000
3030
,  // measure 16
1000
0000
1000
0100
0000
0100
1000
0000
,  // measure 17
0001
0000
0001
0100
0000
0100
0001
0000
,  // measure 18
1000
0000
1000
0010
0000
0010
1000
0000
,  // measure 19
0002
0000
0000
0020
0000
0000
0000
0033
,  // measure 20
0001
0000
0100
0010
0000
0100
0010
0000
,  // measure 21
1000
0000
0010
0100
0000
0010
0100
0000
,  // measure 22
0001
0000
1000
0001
0000
1000
0001
0000
,  // measure 23
2000
0000
0000
0200
0000
0000
0000
3300
,  // measure 24
0010
0000
1000
0100
0000
0000
0000
0000
,  // measure 25
0001
0000
0100
1000
0000
0000
0000
0000
,  // measure 26
0010
0000
0100
0001
0000
0000
0000
0000
,  // measure 27
2000
0000
0000
0020
0000
0000
0000
3030
,  // measure 28
0010
0000
0020
2000
0000
3030
1001
0000
,  // measure 29
0010
0000
0020
0002
0000
0033
1001
0000
,  // measure 30
0100
0000
0200
2000
0000
3300
0001
1000
,  // measure 31
0020
0000
0000
0200
0000
0000
0000
0330
,  // measure 32
0100
0000
0002
2000
0000
3003
0110
0000
,  // measure 33
0010
0000
2000
0002
0000
3003
0110
0000
,  // measure 34
1000
0000
0200
0020
0000
0330
0001
1000
,  // measure 35
0020
0000
0000
0200
0000
0000
0000
0330
,  // measure 36
0110
0000
1000
0001
0000
0000
0000
0000
,  // measure 37
0110
0000
0001
1000
0000
0000
0000
0000
,  // measure 38
0110
0000
1000
0001
0000
0000
0000
0000
,  // measure 39
1000
0100
0010
0001
1000
0100
0010
0001
,  // measure 40
1000
0000
0010
0100
0000
0000
0000
0000
,  // measure 41
1001
0000
0100
0010
0000
0000
0000
0000
,  // measure 42
1001
0000
0010
0100
0000
0000
0000
0000
,  // measure 43
0001
0010
0100
1000
0001
0010
0100
1000
,  // measure 44
0100
0000
0100
0001
0100
0010
0100
0000
,  // measure 45
0101
0000
0100
1000
0100
0010
0100
0000
,  // measure 46
1010
0000
0010
0001
0010
0100
0010
0000
,  // measure 47
0011
0000
0010
1000
0010
0100
0010
0000
,  // measure 48
1000
0100
0010
0001
0000
0001
1000
0000
,  // measure 49
0001
0010
0100
1000
0000
1000
0001
0000
,  // measure 50
0100
0010
1000
0001
0000
0001
1000
0000
,  // measure 51
0010
0100
0001
1000
0000
1000
0001
0000
,  // measure 52
0200
0000
0000
0001
0000
0300
0100
0000
,  // measure 53
0020
0000
0000
1000
0000
0030
0010
0000
,  // measure 54
2000
0000
0000
0020
0000
3030
0001
0000
,  // measure 55
0002
0000
0000
0200
0000
0303
1000
0000
,  // measure 56
0001
0000
0100
0010
0000
1000
0001
0000
,  // measure 57
1000
0000
0010
0100
0000
0001
1000
0000
,  // measure 58
0010
0000
0100
0010
0000
1000
0001
0000
,  // measure 59
0200
0000
0000
0000
0310
1000
0010
0100
,  // measure 60
0001
0100
0001
0100
0001
0000
0001
0000
,  // measure 61
1000
0010
1000
0010
1000
0000
1000
0000
,  // measure 62
0010
0100
0010
0100
0010
0000
0010
0000
,  // measure 63
1000
0001
1000
0001
1000
0000
1000
0000
,  // measure 64
0001
0100
0010
1000
0010
0000
0010
0000
,  // measure 65
1000
0010
0100
0001
0100
0000
0100
0000
,  // measure 66
0001
1000
0010
0100
0010
0000
0010
0000
,  // measure 67
1000
0001
1000
0010
1000
0100
1000
0001
,  // measure 68
0200
0000
0000
0000
,  // measure 69
0302
0000
0000
0000
,  // measure 70
2003
0000
0000
0000
,  // measure 71
3020
0000
0000
0000
,  // measure 72
1030
0000
0000
0000
;

//---------------dance-single - ----------------
#NOTES:
     dance-single:
     :
     Easy:
     5:
     0.325255,0.496752,0.315398,0.325255,0.000000,231.000000,199.000000,32.000000,33.000000,0.000000,0.000000,0.325255,0.496752,0.315398,0.325255,0.000000,231.000000,199.000000,32.000000,33.000000,0.000000,0.000000:
0000
0000
0000
0000
,
0000
0000
0000
0000
,
0000
0000
0000
0000
,
0000
0000
0000
0000
,
1000
0000
0100
0001
,
0001
0000
0100
1000
,
1000
0000
0001
0100
,
0010
1001
0010
1001
,
0001
0010
0000
1000
,
1000
0010
0000
0001
,
0001
0000
1000
0010
,
0100
1001
0100
1001
,
0001
0000
0000
0001
0000
0000
0000
0000
,
1000
0000
0000
1000
0000
0000
0000
0000
,
0001
0000
0000
0001
0000
0000
0000
0000
,
2002
0000
0000
3003
,
1000
0000
0000
0010
0000
0000
1000
0000
,
0001
0000
0000
0100
0000
0000
0001
0000
,
1000
0000
0000
0001
0000
0000
1000
0000
,
0001
0110
0001
0110
,
0001
0000
0000
0100
0000
0000
0010
0000
,
1000
0000
0000
0010
0000
0000
0100
0000
,
0001
0000
0000
1000
0000
0000
0010
0000
,
1000
0110
1000
0110
,
0010
0000
0000
0010
0000
0000
0000
0000
,
0100
0000
0000
0100
0000
0000
0000
0000
,
0010
0000
0000
0010
0000
0000
0000
0000
,
2002
0000
0000
3003
,
1000
0002
0000
0103
,
0001
2000
0000
3100
,
1000
0020
0000
0130
,
0001
1001
1000
1001
,
0001
0020
0000
0130
,
0001
0200
0000
1300
,
0010
0200
0000
0301
,
1000
1001
0001
1001
,
1000
0000
0000
0010
0000
0000
0000
0000
,
0100
0000
0000
0001
0000
0000
0000
0000
,
0001
0000
0000
1000
0000
0000
0000
0000
,
2002
0000
0000
3003
,
0001
0000
0000
0100
0000
0000
0000
0000
,
0010
0000
0000
1000
0000
0000
0000
0000
,
1000
0000
0000
0001
0000
0000
0000
0000
,
2002
0000
0000
3003
,
0020
0000
0030
0110
0000
0000
0200
0000
,
0302
0000
0003
0101
0000
0000
0200
0000
,
0320
0000
0030
0110
0000
0000
0020
0000
,
2030
0000
0000
3002
0000
0000
0103
0000
,
0001
0000
0000
0100
0000
0000
0101
0000
,
0100
0000
0000
0010
0000
0000
0110
0000
,
0010
0000
0000
1000
0000
0000
1010
0000
,
2000
0000
0000
3001
0000
0000
0100
0000
,
0200
0000
0000
0301
0000
0000
0101
0000
,
0020
0000
0000
1030
0000
0000
1010
0000
,
2000
0000
0000
3001
0000
0000
1001
0000
,
0002
0000
0000
0023
0000
0000
0130
0000
,
1000
0000
0000
0010
0000
0000
1010
0000
,
0100
0000
0000
0001
0000
0000
0101
0000
,
0001
0000
0000
1000
0000
0000
0110
0000
,
0200
0000
0000
0000
0000
0000
0310
0100
,
0001
0010
0000
0001
0010
0000
0001
0000
,
1000
0010
0000
1000
0010
0000
1000
0000
,
0010
0100
0000
0010
0100
0000
0010
0000
,
1000
0001
0000
1000
0001
0000
1000
0000
,
0001
0100
0000
0100
0001
0000
1010
0000
,
1000
0010
0000
0010
1000
0000
0101
0000
,
1000
0001
0000
0001
1000
0000
0110
0000
,
0001
1000
0000
1000
0001
0000
0110
0000
,
2000
0000
0000
0000
,
3200
0000
0000
0000
,
0320
0000
0000
0000
,
0032
0000
0000
0000
,
1003
0000
0000
0000
;

//---------------dance-single - ----------------
#NOTES:
     dance-single:
     :
     Beginner:
     2:
     0.133763,0.248376,0.019712,0.078850,0.000000,95.000000,93.000000,2.000000,8.000000,0.000000,0.000000,0.133763,0.248376,0.019712,0.078850,0.000000,95.000000,93.000000,2.000000,8.000000,0.000000,0.000000:
0000
0000
0000
0000
,
0000
0000
0000
0000
,
0000
0000
0000
0000
,
0000
0000
0000
0000
,
0000
0000
0000
0010
,
0000
0000
0000
0100
,
0000
0000
0000
0010
,
0010
0000
0000
0000
,
0000
0000
0000
1000
,
0000
0000
0000
0001
,
0000
0000
0000
1000
,
1000
0000
0000
0000
,
0001
0000
0000
0000
,
0001
0000
0000
0000
,
0001
0000
0000
0000
,
0200
0000
0000
0300
,
0100
0000
0000
0100
,
0000
0000
0000
0010
,
0000
0000
0000
1000
,
1000
0000
0000
0000
,
0001
0000
0000
0100
,
0000
0000
0000
0010
,
0000
0000
0000
0100
,
0100
0000
0000
0000
,
0001
0000
0000
0000
,
1000
0000
0000
0000
,
0010
0000
0000
0000
,
2000
0000
0000
3000
,
1000
0000
0000
0000
,
1000
0000
0000
0000
,
0001
0000
0000
0000
,
1001
0000
0000
0000
,
0100
0000
0000
0000
,
0100
0000
0000
0000
,
0010
0000
0000
0000
,
0110
0000
0000
0000
,
1000
0000
0000
0000
,
0100
0000
0000
0000
,
0010
0000
0000
0000
,
0002
0000
0000
0003
,
0001
0000
0000
0000
,
0010
0000
0000
0000
,
0100
0000
0000
0000
,
0002
0000
0000
0003
,
0001
0000
0000
0100
,
0000
0000
0000
0010
,
0000
0000
0000
1000
,
0000
0000
0000
0000
,
1000
0000
0000
0010
,
0000
0000
0000
0100
,
0000
0000
0000
0001
,
0000
0000
0000
0000
,
0001
0000
0000
0100
,
0100
0000
0000
0010
,
0010
0000
0000
1000
,
1000
0000
0000
0000
,
1000
0000
0000
0010
,
0010
0000
0000
0100
,
0100
0000
0000
0001
,
0001
0000
0000
0000
,
1000
1000
1000
0000
,
0010
0010
0010
0000
,
0100
0100
0100
0000
,
0001
0001
0001
0000
,
0010
0010
0010
0000
,
0100
0100
0100
0000
,
1000
1000
1000
0000
,
0001
0001
0001
0000
,
0002
0000
0003
0000
,
2000
0000
3000
0000
,
0002
0000
0003
0000
,
2000
0000
3000
0000
,
0010
0000
0000
0000
;
