#TITLE:Meow;
#SUBTITLE:;
#ARTIST:Anamanguchi;
#TITLETRANSLIT:;
#SUBTITLETRANSLIT:;
#ARTISTTRANSLIT:;
#GENRE:Rock;
#CREDIT:;
#BANNER:meow-bn.png;
#BACKGROUND:meow3-bg.png;
#LYRICSPATH:;
#CDTITLE:;
#MUSIC:Meow.ogg;
#OFFSET:-0.359000;
#SAMPLESTART:28.709999;
#SAMPLELENGTH:12.000000;
#SELECTABLE:YES;
#BPMS:0.000000=200.460007
;
#STOPS:
;
#BGCHANGES:;
#KEYSOUNDS:;
#ATTACKS:;

//---------------dance-single - ----------------
#NOTES:
     dance-single:
     :
     Hard:
     7:
     0.496638,0.748098,0.515407,0.666997,0.000000,344.000000,293.000000,51.000000,66.000000,0.000000,0.000000,0.496638,0.748098,0.515407,0.666997,0.000000,344.000000,293.000000,51.000000,66.000000,0.000000,0.000000:
0000
0000
0000
0000
,
0000
0000
0000
0000
,
0000
0000
0000
0000
,
0000
0000
0000
0000
,
0000
0010
0001
0021
,
0030
0210
0300
2100
,
0000
3001
1000
1020
,
0030
0210
0000
0301
,
0020
0000
0000
0031
0001
0100
0020
0000
,
0000
0130
0100
0010
1000
0000
1001
0000
,
0110
0000
1000
0100
0001
0100
0000
1000
,
0100
0010
0001
1000
0001
0000
1000
0000
,
0200
0000
0000
0310
0010
0001
0200
0000
,
0000
0301
0001
1000
0010
0000
1001
0000
,
0110
0000
0100
0001
0010
0001
0000
0100
,
0010
1000
0100
0010
0001
0000
1000
0100
,
2000
3000
0202
0303
,
0220
0330
2020
3030
,
0001
0010
0100
2000
0000
0000
0000
0000
,
3001
0000
1000
0000
0010
0000
0100
0001
,
0200
0300
0022
0033
,
0220
0330
2200
3300
,
0100
0010
0001
1000
0010
0000
0100
0000
,
0100
0000
0010
0000
1000
0000
0001
0010
,
0200
0010
0001
0001
,
1000
1000
0010
0310
,
0001
0100
0010
1000
0000
0000
0000
0000
,
0002
0000
2003
0000
3020
0000
0130
0010
,
0200
0010
1000
1000
,
0001
0001
0010
0310
,
0100
0001
0010
0100
0000
0000
0000
0000
,
0020
0000
0032
0000
2003
0000
3010
0100
,
0020
1000
0001
0001
,
0100
0100
1000
1030
,
0001
0010
0100
1000
0000
0000
0000
0000
,
0002
0000
2003
0000
3200
0000
0310
0001
,
0020
0001
0100
0100
,
0001
0001
1000
1030
,
1001
0110
0101
1010
,
1000
0000
0000
0000
0000
0000
0100
0010
,
0002
0000
0203
0000
,
0320
0000
2030
0000
,
3001
1000
0020
0200
0000
0000
0000
0000
,
0000
0000
0000
0000
0330
0000
1000
0100
,
0002
0000
0203
0000
,
2300
0000
3002
0000
,
0103
0010
2000
0002
0000
0000
0000
0000
,
0000
0000
3003
0010
,
1100
0010
1100
0010
,
1100
0010
1100
0010
,
0101
0010
0101
0010
,
0101
0000
0001
0010
0100
0000
1000
0000
,
1001
1000
0110
0001
,
0101
0010
1100
0101
,
0220
0000
0000
0300
,
2030
0000
0000
3010
,
0100
0000
1001
0000
0010
0000
0100
0001
,
0100
0010
0001
0010
,
1000
0000
0001
1000
0001
0000
1000
0001
,
1000
0010
1000
0010
,
1000
0000
1010
0000
0100
0000
0010
0001
,
0010
1000
0001
0100
,
0010
0000
1000
0100
0010
0000
0001
0000
,
0200
0000
0020
0330
,
1001
0000
0010
0000
0100
0000
0001
0100
,
0010
0001
0010
1000
,
0001
0000
0100
0010
1000
0000
1001
0000
,
0020
0000
2030
0000
3002
0000
0103
0010
,
0110
1001
1100
0011
,
0110
1001
1010
0101
,
0001
0010
0100
1000
0010
0100
0001
0100
,
0202
0000
0000
0303
,
1020
0000
0000
0100
0000
0000
1030
0000
,
0210
0000
0000
0001
0000
0000
0310
0000
,
1002
0000
0000
0010
0000
0000
0010
0000
,
0010
0000
0000
0010
0000
0000
0013
0000
,
0201
0000
0000
0010
0000
0000
1300
0000
,
1020
0000
0000
0100
0000
0000
0031
0000
,
2001
0000
0000
0100
0000
0000
0100
0000
,
0100
0000
0000
0100
0000
0000
3100
0010
,
0002
0000
0000
0000
,
0000
0000
0000
0000
,
0000
0003
0000
0000
;

//---------------dance-single - ----------------
#NOTES:
     dance-single:
     :
     Medium:
     5:
     0.384028,0.450223,0.313286,0.212226,0.000000,266.000000,235.000000,31.000000,21.000000,0.000000,0.000000,0.384028,0.450223,0.313286,0.212226,0.000000,266.000000,235.000000,31.000000,21.000000,0.000000,0.000000:
0000
0000
0000
0000
,
0000
0000
0000
0000
,
0000
0000
0000
0000
,
0000
0000
0000
0000
,
0000
0010
0001
1000
,
0000
0010
0000
0100
,
0000
0001
0100
1000
,
0000
0100
0000
0001
,
1000
0000
0010
1000
0010
0000
1000
0000
,
0010
1000
0010
0000
1000
0000
0001
0000
,
1000
0001
0001
1000
,
0001
1000
1000
0001
,
0100
0000
0001
0100
0001
0000
0100
0000
,
0001
0100
0001
0000
0100
0000
0001
0000
,
0100
0001
0001
0100
,
0010
1000
1000
0010
,
1001
0000
0110
0000
,
1001
0000
0010
0100
,
0001
1000
0100
0010
,
0001
1000
1000
0000
,
1001
0000
0110
0000
,
1001
0000
0100
0010
,
1000
0001
0100
0001
,
2000
0010
3010
0100
,
0101
0000
1010
0000
,
0101
0000
1010
0000
,
0010
1000
0100
0010
0000
0000
0000
0000
,
0010
0001
1000
0100
,
1100
0000
0011
0000
,
1100
0000
0011
0000
,
0001
0010
0100
1000
0000
0000
0000
0000
,
0010
0100
0001
0010
,
0011
0000
1010
0000
,
0011
0000
1010
0000
,
0001
1000
0100
0010
0000
0000
0000
0000
,
0001
1000
0100
0010
,
0110
0000
1100
0000
,
0110
0000
0011
0000
,
0001
1000
0010
0100
,
0010
0000
0000
0000
0000
0000
0001
0010
,
0200
0000
0320
0000
,
0032
0000
2003
0000
,
3001
1000
0001
1000
0000
0000
0000
0000
,
0000
0000
0000
0000
0000
0000
0100
0010
,
2000
0000
3020
0000
,
0230
0000
0302
0000
,
0013
0100
0010
0100
0000
0000
0000
0000
,
0000
0000
0000
0000
,
0001
1000
0001
1000
,
0010
1000
0010
1000
,
0100
1000
0100
1000
,
0001
1000
1000
0001
,
0100
0010
1000
0001
,
0010
0100
0010
0001
,
1000
0100
0010
0001
,
2000
0000
0000
3001
,
0100
0000
0000
0010
,
1000
0100
1000
0010
,
0100
0000
0001
0010
0000
0000
0000
0000
,
0002
0000
2003
0000
,
3010
0000
0000
0100
,
0010
1000
0001
0010
,
0100
0000
1000
0010
0000
0000
0100
0000
,
0020
0000
2030
0000
,
3001
0000
0000
0000
0000
0000
0100
0001
,
1000
0010
1000
0001
,
0010
0000
0100
0010
0000
0000
0000
0000
,
0000
0000
0000
0010
,
2000
3010
0020
0130
,
0200
0301
0002
1003
,
2002
0000
0000
3003
,
0010
0000
0000
0000
,
1000
0000
0000
1010
0000
0000
0010
0000
,
0100
0000
0000
0101
0000
0000
0001
0000
,
0010
0000
0000
0110
0000
0000
0010
0000
,
0001
0000
0000
0101
0000
0000
0100
0000
,
0010
0000
0000
1010
0000
0000
1000
0000
,
0100
0000
0000
1100
0000
0000
1000
0000
,
0010
0000
0000
1001
0000
0000
0001
0000
,
0010
0000
0000
1001
0000
0000
0010
0000
,
0200
0000
0000
0000
,
0300
0000
0000
0000
;

//---------------dance-single - ----------------
#NOTES:
     dance-single:
     :
     Challenge:
     9:
     0.622242,0.704389,0.576043,0.707421,0.000000,431.000000,374.000000,57.000000,70.000000,0.000000,0.000000,0.622242,0.704389,0.576043,0.707421,0.000000,431.000000,374.000000,57.000000,70.000000,0.000000,0.000000:
0000
0000
0000
0000
,
0000
0000
0000
0000
,
0000
0000
0000
0000
,
0000
0000
0000
0000
,
0020
0000
0030
0010
1000
0100
0001
0000
,
0000
0100
1000
0010
0100
0000
0001
0000
,
2000
0000
3000
1000
0100
0010
0000
0001
,
1000
0100
0000
0010
0001
0000
0100
0000
,
0002
0000
0003
0100
0001
0100
0002
0000
,
0003
0010
0001
0010
0001
0000
0101
0000
,
1001
0000
0100
0001
0100
0002
0000
0103
,
0001
0010
0001
1000
0001
0000
0101
0000
,
0010
1000
0010
0100
0001
0010
0100
0010
,
0001
1000
0100
0010
0100
1000
0001
0010
,
0100
1000
0010
1000
0001
0100
0010
0100
,
0001
0010
0001
0010
0100
0010
0001
1000
,
0020
0030
2200
3300
,
0202
0303
0012
1003
,
0100
1000
0010
0100
0002
0000
1003
0000
,
2000
0000
3001
0000
0100
0000
0010
1000
,
0002
0003
0022
0033
,
2200
3300
0120
0031
,
0010
1000
0001
0010
0200
0000
0310
0000
,
0020
0000
0130
0000
0010
0000
0001
1000
,
0100
0010
0001
0000
0001
0010
0100
0000
,
0100
1000
0010
0000
0010
1000
0100
0000
,
0010
0001
0100
0020
0000
0000
0000
0000
,
0130
0001
1000
0010
1000
0100
0010
0001
,
0010
0100
1000
0000
1000
0100
0010
0000
,
0010
0001
1000
0000
1000
0001
0010
0000
,
0001
1000
0100
2000
0000
0000
0000
0000
,
3010
1000
0100
0010
0100
1000
0001
0010
,
0100
0001
0010
0000
0010
0001
0100
0000
,
0100
0001
1000
0000
1000
0001
0100
0000
,
0010
1000
0100
0002
0000
0000
0000
0000
,
0103
1000
0010
0100
0001
0010
0100
1000
,
0001
0100
1000
0000
1000
0100
0001
0000
,
0001
0010
0100
0000
0100
0010
0001
0000
,
0101
1100
1010
0110
,
0101
0000
0000
0010
,
1000
0000
0000
0100
0010
0010
0001
0000
,
0000
0100
0001
0001
0010
0000
1100
0000
,
0011
0000
0100
0100
0010
0000
1100
0000
,
0010
0001
1000
0100
0010
0000
0001
0000
,
0100
0000
0000
0001
1000
1000
0100
0000
,
0000
0010
1000
1000
0100
0000
0001
0000
,
0101
0000
1000
1000
0010
0000
0101
0000
,
0010
1000
0001
0100
0010
0000
0001
0000
,
1000
0101
0001
0011
,
1000
0110
0100
0011
,
0100
1010
0001
1001
,
0100
1010
0011
0101
,
0010
1000
0010
0000
0100
0001
0100
0000
,
0010
0001
0010
0000
1000
0001
1000
0100
,
0020
0000
0000
0000
,
0002
0000
0030
1003
,
1001
0000
0010
0000
0100
0000
0001
0010
,
0002
2003
3200
0320
,
0031
0000
0100
0010
0100
0010
0100
0000
,
0001
0010
0100
1000
0100
0010
0001
0000
,
0101
0000
1000
0000
0100
0000
0010
0100
,
2000
3020
0230
0320
,
1030
0000
0100
0010
0000
0000
0001
0000
,
1000
0010
0100
0001
0100
0010
1000
0000
,
1001
0000
0010
0000
0100
0000
0001
0010
,
0200
0320
0032
2003
,
3010
0000
0100
1000
0100
1000
0100
0000
,
0001
0010
0100
1000
0100
0010
0001
1000
,
1001
0010
1001
0100
,
1001
0010
1001
0100
,
2002
0000
0000
3003
,
0010
0000
0000
0100
,
0220
0000
0330
2020
0000
3030
0110
0000
,
0202
0000
0303
0220
0000
0330
0101
0000
,
0022
0000
0033
0220
0000
0330
0011
0000
,
1002
0000
1000
1000
0000
1000
1003
0000
,
2020
0000
3030
2002
0000
3003
1010
0000
,
0202
0000
0303
2002
0000
3003
0101
0000
,
0220
0000
0330
2002
0000
3003
0110
0000
,
0202
0000
0303
0220
0000
0330
0010
1000
,
0200
0000
0000
0000
,
0000
0000
0000
0000
,
0300
0000
0000
0000
;

//---------------dance-single - ----------------
#NOTES:
     dance-single:
     :
     Easy:
     3:
     0.245432,0.363816,0.080848,0.525513,0.000000,170.000000,162.000000,8.000000,52.000000,0.000000,0.000000,0.245432,0.363816,0.080848,0.525513,0.000000,170.000000,162.000000,8.000000,52.000000,0.000000,0.000000:
0000
0000
0000
0000
,
0000
0000
0000
0000
,
0000
0000
0000
0000
,
0000
0000
0000
0000
,
0000
0100
1000
0200
,
0000
2300
0000
3200
,
0000
0310
0001
0020
,
0000
0032
0000
0023
,
0031
0000
1000
0001
,
0000
0100
0001
0001
,
1000
1000
0001
0000
,
0001
0001
1000
0000
,
1000
0000
0010
1000
,
0000
0100
1000
1000
,
0001
0001
1000
0000
,
1000
1000
0001
0100
,
0020
0000
0230
0000
,
0320
0000
0230
0000
,
0302
0000
0000
0000
,
0000
0000
0000
0003
,
2000
0000
3020
0000
,
2030
0000
3020
0000
,
0230
0000
0000
0000
,
0010
0010
0310
1000
,
0002
0000
0023
0000
,
0230
0000
0320
0000
,
0031
1000
0000
0000
,
0100
0010
0100
0010
,
2000
0000
3020
0000
,
0230
0000
0302
0000
,
1003
0000
0000
0000
,
0001
1000
0001
1000
,
0020
0000
0230
0000
,
0302
0000
2003
0000
,
3010
0000
0000
0000
,
1000
0100
1000
0100
,
2000
0000
3002
0000
,
0203
0000
0320
0000
,
0130
0100
0100
0100
,
0001
0000
0000
0000
,
0100
0000
0001
0000
,
0010
0000
0100
0000
,
1000
0000
0000
0000
,
0000
0000
0000
0000
,
0010
0000
0100
0000
,
1000
0000
0010
0000
,
0100
0000
0000
0000
,
0000
0000
0000
0000
,
0000
1001
0000
0100
,
0000
1001
0000
0010
,
0000
1001
0000
0100
,
0000
1000
1000
1000
,
0000
0001
0000
0110
,
0000
1000
0000
0110
,
0000
0000
0000
0000
,
0002
0000
0003
1000
,
0200
0000
0000
1300
,
0010
0100
0010
1000
,
0001
1000
1000
1000
,
0001
1000
0001
0001
,
0020
0000
0000
0031
,
0100
0010
0100
0001
,
0100
0010
0000
1000
,
0002
0000
0023
0000
,
0230
0000
0300
0010
,
0001
0100
0010
1000
,
0100
1000
0000
0000
,
0000
0000
0000
0010
,
0220
0330
2000
3000
,
0002
0003
0200
0300
,
0020
0000
0000
0030
,
1000
0100
0010
0001
,
2000
0000
0000
0000
,
0002
0000
0000
3003
,
2002
0000
0000
0000
,
0000
0000
0000
3003
,
0002
0000
0000
0000
,
0020
0000
0000
0033
,
0022
0000
0000
0000
,
0000
0000
0033
0100
,
1000
0000
0000
0000
;

//---------------dance-single - ----------------
#NOTES:
     dance-single:
     :
     Beginner:
     2:
     0.102504,0.242544,0.020212,0.030318,0.000000,71.000000,69.000000,2.000000,3.000000,0.000000,0.000000,0.102504,0.242544,0.020212,0.030318,0.000000,71.000000,69.000000,2.000000,3.000000,0.000000,0.000000:
0000
0000
0000
0000
,
0000
0000
0000
0000
,
0000
0000
0000
0000
,
0000
0000
0000
0000
,
0000
1000
1000
1000
,
0000
0010
0000
0100
,
0000
0001
0000
0000
,
0000
1000
0000
0000
,
0010
0000
0000
0000
,
0000
0000
0000
0000
,
0001
0000
0000
0000
,
0000
0000
0000
0000
,
1000
0000
0000
0000
,
0000
0001
0000
0000
,
0100
0000
0000
0000
,
0000
0000
0000
0000
,
0010
0000
0010
0000
,
0010
0000
0010
0000
,
0010
0000
0000
0000
,
0000
0000
0000
0000
,
0100
0000
0100
0000
,
0100
0000
0100
0000
,
0100
0000
0000
0000
,
0000
0000
0000
0000
,
1000
0000
0000
0000
,
0010
0000
0000
0000
,
0100
0000
0000
0000
,
0000
0000
0000
0000
,
0001
0000
0000
0000
,
0010
0000
0000
0000
,
0100
0000
0000
0000
,
0000
0000
0000
0000
,
1000
0000
0000
0000
,
0001
0000
0000
0000
,
0010
0000
0000
0000
,
0000
0000
0000
0000
,
0100
0000
0000
0000
,
0010
0000
0000
0000
,
0001
0000
0000
0000
,
1000
0000
0000
0000
,
0010
0000
0000
0000
,
0000
0000
0000
0000
,
2000
0000
0000
0000
,
3000
0000
0000
0000
,
0100
0000
0000
0000
,
0000
0000
0000
0000
,
0020
0000
0000
0000
,
0030
0000
0000
0000
,
0001
0000
0000
0000
,
0000
0000
0000
0000
,
2000
0000
0000
0000
,
3000
0000
0000
0000
,
0100
0000
0000
0000
,
0000
0000
0000
0000
,
0001
0000
0000
0000
,
1000
0000
0000
0010
,
0010
0000
0000
0000
,
0000
0000
0000
0000
,
1000
0000
0000
0000
,
0001
0000
0001
0000
,
0001
0000
0000
0000
,
0000
0000
0000
0000
,
0010
0000
0000
0000
,
0100
0000
0100
0000
,
0100
0000
0000
0000
,
1000
0000
0000
0000
,
0010
0000
0000
0000
,
0000
0000
0000
0000
,
0100
0000
0100
0000
,
0100
0000
0100
0000
,
0100
0000
0000
0000
,
0110
0000
0000
0000
,
1000
0000
0000
0000
,
0001
0000
0000
0000
,
0001
0000
0000
0000
,
0000
0000
0000
0000
,
0100
0000
0000
0000
,
0010
0000
0000
0000
,
0010
0000
0000
0000
,
0000
0000
0000
0000
,
0110
0000
0000
0000
;

//---------------dance-double - ----------------
#NOTES:
     dance-double:
     :
     Challenge:
     9:
     0.651116,0.787258,0.404240,0.495195,0.055583,451.000000,411.000000,40.000000,49.000000,0.000000,0.000000,0.651116,0.787258,0.404240,0.495195,0.055583,451.000000,411.000000,40.000000,49.000000,0.000000,0.000000:
// measure 0
00000000
00000000
00000000
00000000
,  // measure 1
00000000
00000000
00000000
00000000
,  // measure 2
00000000
00000000
00000000
00000000
,  // measure 3
00000000
00000000
00000000
00000000
,  // measure 4
20000000
00000000
30000000
00010000
00100000
00010000
10000000
00000000
,  // measure 5
01000000
00010000
00001000
00000100
00000001
00000000
00001001
00000000
,  // measure 6
00000200
00000000
00000300
00000001
00000100
00000010
00000000
00000100
,  // measure 7
00001000
00010000
00000000
00100000
10000000
00000000
10010000
00000000
,  // measure 8
20000000
00000000
30000000
10000000
01000000
10000000
01000000
00000000
,  // measure 9
00000000
00010000
00001000
00010000
00002000
00000000
00023000
00000000
,  // measure 10
00031000
00000000
00000100
00000001
00000100
00000001
00000000
00001000
,  // measure 11
00000010
00000100
00000001
00000010
00000100
00000000
00001100
00000000
,  // measure 12
00000002
00000000
00000003
00000001
00000100
00000001
00000100
00000000
,  // measure 13
00000000
00001000
00010000
00001000
00020000
00000000
00032000
00000000
,  // measure 14
00013000
00000000
01000000
10000000
01000000
10000000
00000000
01000000
,  // measure 15
10000000
00100000
01000000
00010000
00100000
00000000
00010000
10000000
,  // measure 16
02000000
03000000
00020000
00030000
,  // measure 17
00002000
00003000
00000020
00000031
,  // measure 18
00001000
00000010
00000100
00000001
00000010
00000000
00001100
00000000
,  // measure 19
00000010
00000000
00000101
00000000
00000010
00000000
00000100
00001000
,  // measure 20
00020000
00030000
02000000
03000000
,  // measure 21
20000000
30000000
00200000
01300000
,  // measure 22
00010000
10000000
00100000
01000000
00100000
00000000
11000000
00000000
,  // measure 23
00100000
00000000
01010000
00000000
10010000
00000000
10000000
01000000
,  // measure 24
00010000
00000000
01000000
00010000
00001000
00000000
00010000
00001000
,  // measure 25
00000100
00000000
00001000
00000100
00000001
00000000
00001000
00000000
,  // measure 26
00000001
00000100
00000010
00002000
00000010
00000000
00003010
00000000
,  // measure 27
00000100
00000001
00001000
00000010
00000100
00000000
00000001
00000100
,  // measure 28
00001000
00000000
00000100
00001000
00010000
00000000
00001000
00010000
,  // measure 29
01000000
00000000
00010000
01000000
10000000
00000000
00010000
00000000
,  // measure 30
10000000
00100000
01000000
00020000
01000000
00000000
01030000
00000000
,  // measure 31
00100000
10000000
00010000
01000000
00100000
00000000
10000000
01000000
,  // measure 32
00010000
00000000
01000000
00010000
00001000
00000000
00010000
00001000
,  // measure 33
00000100
00000000
00001000
00000100
00000001
00000000
00001000
00000000
,  // measure 34
00000010
00000100
00000001
00002000
00000001
00000000
00003001
00000000
,  // measure 35
00000100
00001000
00000100
00000001
00000100
00000000
00000001
00000100
,  // measure 36
00001000
00000000
00000100
00001000
00010000
00000000
00001000
00010000
,  // measure 37
01000000
00000000
00010000
01000000
10000000
00000000
00010000
00000000
,  // measure 38
10010000
01100000
01010000
00101000
,  // measure 39
00011000
00000000
00000000
00000000
00000000
00000000
00010000
00001000
,  // measure 40
00000200
00000300
00000002
00000003
,  // measure 41
00000020
00000030
00002000
00013000
,  // measure 42
00100000
10000000
00100000
10000000
01000000
00000000
01000000
00000000
,  // measure 43
01000000
00100000
01000000
00100000
00010000
10000000
01000000
00010000
,  // measure 44
00002000
00003000
00000200
00000300
,  // measure 45
00000002
00000003
00000020
00001030
,  // measure 46
00010000
00001000
00000100
00000001
00000010
00000000
00000010
00000000
,  // measure 47
00000010
00000100
00000010
00000100
00001000
00000001
00000100
00000001
,  // measure 48
00000010
00001100
00000010
00000101
,  // measure 49
00000010
00001100
00000100
00011000
,  // measure 50
00100000
01010000
00100000
11000000
,  // measure 51
00100000
01000000
00010000
10000000
00100000
00000000
10010000
00000000
,  // measure 52
10000000
01000000
20000000
00000000
30010000
01000000
00020000
00000000
,  // measure 53
01030000
00100000
00020000
00000000
00031000
00000100
00000002
00000000
,  // measure 54
00001003
00000010
00000100
00000001
00000010
00000100
00001000
00000010
,  // measure 55
00000202
00000000
00000303
00001001
,  // measure 56
00000110
00000100
00000010
00000100
00000010
00000000
00001000
00000001
,  // measure 57
00000200
00001300
00020000
01030000
,  // measure 58
10000000
00000000
00100000
01000000
00010000
01000000
00100000
00000000
,  // measure 59
01000000
00000000
00010000
10000000
00100000
00000000
11000000
00000000
,  // measure 60
10010000
10000000
00010000
10000000
00010000
00000000
10000000
01000000
,  // measure 61
00020000
00031000
00000200
00000301
,  // measure 62
00001000
00000000
00000010
00000100
00000001
00000000
00001100
00000000
,  // measure 63
00000010
00000100
00000001
00000100
00000010
00001000
00000100
00001000
,  // measure 64
00000020
00000000
00000100
00000100
00000130
00000000
00001000
00010000
,  // measure 65
00100000
10100000
01010000
10100000
,  // measure 66
10010000
00000000
10000000
01000000
00010000
01000000
10000000
00000000
,  // measure 67
00010000
01000000
10000000
01000000
00010000
00100000
01000000
10000000
,  // measure 68
00100000
00010000
10000000
01000000
00010000
00100000
01000000
00010000
,  // measure 69
00001000
00000100
00000001
00001000
00000010
00000001
00000010
00001000
,  // measure 70
00000001
00000000
00000000
00000001
00001000
00000000
00000000
00001000
00000001
00000000
00000000
00000001
00001000
00000000
00000000
00001000
,  // measure 71
00000001
00000001
00000100
00001000
00010000
00010000
01000000
00000000
,  // measure 72
11000000
00000000
00100000
00110000
00000000
01000000
11000000
00000000
,  // measure 73
10010000
00000000
00000000
00000000
01000000
00000000
01100000
00000000
00000000
00000000
10000000
00000000
00010000
10000000
00010000
10000000
,  // measure 74
00020000
00000000
00030000
20000000
00000000
30000000
00020000
00000000
,  // measure 75
00032000
00000000
00000000
00000000
00003000
00000000
00000002
00000000
00000000
00000000
00000003
00000000
00000100
00000001
00000100
00000000
,  // measure 76
00000101
00000000
00000010
00001010
00000000
00000100
00000101
00000000
,  // measure 77
00001001
00000000
00000000
00000000
00000100
00000000
00000110
00000000
00000000
00000000
00000001
00000000
00001000
00000001
00001000
00000001
,  // measure 78
00002000
00000000
00003000
00000002
00000000
00000003
00002000
00000000
,  // measure 79
00023000
00000000
00000000
00000000
00030000
00000000
20000000
00000000
00000000
00000000
30000000
00000000
00010000
01000000
00010000
01000000
,  // measure 80
00020000
00000000
00000000
00000000
,  // measure 81
00000000
00000000
00000000
00000000
,  // measure 82
00030000
00000000
00000000
00000000
;
