#TITLE:Last Burning;
#SUBTITLE:;
#ARTIST:Dirty Androids;
#TITLETRANSLIT:;
#SUBTITLETRANSLIT:;
#ARTISTTRANSLIT:;
#GENRE:House;
#CREDIT:;
#BANNER:lastburning-bn.png;
#BACKGROUND:lastburning-bg.png;
#LYRICSPATH:;
#CDTITLE:;
#MUSIC:Last Burning.ogg;
#OFFSET:-0.020000;
#SAMPLESTART:59.060001;
#SAMPLELENGTH:12.000000;
#SELECTABLE:YES;
#BPMS:0.000000=130.000000
;
#STOPS:
;
#BGCHANGES:;
#KEYSOUNDS:;
#ATTACKS:;

//---------------dance-single - ----------------
#NOTES:
     dance-single:
     :
     Hard:
     8:
     0.497832,0.453517,0.082481,0.030930,0.237133,338.000000,330.000000,8.000000,3.000000,0.000000,0.000000,0.497832,0.453517,0.082481,0.030930,0.237133,338.000000,330.000000,8.000000,3.000000,0.000000,0.000000:
0000
0000
0000
0000
,
0000
0000
0000
0000
,
0010
0000
0100
0000
0010
0000
0100
0001
0000
0000
0000
0000
0000
0000
0000
0000
,
0100
0000
0010
0000
0100
0000
0010
1000
0000
0000
0000
0000
1001
0000
0000
0000
,
1000
0100
1000
0100
0010
0001
0000
1000
,
0001
0000
0010
0000
0001
0000
0010
0100
0000
0000
0000
0000
0000
0000
0000
0000
,
1000
0000
0001
0000
1000
0000
0001
0100
0000
0000
0100
0000
0000
0000
0000
0000
,
0001
0010
0001
0100
0001
1000
0010
0000
,
1000
0100
1000
0001
1000
0100
1000
0010
,
1000
0100
1000
0001
1000
0100
0010
0000
,
0001
0100
0001
1000
0001
0100
0001
0010
,
0001
0100
0001
1000
0001
0100
0010
0000
,
0100
0001
0100
0010
0100
0001
0100
1000
,
0100
0001
0100
0010
0100
0001
1000
0000
,
0001
0010
0100
1000
0010
0100
0001
0000
,
1000
0000
0100
0000
0001
0000
0100
1000
0000
1000
0000
0000
0010
0000
0010
0000
,
0010
0100
0001
1000
0010
0100
0001
1000
,
0001
0010
0100
1000
0001
0010
0100
0000
,
1000
0100
0001
0100
,
1000
0010
1000
0001
0100
0010
0100
0000
,
0001
0000
0100
0000
0001
0000
0100
0010
0000
0000
0000
0000
1010
0000
0000
0000
,
1000
0000
0100
0000
1000
0000
0100
0010
0000
0000
0000
0000
0011
0000
0000
0000
,
0001
0000
1001
0000
0100
0000
0110
0010
,
0200
0000
0000
0000
0000
0000
0301
1000
,
0010
0000
1000
0000
0010
0000
1000
0010
0000
0000
0100
0000
0000
0000
0000
0000
,
0100
0000
0001
0000
0100
0000
0001
0100
0000
0000
0010
0000
0000
0000
0000
0000
,
0100
0000
0010
0000
0100
0000
0010
0100
0000
0000
1000
0000
0000
0000
0000
0000
,
0010
0000
0100
0000
0010
0000
0100
0010
0000
0000
0001
0000
0000
0000
0001
0000
,
1000
0110
0001
0011
,
0100
1000
0100
0001
0100
0000
1000
1000
,
1000
0000
0010
0000
0000
0100
0000
0000
0001
0000
0010
0000
0000
0100
0000
0000
,
1000
0001
0100
0001
1000
0001
0101
0000
,
0010
0000
0100
0010
0000
0000
0100
0000
0010
0000
0100
0010
0000
0000
0000
0000
,
0100
0000
1000
0100
0000
0000
1000
0000
0100
0000
1000
0100
0000
0000
0000
0000
,
1000
0000
0010
1000
0000
0000
0010
0000
1000
0000
0010
1000
0000
0000
0000
0000
,
0001
0000
1000
0010
0000
0000
0100
0000
0001
0000
0100
0010
0000
0000
0000
0000
,
0100
0000
0001
0100
0000
0000
0010
0000
1000
0000
0010
1000
0000
0000
0100
0000
,
0010
0000
0100
0010
0000
0000
0100
0000
0001
0000
0100
0001
0000
0000
0010
0000
,
0001
0000
0010
0001
0000
0000
1000
0000
0100
0000
1000
0100
0000
0000
0100
0000
,
0010
0000
0001
0010
0000
0000
0010
0000
0100
0000
0010
0100
0000
0000
0100
0000
,
0010
0000
0001
0000
1000
0000
0010
0100
0000
0000
0010
0000
0100
0000
0000
0100
,
0000
0000
1000
0000
0010
0000
0000
0100
0000
0000
0001
0000
0010
0000
0010
0000
,
0100
0000
1000
0000
0100
0000
0010
0100
0000
0000
1000
0000
0010
0000
0000
1000
,
0000
0000
0001
0000
0100
0000
0000
0010
0000
0000
1000
0000
0010
0000
0100
0000
,
0001
0000
0010
0000
0001
0000
1000
0001
0000
0000
1000
0000
0010
0000
0000
0100
,
0000
0000
0010
0000
1000
0000
0000
0001
0000
0000
0100
0000
0001
0000
0010
0000
,
0100
0000
0010
0000
0001
0000
0100
0001
0000
0001
0100
0000
0001
0000
0000
0000
,
0100
0000
0010
0000
0100
0000
2000
0002
0000
0000
0000
0000
0000
0000
3003
0000
,
0010
0000
0100
0000
0001
0000
1000
0010
0000
0000
0000
0000
0000
0000
0000
0000
,
0001
0000
0010
0000
0100
0000
1000
0001
0000
1000
0001
0000
0000
0000
0000
0000
,
1000
0000
0010
0000
0100
0000
0001
0100
0000
0000
0000
0000
0000
0000
0000
0000
,
0010
0010
1000
0001
1000
1000
0100
0000
;

//---------------dance-single - ----------------
#NOTES:
     dance-single:
     :
     Beginner:
     1:
     0.117830,0.185840,0.061861,0.154652,0.000000,80.000000,74.000000,6.000000,15.000000,0.000000,0.000000,0.117830,0.185840,0.061861,0.154652,0.000000,80.000000,74.000000,6.000000,15.000000,0.000000,0.000000:
0000
0000
0000
0000
,
0000
0000
0000
0000
,
0110
0000
0000
0000
,
1001
0000
0000
0000
,
2000
0000
3000
0000
,
0002
0000
0003
0000
,
0200
0000
0300
0000
,
0010
0000
1000
0000
,
0200
0000
0300
0000
,
0020
0000
0030
0000
,
0002
0000
0003
0000
,
2000
0000
3000
0000
,
0001
0001
0000
0000
,
0010
0010
0000
0000
,
0100
0100
0000
0000
,
1000
0000
1001
0000
,
0020
0030
0010
0000
,
0100
0000
0000
0000
,
0002
0003
0001
0000
,
1000
0000
0000
0000
,
0200
0300
0100
0000
,
0020
0030
0010
0000
,
0001
0000
0001
0000
,
2002
0000
0000
3003
,
1001
0000
0000
0000
,
0010
0000
0000
0000
,
0100
0000
0000
0000
,
1000
0000
0000
0000
,
0000
0010
0000
0100
,
0000
0010
0000
0000
,
1000
0000
1000
0000
,
2002
0000
3003
0000
,
0100
0000
0000
0000
,
0010
0010
0000
0000
,
0001
0000
0000
0000
,
1000
1000
0000
0000
,
0010
0000
0000
0000
,
0100
0100
0000
0000
,
0010
0000
0000
0000
,
1000
1000
0000
0000
,
0001
0000
0000
0000
,
0010
0000
0000
0000
,
0100
0000
0000
0000
,
0001
0000
0010
0000
,
0100
0000
0000
0000
,
1000
0000
0100
0000
,
0010
0000
0000
0000
,
0010
0000
0000
0000
,
1000
1000
1000
0000
,
1000
1000
1000
0000
,
1000
1000
1000
0000
,
0000
0000
0001
0000
;

//---------------dance-single - ----------------
#NOTES:
     dance-single:
     :
     Easy:
     3:
     0.244497,0.266775,0.061861,0.030930,0.000000,166.000000,160.000000,6.000000,3.000000,0.000000,0.000000,0.244497,0.266775,0.061861,0.030930,0.000000,166.000000,160.000000,6.000000,3.000000,0.000000,0.000000:
0000
0000
0000
0000
,
0000
0000
0000
0000
,
0010
0100
1000
0000
,
0010
0100
1000
0000
,
0100
0010
0001
0000
,
0100
0010
0001
0000
,
0100
0001
1000
0000
,
0001
0001
1000
0100
,
1000
0010
0001
0000
,
1000
0010
0001
0000
,
0001
0100
1000
0000
,
0001
0100
1000
0000
,
0001
0010
0100
0000
,
0001
0010
0100
0000
,
1000
0100
0010
0000
,
0001
1000
0000
0010
,
0010
1000
0100
1000
,
0010
0100
0001
0100
,
0010
1000
1000
1000
,
0001
0100
0010
0100
,
0001
1000
0010
1000
,
0001
0010
0100
0010
,
0001
0001
1000
1000
,
2002
0000
0000
3003
,
0010
0000
1000
0000
,
0100
0000
0001
0000
,
1000
0000
0010
0000
,
0001
0000
0100
0000
,
1000
0100
0001
0100
,
1000
0010
0001
0010
,
1000
0000
0110
0000
,
0001
1000
0001
0110
,
0100
0100
0100
0001
,
0010
0010
0010
0100
,
1000
1000
1000
0010
,
0001
0001
0001
0010
,
0100
0100
0100
0001
,
0010
0010
0010
0100
,
1000
1000
1000
0001
,
0100
0100
0100
0001
,
0010
0100
1000
0000
,
1000
0000
0100
0000
,
1000
0010
0100
0000
,
0001
0000
0010
0000
,
0001
1000
0010
0000
,
0100
0000
0001
0000
,
0100
0010
1000
0000
,
0100
1000
0200
0000
,
1300
0010
1010
0000
,
0001
0010
0011
0000
,
1000
0100
1100
0000
,
0001
0001
1000
0010
;

//---------------dance-single - ----------------
#NOTES:
     dance-single:
     :
     Medium:
     5:
     0.359382,0.373484,0.288684,0.030930,0.000000,244.000000,216.000000,28.000000,3.000000,0.000000,0.000000,0.359382,0.373484,0.288684,0.030930,0.000000,244.000000,216.000000,28.000000,3.000000,0.000000,0.000000:
0000
0000
0000
0000
,
0000
0000
0000
0000
,
0100
0001
0100
0001
0000
0000
0000
0000
,
0100
1000
0100
1000
0000
0000
0000
0000
,
0010
0100
0001
0000
1001
0000
0000
0000
,
0100
0010
0100
0010
0000
0000
0000
0000
,
0010
1000
0010
1000
0000
0000
0000
0000
,
0100
0001
1000
0110
,
0100
0001
0100
0000
1001
0000
0000
0000
,
0010
1000
0010
0000
1001
0000
0000
0000
,
1000
0100
1000
0000
0011
0000
0000
0000
,
0001
0010
0001
0000
1100
0000
0000
0000
,
0010
0100
0001
0000
1000
0000
1100
0000
,
1000
0010
0100
0000
0001
0000
0101
0000
,
0001
1000
0010
0000
0010
0000
0010
0000
,
0100
0000
0001
0000
0000
0000
0010
0010
,
0010
0001
0010
0001
0010
0000
0000
0000
,
0100
1000
0100
1000
0100
0000
0000
0000
,
1010
1000
1001
0000
,
0001
0100
0001
0100
0001
0000
0000
0000
,
0010
0100
0010
0100
0010
0000
0000
0000
,
0100
1000
0100
1000
0100
0000
0000
0000
,
1001
0010
0110
1000
,
2002
0000
0000
3003
,
0010
0100
0001
0000
1000
0000
0000
0000
,
0010
0100
0001
0000
1000
0000
0000
0000
,
1000
0100
0001
0000
1000
0000
0000
0000
,
1000
0100
0001
0000
1000
0000
0000
0000
,
0001
0000
1000
0000
0010
0100
0001
0000
,
0100
0000
0010
0000
1000
0100
0010
0100
,
1000
1000
0000
0000
0001
0001
0000
0000
,
1001
0110
1001
0010
,
1000
0100
0010
0000
0011
0000
0000
0000
,
1000
0100
0010
0000
0011
0000
0000
0000
,
0001
0010
0100
0000
1100
0000
0000
0000
,
0001
0010
0100
0000
1100
0000
0000
0000
,
1000
0001
0100
0000
0011
0000
0000
0000
,
0001
1000
0100
0000
1010
0000
0000
0000
,
0010
0100
0001
0000
1100
0000
0000
0000
,
0100
0010
1000
0000
0101
0000
0000
0000
,
0001
0010
0001
1000
0000
1000
0010
0000
,
0010
0100
0100
1001
,
1000
0100
1000
0010
0000
0010
0100
0000
,
0001
1000
1100
0101
,
1000
0010
0100
0001
1000
0000
0001
0000
,
0100
0001
0010
0011
,
0010
0100
0010
0001
0000
1000
0000
0001
,
1000
1000
0020
0000
,
0130
0010
1000
0001
0000
0000
0000
0000
,
0010
0100
0001
1000
0000
0000
0000
0000
,
1000
0001
0100
0010
0000
0000
0000
0000
,
0001
0010
0001
0000
1000
0100
1000
0000
;

//---------------dance-double - ----------------
#NOTES:
     dance-double:
     :
     Easy:
     3:
     0.243024,0.266775,0.010310,0.030930,0.000000,165.000000,164.000000,1.000000,3.000000,0.000000,0.000000,0.243024,0.266775,0.010310,0.030930,0.000000,165.000000,164.000000,1.000000,3.000000,0.000000,0.000000:
00000000
00000000
00000000
00000000
,
00000000
00000000
00000000
00000000
,
00000100
00000100
00000010
00000000
,
00000001
00000001
00001000
00000000
,
00000100
00000100
00010000
00000000
,
00001000
00001000
00100000
00000000
,
00010000
00010000
10000000
00000000
,
00100000
00000000
01000000
00010000
,
10000000
10000000
10000000
00100000
,
01000000
01000000
01000000
00001000
,
00010000
00010000
00010000
00000100
,
00000010
00000010
00000010
00000001
,
00001000
00000010
00000100
00000000
,
00000010
00010000
00001000
00000000
,
00100000
00010000
01000000
00000000
,
00100000
00010000
00000000
10000000
,
20000000
00010000
30100000
00000000
,
00001000
00010000
00001000
00000000
,
00000010
00000100
00000001
00000000
,
00001000
00000100
00000010
00000000
,
00000100
00000100
00010000
00000000
,
00001000
00001000
00100000
00000000
,
00001000
00010000
00001000
00100000
,
00020000
00000000
00000000
00030000
,
10000000
00100000
01000000
00000000
,
01000000
00001000
01000000
00000000
,
00001000
00100000
00001000
00000000
,
00010000
00000010
00010000
00000000
,
00000001
00000100
00001000
00000000
,
00000001
00000100
00000010
00000000
,
00010000
00001000
00000100
00001000
,
00010000
00010000
00010000
00011000
,
00100000
00010000
00100000
00000000
,
00010000
01000000
00010000
00000000
,
10000000
00100000
10000000
00000000
,
00010000
00100000
00001000
00000000
,
00000100
00001000
00000100
00000000
,
00001000
00000010
00001000
00000000
,
00000001
00000100
00000001
00000000
,
00000100
00000010
00010000
00001000
,
00100000
00100000
00010000
01000000
,
00100000
10000000
00100000
01000000
,
00001000
00010000
00000010
00000100
,
00000001
00001000
00000010
00010000
,
00000100
00001000
00000010
00010000
,
00001000
00100000
00010000
01000000
,
00100000
10000000
01000000
01000000
,
00100000
00001000
00200000
00000000
,
01300000
01000000
10000000
00000000
,
00010000
00010000
00100000
00000000
,
00001000
00001000
00010000
00000000
,
00000100
00001000
00000001
00000001
;

//---------------dance-double - ----------------
#NOTES:
     dance-double:
     :
     Medium:
     6:
     0.396204,0.373484,0.185582,0.041241,0.000000,269.000000,251.000000,18.000000,4.000000,0.000000,0.000000,0.396204,0.373484,0.185582,0.041241,0.000000,269.000000,251.000000,18.000000,4.000000,0.000000,0.000000:
00000000
00000000
00000000
00000000
,
10000000
00100000
01000000
00100000
00000000
00000000
00000000
00000000
,
01000000
00001000
00010000
00001000
00000000
00000000
00000000
00000000
,
00010000
00000100
00001000
00000100
00010000
00000000
00000000
00000000
,
00000010
00001000
00000010
00000100
00000001
00000000
00000000
00000000
,
00000001
00000010
00000001
00001000
00000000
00000000
00000000
00000000
,
00000010
00010000
00001000
00010000
00000010
00000000
00000000
00000000
,
00010000
00001000
00010000
00000000
00001000
00100000
00010000
00000000
,
01000000
00010000
10000000
00100000
01000000
00000000
01000000
00000000
,
00100000
10000000
01000000
00100000
00001000
00000000
00001000
00000000
,
00010000
00000100
00010000
00000100
00001000
00000000
00000010
00000000
,
00000100
00000001
00000100
00000001
00001000
00000000
00000010
00000000
,
00000100
00000010
00001000
00000100
00010000
00000000
00000100
00000000
,
00001000
00000010
00000100
00000010
00001000
00000000
00000100
00000000
,
00010000
00001000
00010000
00001000
01000000
00000000
00100000
00000000
,
10000000
01000000
00100000
00000000
00000000
00000000
10010000
00000000
,
00100000
00000000
00100000
00000000
01000000
00010000
10000000
00000000
,
00100000
00000000
00100000
00000000
01000000
00010000
10000000
00000000
,
00010000
00000000
00010000
00000000
00100000
00001000
01000000
00000000
,
00010000
00000000
00010000
00000000
00100000
00001000
01000000
00000000
,
00001000
00000000
00001000
00000000
00010000
00000100
00001000
00000000
,
00000010
00000000
00000010
00000000
00000100
00000001
00001000
00000000
,
00001001
00000000
00010100
00000000
,
00022000
00000000
00000000
00033000
,
00100000
00001000
00100000
00000000
00000000
00110000
00000000
00000000
,
00010000
01000000
00100000
00000000
00000000
10100000
00000000
00000000
,
10000000
01000000
00100000
00000000
00000000
00110000
00000000
00000000
,
00001000
00010000
00000100
00000000
00000000
00001100
00000000
00000000
,
00001000
00000001
00000010
00000000
00000100
00001000
00000100
00000000
,
00010000
00001000
01000000
00000000
00010000
00000000
00100000
00010000
,
10000000
10000000
00000000
00000000
00010000
00010000
00000000
00000000
,
01000000
00100000
10000000
01010000
,
00100000
00001000
00100000
00000000
00001000
00010000
00001000
00000000
,
00100000
00001000
00100000
00000000
00001000
00010000
00000100
00000000
,
00001000
00000010
00001000
00000000
00000001
00000100
00000001
00000000
,
00001000
00000010
00001000
00000000
00000001
00000100
00000010
00000000
,
00001000
00000100
00001000
00000000
00010000
00001000
00010000
00000000
,
00001000
00000100
00001000
00000000
00010000
00001000
00100000
00000000
,
00010000
01000000
00010000
00000000
10000000
00100000
10000000
00000000
,
00010000
01000000
00010000
00000000
10000000
00100000
01000000
00000000
,
00010000
00100000
00101000
00010000
,
00000100
00000000
00001000
00000000
00001010
00000000
00000100
00000001
,
00001000
00000001
00001001
00000010
,
00010000
00000000
00000100
00000000
00010100
00000000
00001000
00100000
,
00010000
01000000
01010000
00100000
,
10000000
00000000
01000000
00000000
11000000
00000000
00100000
00010000
,
01000000
00001000
01001000
00010000
,
00011000
00000010
00002020
00003030
,
00000001
00000100
00000010
00001000
00000100
00000000
00000000
00000000
,
00010000
00001000
01000000
00100000
10000000
00000000
00000000
00000000
,
00010000
01000000
00001000
00010000
00000100
00000000
00000000
00000000
,
00001000
00010000
00000010
00000000
00000100
00000100
00000010
00000000
;

//---------------dance-double - ----------------
#NOTES:
     dance-double:
     :
     Hard:
     8:
     0.484576,0.480194,0.113411,0.010310,0.273218,329.000000,318.000000,11.000000,1.000000,0.000000,0.000000,0.484576,0.480194,0.113411,0.010310,0.273218,329.000000,318.000000,11.000000,1.000000,0.000000,0.000000:
// measure 0
00000000
00000000
00000000
00000000
,  // measure 1
00000000
00000000
00000000
00000000
,  // measure 2
00000010
00000000
00001000
00000000
00000010
00000000
00001000
00000010
00000000
00000000
00000000
00000000
00000000
00000000
00000000
00000000
,  // measure 3
00010000
00000000
00000100
00000000
00010000
00000000
00000100
00010000
00000000
00000000
00000000
00000000
00011000
00000000
00000000
00000000
,  // measure 4
00001000
00000000
00100000
00000000
00001000
00000000
00100000
00001000
00000000
00000000
00000000
00000000
00000000
00000000
00000000
00000000
,  // measure 5
01000000
00000000
00010000
00000000
01000000
00000000
00010000
01000000
00000000
00000000
00000000
00000000
00000000
00000000
00000000
00000000
,  // measure 6
00100000
00000000
10000000
00000000
00100000
00000000
10000000
00100000
00000000
00000000
00000000
00000000
00000000
00000000
00000000
00000000
,  // measure 7
10000000
00010000
00100000
00001000
00010000
00000010
00000110
00000000
,  // measure 8
00000100
00000000
00000001
00000000
00001000
00000000
00000001
00000100
00000000
00000000
00000001
00000000
00000000
00000000
00000000
00000000
,  // measure 9
00000010
00000000
00001000
00000000
00000100
00000000
00001000
00000010
00000000
00000000
00001000
00000000
00000000
00000000
00000000
00000000
,  // measure 10
00000100
00000000
00010000
00000000
00001000
00000000
00010000
00000100
00000000
00000000
00010000
00000000
00000000
00000000
00000000
00000000
,  // measure 11
00001000
01000000
00010000
01000000
00100000
00000000
10010000
00000000
,  // measure 12
10000000
00000000
01000000
00000000
00100000
00000000
01000000
10000000
00000000
00000000
01000000
00000000
00000000
00000000
00000000
00000000
,  // measure 13
01000000
00000000
00010000
00000000
00100000
00000000
00010000
01000000
00000000
00000000
00010000
00000000
00000000
00000000
00000000
00000000
,  // measure 14
00100000
00000000
00001000
00000000
00010000
00000000
00001000
00100000
00000000
00000000
00001000
00000000
00000000
00000000
00000000
00000000
,  // measure 15
00010000
00000000
00000100
00000000
00001000
00000000
00000100
00001000
00000000
00001000
00000000
00000000
00000001
00000000
00000001
00000000
,  // measure 16
00000001
00000100
00001000
00000100
00000001
00000010
00000100
00000000
,  // measure 17
00001000
00100000
00010000
00100000
00001000
00010000
00000100
00000000
,  // measure 18
00010000
00001000
00100000
00001000
01000000
00010000
00100000
00000000
,  // measure 19
01000000
10000000
00100000
10000000
01000000
00100000
00010000
00000000
,  // measure 20
01000000
00100000
01000000
00100000
01000000
00100000
10010000
00000000
,  // measure 21
00100000
00001000
00100000
00001000
00100000
00001000
00011000
00000000
,  // measure 22
00000110
00000010
00001000
00000000
00000101
00000001
00001000
00001000
,  // measure 23
00000200
00000000
00000000
00000000
,  // measure 24
00010300
00000000
00001000
00000000
00100000
00000000
00000000
00010000
00000000
00000000
00010000
00000000
00000000
00000000
00000000
00000000
,  // measure 25
01000000
00000000
00100000
00000000
10000000
00000000
00000000
01000000
00000000
00000000
01000000
00000000
00000000
00000000
00000000
00000000
,  // measure 26
00100000
00000000
01000000
00000000
10000000
00000000
00000000
00010000
00000000
00000000
00010000
00000000
00000000
00000000
00000000
00000000
,  // measure 27
00100000
00000000
00001000
00000000
00010000
00000000
00000000
00000100
00000000
00000000
00000100
00000000
00000000
00000000
00000000
00000000
,  // measure 28
00001000
00000000
00000010
00000000
00000100
00000000
00000000
00000001
00000000
00000000
00000001
00000000
00000000
00000000
00000000
00000000
,  // measure 29
00000001
00000010
00000100
00000000
00010000
00001000
01000000
00010000
,  // measure 30
10000000
00000000
10000000
00000000
00000000
00010000
00000000
00000000
00100000
00000000
00100000
00000000
00000000
00001000
00000000
00000000
,  // measure 31
00010000
00000100
00001000
00000100
00010000
00001000
00101000
00000000
,  // measure 32
00010000
00000000
01000000
00010000
00000000
00000000
01000000
00000000
00010000
00000000
01000000
00010000
00000000
00000000
00000000
00000000
,  // measure 33
10000000
00000000
01000000
10000000
00000000
00000000
01000000
00000000
10000000
00000000
01000000
10000000
00000000
00000000
00000000
00000000
,  // measure 34
00010000
00000000
00100000
00010000
00000000
00000000
00100000
00000000
00010000
00000000
00100000
00010000
00000000
00000000
00000000
00000000
,  // measure 35
00100000
00000000
00001000
00100000
00000000
00000000
00001000
00000000
00100000
00000000
00001000
00100000
00000000
00000000
00000000
00000000
,  // measure 36
00001000
00000000
00010000
00001000
00000000
00000000
00010000
00000000
00001000
00000000
00010000
00001000
00000000
00000000
00000000
00000000
,  // measure 37
00010000
00000000
00000010
00010000
00000000
00000000
00000010
00000000
00010000
00000000
00000010
00010000
00000000
00000000
00000000
00000000
,  // measure 38
00000010
00000000
00000100
00000010
00000000
00000000
00000100
00000000
00000010
00000000
00000100
00000010
00000000
00000000
00000000
00000000
,  // measure 39
00000100
00000000
00000001
00000100
00000000
00000000
00000001
00000000
00000100
00000000
00000001
00000100
00000000
00000000
00000000
00000000
,  // measure 40
00000010
00000000
00001000
00000000
00000100
00000000
00000010
00000001
00000000
00000000
00000100
00000000
00000010
00000000
00000000
00001000
,  // measure 41
00000000
00000000
00000100
00000000
00010000
00000000
00000000
00001000
00000000
00000000
00010000
00000000
00000100
00000000
00001000
00000000
,  // measure 42
00000100
00000000
00010000
00000000
00001000
00000000
01000000
00100000
00000000
00000000
01000000
00000000
00010000
00000000
00000000
10000000
,  // measure 43
00000000
00000000
00100000
00000000
01000000
00000000
00000000
00010000
00000000
00000000
00100000
00000000
01000000
10000000
01000000
00000000
,  // measure 44
10000000
00000000
00100000
00000000
01000000
00000000
00010000
00100000
00000000
00000000
01000000
00000000
10000000
00000000
00000000
00010000
,  // measure 45
00000000
00000000
00100000
00000000
00001000
00000000
00000000
00010000
00000000
00000000
00000010
00000000
00001000
00000000
00000100
00000000
,  // measure 46
00000010
00000000
00000001
00000000
00000100
00000000
00000010
00000100
00000000
00000100
00000010
00000000
00000000
00001000
00000000
00000000
,  // measure 47
00000001
00000100
00001000
00010000
01000000
00000000
10000000
10000000
,  // measure 48
00010000
00000000
01000000
00000000
00010000
00000000
01000000
00010000
00000000
00000000
00000000
00000000
01001000
00000000
00000000
00000000
,  // measure 49
00100000
00000000
00001000
00000000
00100000
00000000
00001000
00100000
00000000
00000000
00000000
00000000
00010100
00000000
00000000
00000000
,  // measure 50
00001000
00000000
00010000
00000000
00001000
00000000
00010000
00001000
00000000
00000000
00000000
00000000
00010010
00000000
00000000
00000000
,  // measure 51
00000100
00000001
00000100
00000000
00000010
00000000
00001000
00000000
00000100
00000000
00000100
00000000
00010000
00000000
00000000
00000000
;
