#VERSION:0.83;
#TITLE:Kind Lady;
#SUBTITLE:(Future Trance Mix);
#ARTIST:Okuyatos;
#TITLETRANSLIT:;
#SUBTITLETRANSLIT:;
#ARTISTTRANSLIT:;
#GENRE:Trance;
#ORIGIN:;
#CREDIT:;
#BANNER:kindladyftuturetrancemix-bn.png;
#BACKGROUND:kindladyfuturetrancemix-bg.png;
#PREVIEWVID:;
#JACKET:;
#CDIMAGE:;
#DISCIMAGE:;
#LYRICSPATH:;
#CDTITLE:;
#MUSIC:Kind Lady (Future Trance Mix).ogg;
#OFFSET:-0.020000;
#SAMPLESTART:50.680000;
#SAMPLELENGTH:12.000000;
#SELECTABLE:YES;
#BPMS:0.000=142.000;
#STOPS:;
#DELAYS:;
#WARPS:;
#TIMESIGNATURES:0.000=4=4;
#TICKCOUNTS:0.000=4;
#COMBOS:0.000=1;
#SPEEDS:0.000=1.000=0.000=0;
#SCROLLS:0.000=1.000;
#FAKES:;
#LABELS:0.000=Song Start;
#BGCHANGES:;
#KEYSOUNDS:;
#ATTACKS:
;

//---------------dance-single - ----------------
#NOTEDATA:;
#CHARTNAME:;
#STEPSTYPE:dance-single;
#DESCRIPTION:;
#CHARTSTYLE:;
#DIFFICULTY:Hard;
#METER:8;
#RADARVALUES:0.517462,0.578184,0.285132,0.158407,0.248170,343.000000,316.000000,27.000000,15.000000,0.000000,0.000000,0.000000,0.000000,0.000000,0.517462,0.578184,0.285132,0.158407,0.248170,343.000000,316.000000,27.000000,15.000000,0.000000,0.000000,0.000000,0.000000,0.000000;
#CREDIT:;
#NOTES:
// measure 0
0000
0000
0000
0000
,  // measure 1
0000
0000
0000
0000
,  // measure 2
0000
0000
0000
0000
,  // measure 3
0000
0000
0000
0000
0000
0000
0001
0001
,  // measure 4
1000
0000
0010
0100
0000
0010
1000
0000
0000
0000
0000
0000
0100
0000
0001
0000
,  // measure 5
0010
0000
0100
0010
0000
0001
0100
0000
0000
0000
0000
0000
1000
0000
0001
0000
,  // measure 6
0100
0000
0010
1000
0000
0100
0010
0000
0000
0000
0000
0000
0100
0000
0001
0000
,  // measure 7
1000
0000
0100
0010
0000
0001
1000
0000
0000
0000
0000
0000
0100
0000
0001
0000
,  // measure 8
0010
0000
0100
0010
0000
0100
0010
0000
0000
0000
0000
0000
1000
0000
0010
0000
,  // measure 9
0100
0000
0001
0010
0000
0001
1000
0000
0000
0000
0000
0000
0100
0000
0010
0000
,  // measure 10
1000
0001
0010
0100
0010
0001
1000
0100
,  // measure 11
0020
0000
0002
0033
,  // measure 12
0021
1000
0100
0031
,  // measure 13
0201
1000
0010
0301
,  // measure 14
1000
0100
0010
0100
0001
0000
1001
0000
,  // measure 15
1000
0100
0010
0100
0001
0100
1000
0000
,  // measure 16
0001
0100
0010
1000
0001
0000
0110
0000
,  // measure 17
0010
0000
0000
2000
0000
0000
0002
0000
0000
0000
0000
0000
3003
0000
0000
0000
,  // measure 18
0001
0100
0010
0100
1000
0000
1001
0000
,  // measure 19
0001
0100
0010
0100
1000
0100
0001
0000
,  // measure 20
1000
0100
0010
0001
1000
0000
1001
0000
,  // measure 21
0100
0000
0000
0002
0000
0000
0020
0000
0000
0000
0033
0000
1000
0000
0001
0000
,  // measure 22
0100
0001
0010
1000
0010
0000
1001
0000
,  // measure 23
0100
0001
0010
1000
0010
0001
0100
0000
,  // measure 24
0010
1000
0001
0100
0010
0000
1001
0000
,  // measure 25
0010
0000
0000
0200
0000
0000
2000
0000
0000
0000
0000
0000
3300
0000
0000
0000
,  // measure 26
0010
0001
0100
1000
0100
0000
1001
0000
,  // measure 27
0010
0001
0100
1000
0100
0001
0010
0000
,  // measure 28
1000
0010
0100
0001
1000
0000
1001
0000
,  // measure 29
2020
0000
0000
3030
,  // measure 30
0001
0000
0000
0010
0000
0000
0100
0000
0000
0000
0001
0000
0010
0000
0100
0000
,  // measure 31
1000
0001
0000
1000
0001
0000
1000
0000
0001
0000
0000
0000
0110
0000
0000
0000
,  // measure 32
1100
0000
0100
0001
0100
0000
0100
1000
,  // measure 33
0100
0000
0000
0100
0000
0000
0100
0000
0000
0000
0010
0000
0001
0000
1000
0000
,  // measure 34
0000
0210
0000
0001
0301
0000
1000
0001
,  // measure 35
1001
0000
0000
0101
0000
0000
1001
0000
0000
0000
0000
0000
0000
0000
0000
0000
,  // measure 36
0010
1000
0100
0010
0001
0000
0010
0001
,  // measure 37
0100
0010
1000
0001
0000
0100
0010
0100
,  // measure 38
1000
0100
0010
0000
1000
0100
0010
0001
,  // measure 39
1000
0001
0000
1000
0001
0000
1000
0000
0001
0000
0000
0000
1001
0000
0000
0000
,  // measure 40
0101
0000
0010
0001
0010
1000
0010
0001
,  // measure 41
0010
0000
0000
0010
0000
0000
0010
0000
0000
0000
0100
0000
0001
0000
0010
0000
,  // measure 42
0000
0110
0000
1000
0001
0000
0001
1000
,  // measure 43
1001
0000
0000
1010
0000
0000
1001
0000
0000
0000
0000
0000
0000
0000
0000
0000
,  // measure 44
0001
1000
0100
0010
0001
0000
1000
0001
,  // measure 45
0101
0000
0000
0110
0000
0000
1010
0000
0000
0000
1000
0000
0001
0000
0010
0000
,  // measure 46
0001
0000
0100
0000
0001
0100
0000
0001
0100
0000
0001
0000
0100
0000
0001
0000
,  // measure 47
0100
0000
0001
0000
0100
0001
0000
0100
0001
0000
0100
0000
0001
0000
0100
0000
,  // measure 48
1000
0000
0010
0000
1000
0010
0000
1000
0010
0000
1000
0000
0010
1000
0000
0010
,  // measure 49
1000
0000
0010
0000
1000
0010
0000
0001
0000
0000
0000
0000
0000
0000
0000
0000
,  // measure 50
1000
0000
0100
0000
1000
0100
0000
1000
0100
0000
1000
0000
0100
1000
0000
0100
,  // measure 51
1000
0000
0100
0000
1000
0000
0100
0000
1000
0100
0000
1000
0100
0000
1000
0000
,  // measure 52
0001
0000
0010
0000
0001
0010
0000
0001
0010
0000
0001
0000
0010
0001
0000
0010
,  // measure 53
0001
0000
0010
0000
0001
0010
0000
0100
0000
0000
1000
0000
0100
0000
0010
0000
,  // measure 54
2002
0000
0000
3003
;

//---------------dance-single - ----------------
#NOTEDATA:;
#CHARTNAME:;
#STEPSTYPE:dance-single;
#DESCRIPTION:;
#CHARTSTYLE:;
#DIFFICULTY:Medium;
#METER:6;
#RADARVALUES:0.325865,0.399185,0.211209,0.116165,0.021121,216.000000,196.000000,20.000000,11.000000,0.000000,0.000000,0.000000,0.000000,0.000000,0.325865,0.399185,0.211209,0.116165,0.021121,216.000000,196.000000,20.000000,11.000000,0.000000,0.000000,0.000000,0.000000,0.000000;
#CREDIT:;
#NOTES:
0000
0000
0000
0000
,
0000
0000
0000
0000
,
0000
0000
0000
0000
,
0000
0000
0000
0000
0000
0000
0010
0010
,
1000
0100
0010
0001
0000
0000
0000
0000
,
0001
0100
0010
1000
0000
0000
0000
0000
,
1000
0100
0001
0100
0000
0000
0000
0000
,
0010
1000
0001
0100
0000
0000
0000
0000
,
0100
0001
1000
0010
0000
0000
0000
0000
,
0001
0010
0100
1000
0000
0000
0000
0000
,
0001
0010
1000
0010
0000
0000
0000
0000
,
0202
0000
0000
0303
,
1000
0100
0001
0010
,
0001
0100
1000
0010
,
0001
0010
0100
1000
0000
0000
0000
0000
,
1000
0000
0001
0000
0100
0010
0001
0000
,
0100
0010
1000
0001
0000
0000
0000
0000
,
0001
1000
0010
0100
,
0010
1000
0010
0000
0010
0100
0010
0000
,
0100
0001
0100
0000
0100
0010
0100
0000
,
0001
0010
0100
1000
,
2020
0000
3030
0000
,
0100
0010
1000
0001
0000
0000
0000
0000
,
1000
0000
0100
0000
0010
0001
1000
0000
,
0010
1000
0001
0100
0000
0000
0000
0000
,
0010
1000
0001
0010
,
1000
0010
1000
0000
1000
0100
1000
0000
,
0100
0010
0100
0000
0100
0001
0100
0000
,
0001
0100
1000
0100
,
0002
0000
0000
0003
,
0220
0000
0330
0000
,
0010
0000
1000
0001
1000
0000
0001
0000
,
0010
0100
1000
0001
,
0100
0000
0000
0100
0000
0000
0100
0000
0000
0000
0000
0000
0001
0000
0000
0000
,
1000
0100
0010
0100
,
1000
0000
0000
1000
0000
0000
1000
0000
0000
0000
0000
0000
0000
0000
0000
0000
,
0010
0100
0001
0010
,
0001
1000
0010
0100
0000
0000
0001
0000
,
2002
0000
3003
0010
,
0000
0101
0000
1001
0000
1010
0000
0000
,
0100
0001
0010
0001
,
0100
0000
0000
0100
0000
0000
0100
0000
0000
0000
0000
0000
0001
0000
0000
0000
,
0010
0001
1000
0100
,
0010
0000
0000
0010
0000
0000
0010
0000
0000
0000
0000
0000
0000
0000
0000
0000
,
0100
1000
0010
0100
,
2002
0000
3003
0010
,
0100
0010
0000
0000
0010
0100
0000
0000
,
0110
1010
0110
1010
,
1000
0001
0000
0000
0001
1000
0000
0000
,
1001
0101
1001
0000
,
0010
1000
0000
0000
1000
0010
0000
0000
,
1010
0110
1010
0110
,
0100
0010
0000
0000
0001
0010
0000
0000
,
0011
0000
0000
0000
0100
1000
0010
0100
,
0001
0000
0000
0000
;

//---------------dance-single - ----------------
#NOTEDATA:;
#CHARTNAME:;
#STEPSTYPE:dance-single;
#DESCRIPTION:;
#CHARTSTYLE:;
#DIFFICULTY:Easy;
#METER:4;
#RADARVALUES:0.277589,0.318001,0.126725,0.179528,0.000000,184.000000,172.000000,12.000000,17.000000,0.000000,0.000000,0.000000,0.000000,0.000000,0.277589,0.318001,0.126725,0.179528,0.000000,184.000000,172.000000,12.000000,17.000000,0.000000,0.000000,0.000000,0.000000,0.000000;
#CREDIT:;
#NOTES:
0000
0000
0000
0000
,
0000
0000
0000
0000
,
0000
0000
0000
0000
,
0000
0000
0000
0000
0000
0000
0001
0001
,
0002
0000
0000
0103
0000
0000
0000
0000
,
2000
0000
0000
3010
0000
0000
0000
0000
,
0200
0000
0000
0310
0000
0000
0000
0000
,
0020
0000
0000
1030
0000
0000
0000
0000
,
0001
0100
0010
0000
,
0100
0001
0010
0000
,
0100
1000
0100
0010
,
0002
0000
0200
0303
,
0001
0010
1000
0100
,
0001
0010
1000
0100
,
0001
0000
0100
0000
0001
0010
0001
0000
,
1000
0000
0100
0000
1000
0010
1000
0000
,
0001
1000
0010
0000
,
2020
0000
3030
0000
,
0001
0000
0010
0000
0100
1000
0100
0000
,
1000
0000
0100
0000
0010
0001
0010
0000
,
0001
1000
0100
0000
,
0202
0000
0303
0000
,
0010
0000
0100
0000
0010
1000
0010
0000
,
0100
0000
0001
0000
0010
0001
0010
0000
,
0001
0100
1000
0000
,
0220
0000
0330
0000
,
0010
1000
0100
0010
,
0001
0100
0010
1000
,
0001
1000
0010
0100
,
2002
0000
0000
3003
,
0010
0000
0000
1001
0000
0000
0000
0000
,
0010
0100
0001
0010
,
0100
0000
1000
0010
1000
0000
0001
0100
,
0002
0000
0000
1003
,
0010
0100
0010
1000
,
0001
0000
0000
1001
0000
0000
0000
0000
,
0010
0100
0001
1000
,
0100
0000
0010
0001
0010
0000
0001
0100
,
0001
1000
0100
0001
,
0000
1000
0000
0100
0000
0010
0000
0000
,
0001
1000
0100
0010
,
0001
0000
0100
0010
1000
0000
0010
0100
,
0001
1000
0010
0100
,
0010
0000
0000
1001
0000
0000
0000
0000
,
1000
0100
0010
0001
,
0100
0000
0010
1000
0100
0000
0010
0001
,
0100
0000
1001
0000
,
0010
1000
0001
0100
,
0010
0000
1001
0000
,
1000
0001
0100
0000
,
0010
0000
1001
0000
,
0100
0010
1000
0100
,
0010
0000
1001
0000
,
0001
0100
0010
1000
,
2002
0000
0000
3003
;

//---------------dance-single - ----------------
#NOTEDATA:;
#CHARTNAME:;
#STEPSTYPE:dance-single;
#DESCRIPTION:;
#CHARTSTYLE:;
#DIFFICULTY:Beginner;
#METER:2;
#RADARVALUES:0.168967,0.256619,0.052802,0.168967,0.000000,112.000000,107.000000,5.000000,16.000000,0.000000,0.000000,0.000000,0.000000,0.000000,0.168967,0.256619,0.052802,0.168967,0.000000,112.000000,107.000000,5.000000,16.000000,0.000000,0.000000,0.000000,0.000000,0.000000;
#CREDIT:;
#NOTES:
0000
0000
0000
0000
,
0000
0000
0000
0000
,
0000
0000
0000
0000
,
0000
0000
0000
0001
,
0002
0000
0003
0000
,
0020
0000
0030
0000
,
0200
0000
0300
0000
,
2000
0000
3000
0000
,
0020
0000
0030
0000
,
2000
0000
3000
0000
,
0002
0000
0003
0000
,
0100
0000
0010
0000
,
1000
1000
1000
1000
,
1000
1000
1000
1000
,
1000
0000
0000
0000
,
0001
0000
0010
0000
,
0100
0000
0000
0000
,
2002
0000
3003
0000
,
0010
0000
1000
0000
,
0001
0000
0100
0100
,
0100
0000
0001
0000
,
2002
0000
3003
0000
,
0010
0000
0000
0000
,
1000
0000
0001
0000
,
0010
0000
0001
0000
,
2002
0000
3003
0000
,
0010
0000
1000
0000
,
0100
0000
0010
0010
,
0010
0000
0001
0000
,
0220
0000
0330
0000
,
0100
0000
0000
0000
,
0001
0001
0001
0000
,
1000
0000
0010
0000
,
0001
0001
0001
0001
,
0001
0000
0100
0000
,
0010
0010
0010
0000
,
1000
0000
0001
0000
,
0010
0010
0010
0010
,
0010
0000
0100
0000
,
2000
0000
3000
0000
,
1000
0000
0010
0000
,
1000
1000
1000
1000
,
1000
0000
0001
0000
,
0100
0100
0100
0000
,
0001
0000
0010
0000
,
0100
0100
0100
0100
,
0100
0000
0010
0000
,
0100
0100
0100
0000
,
0001
0000
1000
0000
,
0001
0001
0001
0000
,
0100
0000
0001
0000
,
0100
0100
0100
0000
,
0010
0000
1000
0000
,
0010
0010
0010
0000
,
1001
0000
0000
0000
;

//---------------dance-double - ----------------
#NOTEDATA:;
#CHARTNAME:;
#STEPSTYPE:dance-double;
#DESCRIPTION:;
#CHARTSTYLE:;
#DIFFICULTY:Easy;
#METER:3;
#RADARVALUES:0.260994,0.313645,0.095044,0.052802,0.000000,173.000000,164.000000,9.000000,5.000000,0.000000,0.000000,0.000000,0.000000,0.000000,0.260994,0.313645,0.095044,0.052802,0.000000,173.000000,164.000000,9.000000,5.000000,0.000000,0.000000,0.000000,0.000000,0.000000;
#CREDIT:;
#NOTES:
00000000
00000000
00000000
00000000
,
00000000
00000000
00000000
00000000
,
00000000
00000000
00000000
00000000
,
00000000
00000000
00000000
00000000
,
10000000
01000000
00010000
00000000
,
00001000
00000100
00000010
00000000
,
00001000
00000010
00000001
00000000
,
00000010
00001000
00010000
00000000
,
00100000
10000000
00100000
00000000
,
00010000
01000000
00100000
00000000
,
00010000
00001000
00000100
00000000
,
00000020
00000000
00000200
00000330
,
00001001
00001001
00000000
00000000
,
10010000
10010000
00100000
01000000
,
00100000
01000000
00010000
00000000
,
00000100
00001000
00000010
00000010
,
00000100
00000001
00001000
00000000
,
00000020
00000000
00000030
00000000
,
00001000
00000100
00010000
00000000
,
00001000
00100000
00010000
00010000
,
10000000
01000000
00100000
00000000
,
02000000
00000000
03000000
00000000
,
10000000
00100000
00010000
00000000
,
00001000
00000100
00000001
00000001
,
00000100
00001000
00000010
00000000
,
00020000
00000000
00030000
00000000
,
00001000
00100000
00010000
01000000
,
00100000
10000000
01000000
01000000
,
00100000
00001000
00010000
00000010
,
00000100
00000100
00000100
00000000
,
00000001
00001000
00001001
00000000
,
00000010
00000000
00010000
00000000
,
00001000
01000000
00001000
00100000
,
00010000
01000000
00000000
01100000
,
00000000
10000000
01000000
00010000
,
00001000
00000100
00000001
00000000
,
00000001
00000010
00001000
00010000
,
00100000
10000000
10000000
00010000
,
01000000
00001000
00010000
00000010
,
00000100
00000010
00000110
00000000
,
00000001
00001000
00000100
00010000
,
00001000
01000000
01000000
00100000
,
10000000
01000000
00100000
00010000
,
01000000
01000000
00010000
00001000
,
00010000
01000000
00001000
00010000
,
00000010
00000100
00000110
00001001
,
00000010
00000010
00000100
00000010
,
00000010
00000010
00000100
00000010
,
00000010
00000010
00000100
00000010
,
00000010
00000000
00000000
00000000
,
00100000
00100000
01000000
00100000
,
00100000
00100000
01000000
00100000
,
00100000
00100000
01000000
00100000
,
00100000
00100000
01000000
00100000
,
00001000
00000000
00000000
00000000
;

//---------------dance-double - ----------------
#NOTEDATA:;
#CHARTNAME:;
#STEPSTYPE:dance-double;
#DESCRIPTION:;
#CHARTSTYLE:;
#DIFFICULTY:Medium;
#METER:6;
#RADARVALUES:0.339443,0.427698,0.306253,0.126725,0.015841,225.000000,196.000000,29.000000,12.000000,0.000000,0.000000,0.000000,0.000000,0.000000,0.339443,0.427698,0.306253,0.126725,0.015841,225.000000,196.000000,29.000000,12.000000,0.000000,0.000000,0.000000,0.000000,0.000000;
#CREDIT:;
#NOTES:
00000000
00000000
00000000
00000000
,
00000000
00000000
00000000
00000000
,
00000000
00000000
00000000
00000000
,
00000000
00000000
00000000
00000000
,
10000000
01000000
00100000
00010000
00000000
00000000
00000000
00000000
,
00001000
00000100
00000010
00000001
00000000
00000000
00000000
00000000
,
00000001
00000100
00000010
00001000
00000000
00000000
00000000
00000000
,
00010000
01000000
00100000
10000000
00000000
00000000
00000000
00000000
,
10000000
00010000
01000000
00100000
00000000
00000000
00000000
00000000
,
00001000
00000001
00000100
00000010
00000000
00000000
00000000
00000000
,
00000001
00000010
00000100
00001000
00000000
00000000
00000000
00000000
,
00020000
00000000
20000000
30030000
,
10010000
01000000
00011000
00011000
,
00001001
00000100
00011000
00011000
,
00100000
00001000
00010000
00000000
00001000
00000000
00000000
00000000
,
00010000
00000010
00000100
00000000
00000001
00000000
00001000
00000000
,
00000100
00010000
00001000
00000000
00100000
00000000
00000000
00000000
,
22000000
00000000
33000000
00000000
,
00100000
01000000
00100000
00000000
01000000
00000000
01010000
00000000
,
00001000
00010000
00001000
00000000
00000100
00000000
00001100
00000000
,
00000010
00000010
00000100
00000010
,
00000202
00000000
00000303
00000000
,
00000010
00001000
00000100
00000000
00010000
00000000
00000000
00000000
,
00001000
01000000
00100000
00000000
01000000
00000000
01000000
00000000
,
00100000
01000000
00010000
00000000
00000100
00000000
00000000
00000000
,
00020200
00000000
00030300
00000000
,
00000010
00000100
00000001
00000000
00000001
00000000
00000101
00000000
,
00001000
00000100
00010000
00000000
00010000
00000000
00011000
00000000
,
00100000
00010000
01000000
00000000
01000000
00000000
00100000
00000000
,
20200000
00000000
00000000
30300000
,
10000000
00000000
00000000
10000000
00000000
00000000
10000000
00000000
00000000
00000000
00000000
00000000
00000000
00000000
00000000
00000000
,
00010000
00100000
00001000
00000000
,
00000010
00000000
00000100
00000010
00000100
00000000
00000001
00001000
,
00000002
00000000
00000000
00000003
00000000
00000000
00000110
00000000
,
00000000
00000010
00000000
00000010
00010000
00000000
00001000
00100000
,
00020000
00000000
00000000
00030000
00000000
00000000
00000000
00000000
,
01000000
10000000
01000000
00010000
,
00100000
00001000
00100000
00001000
00000000
00000000
00011000
00000000
,
00000010
00000100
00000010
00000000
00000100
00000000
00000001
00000000
,
00000000
00000110
00000000
00001001
00000000
00000110
00000000
00000000
,
00000100
00001000
00000100
00000000
00010000
00001000
00010000
00000000
,
00001000
00100000
00101000
00010000
,
01000000
00100000
01100000
10000000
,
00100000
00000000
00000000
00100000
00000000
00000000
00100000
00000000
00000000
00000000
00000000
00000000
00000000
00000000
00000000
00000000
,
01000000
00001000
01001000
00010000
,
00000010
00000000
00000000
00000010
00000000
00000000
00000010
00000000
00000000
00000000
00000000
00000000
00000100
00000000
00000000
00000000
,
00000001
00000001
00001100
00000001
,
00000001
00000001
00001100
00000001
,
00000001
00000000
00000001
00000000
00001100
00000000
00000010
00001000
,
00000100
00000000
00010000
00001000
00100000
00000000
00000000
00000000
,
10000000
10000000
01010000
10000000
,
10000000
10000000
01010000
10000000
,
10000000
10000000
01010000
10000000
,
10000000
01000000
00100000
00010000
00001000
00000010
00000100
00000000
,
00001001
00000000
00000000
00000000
;

//---------------dance-double - ----------------
#NOTEDATA:;
#CHARTNAME:;
#STEPSTYPE:dance-double;
#DESCRIPTION:;
#CHARTSTYLE:;
#DIFFICULTY:Hard;
#METER:8;
#RADARVALUES:0.470694,0.607093,0.158407,0.168967,0.274572,312.000000,297.000000,15.000000,16.000000,0.000000,0.000000,0.000000,0.000000,0.000000,0.470694,0.607093,0.158407,0.168967,0.274572,312.000000,297.000000,15.000000,16.000000,0.000000,0.000000,0.000000,0.000000,0.000000;
#CREDIT:;
#NOTES:
00000000
00000000
00000000
00000000
,
00000000
00000000
00000000
00000000
,
00000000
00000000
00000000
00000000
,
00000000
00000000
00000000
00000000
,
00001000
00000000
00010000
00001000
00000000
00001000
00100000
00000000
00000000
00000000
00000000
00000000
00000000
00000000
00000000
00000000
,
00010000
00000000
01000000
00100000
00000000
00100000
10000000
00000000
00000000
00000000
00000000
00000000
00000000
00000000
00000000
00000000
,
01000000
00000000
00100000
00001000
00000000
00001000
00010000
00000000
00000000
00000000
00000000
00000000
00000000
00000000
00000000
00000000
,
00000010
00000000
00000100
00000001
00000000
00000001
00001000
00000000
00000000
00000000
00000000
00000000
00000000
00000000
00000000
00000000
,
00000100
00000000
00010000
00001000
00000000
00001000
00010000
00000000
00000000
00000000
00000000
00000000
00000000
00000000
00000000
00000000
,
00001000
00000000
01000000
00010000
00000000
00010000
10000000
00000000
00000000
00000000
00000000
00000000
00000000
00000000
00000000
00000000
,
00100000
00000000
01000000
00001000
00000000
00001000
00100000
00000000
00000000
00000000
00000000
00000000
00000000
00000000
00000000
00000000
,
00021000
00000000
00000020
00030030
,
00001020
00000001
00001030
00011000
,
00210000
10000000
00310000
00011000
,
00000100
00000000
00001000
00000000
00000010
00000000
00000100
00000001
00000000
00000000
00000000
00000000
00001000
00000000
00000000
00000000
,
00000010
00010000
00001000
00010000
00000010
00000100
00010000
00000000
,
01000000
00000000
00100000
00000000
10000000
00000000
00010000
10000000
00000000
00000000
00000000
00000000
00000000
00000000
00100000
00000000
,
01000000
00000000
00000000
00010000
00000000
00000000
02020000
00000000
00000000
00000000
00000000
00000000
03030000
00000000
00000000
00000000
,
00100000
00000000
00001000
00000000
00100000
00000000
00001000
00000000
00010000
00000100
00000000
00000100
00000000
00000000
00000000
00000000
,
00001000
00000010
00000100
00000001
00001000
00000001
00000100
00000000
,
00000010
00010000
00001000
00010000
00000010
00000100
00000010
00000000
,
00001000
00000000
00000000
00010000
00000000
00000000
00001000
00000000
00000000
00000000
00000010
00000000
00010000
00000000
00000000
00000000
,
00001000
00000000
01000000
00000000
00100000
10000000
00000000
10000000
00000000
00000000
00000000
00000000
00000000
00000000
00000000
00000000
,
01000000
00010000
01000000
10000000
00100000
01000000
00010000
00000000
,
00100000
00001000
01000000
00100000
00000000
00000000
00000000
00010000
,
00001000
00000000
00000000
00010000
00000000
00000000
01000000
00000000
00000000
00000000
00100000
00000000
01000000
00000000
00000000
00000000
,
00001000
00010000
00001000
00010000
00011000
00000000
00000110
00000000
,
00000100
00000001
00000100
00000001
00000101
00000000
00001010
00000000
,
00010000
00001000
01000000
00000000
00100000
10000000
01000000
00000000
,
00100000
00000000
00000000
00001000
00000000
00000000
00022000
00000000
00000000
00000000
00000000
00000000
00033000
00000000
00000000
00000000
,
00000010
00000000
00000000
00000010
00000000
00000000
00000010
00000000
00000000
00000000
00001000
00000000
00000100
00000000
00001000
00000000
,
00000002
00000000
00000203
00000000
00000320
00000000
00010030
00001000
,
00010000
00000000
00001000
00010000
00001000
00000000
00100000
00010000
,
01000000
00000000
00000000
01000000
00000000
00000000
01000000
00000000
00000000
00000000
00100000
00000000
10000000
00000000
00100000
00000000
,
00000000
01000000
00000000
00010000
00001000
00000000
00010000
01000000
,
00100000
00000000
00000000
00100000
00000000
00000000
00100000
00000000
00000000
00000000
00000000
00000000
00000000
00000000
01000000
00000000
,
00001000
00010000
00000010
00000100
00000010
00000000
00000010
00010000
,
00001000
01000000
00100000
01000000
00000000
00010000
00100000
00001000
,
00000000
00100000
00010000
01000000
00100000
10000000
01000000
01000000
,
00000000
10100000
00000000
01010000
00000000
00011000
00000000
00000000
,
00010000
01000000
00100000
10000000
00100000
01000000
00010000
10000000
,
00200000
02300000
03002000
00013000
,
00000000
00000000
00000010
00000000
00000000
00000010
00000000
00000000
00000010
00000000
00000000
00000000
00000100
00000000
00000001
00000000
,
00001000
00000000
00000000
00001000
00000000
00000000
00001000
00000000
00000000
00000000
00000000
00000000
00000000
00000000
00000100
00000000
,
00000001
00000100
00001000
00000100
00010000
00000000
00001000
00000100
,
00001000
00000000
00000000
00010000
00000000
00000000
01000000
00000000
00000000
00000000
00100000
00000000
10000000
00000000
00010000
00000000
,
10000000
00000000
01000000
00000000
10000000
01000000
00000000
10000000
01000000
00000000
10000000
00000000
01000000
00000000
10000000
00000000
,
01000000
10000000
00000000
01000000
10000000
00000000
01000000
00000000
10000000
00000000
01000000
00000000
10000000
00000000
01000000
00000000
,
00100000
00000000
00001000
00000000
00100000
00001000
00000000
00100000
00001000
00000000
00100000
00000000
00001000
00100000
00000000
00001000
,
00100000
00000000
00001000
00000000
00100000
00001000
00000000
00100000
00000000
00000000
00000000
00000000
00000000
00000000
00000000
00000000
,
00000010
00000000
00000100
00000000
00000010
00000100
00000000
00000010
00000100
00000000
00000010
00000000
00000100
00000010
00000000
00000100
,
00000010
00000000
00000100
00000000
00000010
00000100
00000000
00000010
00000100
00000000
00000010
00000000
00010000
00000100
00000000
00010000
,
00000100
00000000
00010000
00000000
00000100
00000000
00010000
00000000
00000100
00010000
00000000
00000100
00010000
00000000
00000100
00000000
,
00010000
00000000
00000100
00000000
00010000
00001000
00000000
00100000
00000000
00000000
00100000
00000000
00001000
00000000
00010000
00000000
,
00022000
00000000
00000000
00033000
;
