#VERSION:0.83;
#TITLE:Karasu;
#SUBTITLE:;
#ARTIST:L.E.D.-G;
#TITLETRANSLIT:Karasu;
#SUBTITLETRANSLIT:;
#ARTISTTRANSLIT:;
#GENRE:Hardcore;
#ORIGIN:;
#CREDIT:;
#BANNER:karasu-bn.png;
#BACKGROUND:karasu-bg.png;
#PREVIEWVID:;
#JACKET:;
#CDIMAGE:;
#DISCIMAGE:;
#LYRICSPATH:;
#CDTITLE:;
#MUSIC:Karasu.ogg;
#OFFSET:-0.020000;
#SAMPLESTART:35.320000;
#SAMPLELENGTH:12.000000;
#SELECTABLE:YES;
#BPMS:0.000=190.020;
#STOPS:;
#DELAYS:;
#WARPS:;
#TIMESIGNATURES:0.000=4=4;
#TICKCOUNTS:0.000=4;
#COMBOS:0.000=1;
#SPEEDS:0.000=1.000=0.000=0;
#SCROLLS:0.000=1.000;
#FAKES:;
#LABELS:0.000=Song Start;
#BGCHANGES:;
#KEYSOUNDS:;
#ATTACKS:
;

//---------------dance-single - ----------------
#NOTEDATA:;
#CHARTNAME:;
#STEPSTYPE:dance-single;
#DESCRIPTION:;
#CHARTSTYLE:;
#DIFFICULTY:Medium;
#METER:9;
#RADARVALUES:0.682705,0.685281,0.330618,0.180337,0.015028,477.000000,444.000000,33.000000,18.000000,0.000000,0.000000,0.000000,0.000000,0.000000,0.682705,0.685281,0.330618,0.180337,0.015028,477.000000,444.000000,33.000000,18.000000,0.000000,0.000000,0.000000,0.000000,0.000000;
#CREDIT:;
#NOTES:
0000
0000
0000
0000
,
0000
0000
0000
0000
,
0000
0000
0000
0000
,
0000
0000
0000
0000
,
1000
0100
1000
0100
0010
0001
0010
0001
,
0100
0010
1000
0001
0100
0010
0000
0000
,
0001
0010
0001
0010
0100
1000
0100
1000
,
0001
1000
0010
0100
0001
1000
0000
0000
,
1000
0010
0001
0010
1000
0010
0001
0010
,
1000
0001
0100
0010
1000
0001
0000
0000
,
0100
0100
0100
0100
0001
1000
0001
1000
,
1001
0000
0000
0000
0000
0000
0000
0000
0000
0000
0010
0100
0010
0000
0000
0000
,
0100
0000
0100
1100
0000
0000
0100
0000
,
0100
0000
0100
0101
0000
0000
1001
0000
,
0010
0100
0010
0001
0010
0100
0010
1000
,
0010
0001
0010
0001
0010
0010
0010
0000
,
0010
0000
0010
1010
0000
0000
0010
0010
,
0010
0000
0010
0011
0000
0000
0001
0001
,
1000
0010
0001
0010
1000
0100
0001
0100
,
1000
0000
0010
0000
0001
0000
0010
0000
1000
0000
1000
0001
1000
0000
1000
0000
,
0001
0000
0001
0101
0000
0000
0100
0000
,
0100
0110
0000
0110
0010
0000
1001
0000
,
0100
1000
0100
0010
0100
0001
0100
0100
,
0100
0000
0001
0000
0100
0000
1000
0000
0100
0000
0100
0010
0100
0000
0000
0000
,
1000
0000
1000
1010
0000
0000
0010
0000
,
0010
0000
0010
0011
0000
0000
2001
0000
,
0010
3020
0000
0100
0130
0000
0001
1000
,
0001
0000
0200
0000
,
0302
0000
0010
0023
0000
1000
2030
0000
,
3010
0010
0001
1000
0010
1000
0010
0010
,
2000
0000
0100
3200
0000
0001
0302
0000
,
0103
1000
0010
0100
0001
1000
0001
1000
,
0002
0000
0010
0020
0003
1000
2030
0000
,
3010
0001
0100
0010
1000
0100
1000
0100
,
0020
0000
0100
0230
0000
1300
2000
0000
,
3100
0000
0100
0001
0000
0001
2000
0000
,
3020
0000
0130
1000
0100
1000
0100
0001
,
0100
0001
1000
0010
0100
0001
0100
0010
,
0100
0001
0100
0001
0100
1000
0100
1000
,
0100
0001
1000
0010
1000
0001
0100
0100
,
0010
0001
0010
0001
0010
1000
0010
1000
,
0010
0001
0100
0010
1000
0010
0100
0001
,
1000
0001
1000
0001
1000
1000
0001
0001
,
1001
0000
0010
0110
0000
0000
1001
0000
,
1000
0100
0000
0001
0100
0000
1000
0100
,
0001
0100
1000
0000
0100
0001
0100
0100
,
0100
1000
0000
0100
0001
0000
0100
1000
,
0100
0001
1000
0010
0100
0001
1000
1000
,
0010
1000
0000
0010
0001
0000
0010
1000
,
0010
0001
0000
0010
1000
0000
0010
0010
,
0001
0010
1000
0001
0100
0010
1000
0000
,
1001
0000
0110
0000
0010
0100
0010
0100
,
0001
0011
0000
0001
0101
0000
0001
1001
,
0000
0000
0000
0000
,
1000
1100
0000
1000
1010
0000
1000
1001
,
0000
0000
0000
0000
,
0010
1010
0000
0010
0110
0000
0010
0011
,
0000
0000
0000
0000
,
0100
0101
0000
0100
0110
0000
0100
1100
,
0000
0000
0000
0000
,
0001
0010
0001
0100
1000
0100
0001
0010
,
0001
0100
1000
0100
0001
1000
0001
0000
,
1000
0100
1000
0010
0001
0010
1000
1000
,
1000
0010
0001
0010
1000
0001
1000
0000
,
0010
0100
0010
1000
0100
0001
0100
1000
,
0010
0100
0010
1000
0100
0001
0100
1000
,
1001
0000
0010
0110
0000
0000
0101
0000
,
0001
0001
0001
0001
1000
0001
0100
0100
,
0010
0000
1000
0100
0010
0001
1000
0001
,
0100
0010
1000
0001
1000
0100
0010
0010
,
0100
1000
0100
1000
0010
0100
0001
0001
,
0010
0100
0010
0100
0010
0001
1000
0010
,
0100
0000
0001
1000
0000
0100
0000
0000
,
0010
0000
0001
0100
0000
0001
0010
0010
,
0010
0100
0010
0100
1000
0001
1000
0100
,
0010
0001
0010
0001
0010
0001
0200
0000
,
1300
0000
0000
0000
;

//---------------dance-single - ----------------
#NOTEDATA:;
#CHARTNAME:;
#STEPSTYPE:dance-single;
#DESCRIPTION:;
#CHARTSTYLE:;
#DIFFICULTY:Hard;
#METER:10;
#RADARVALUES:0.851592,0.989851,0.631180,0.090169,0.360674,595.000000,532.000000,63.000000,9.000000,0.000000,0.000000,0.000000,0.000000,0.000000,0.851592,0.989851,0.631180,0.090169,0.360674,595.000000,532.000000,63.000000,9.000000,0.000000,0.000000,0.000000,0.000000,0.000000;
#CREDIT:;
#NOTES:
0000
0000
0000
0000
,
0000
0000
0000
0000
,
0000
0000
0000
0000
,
0000
0000
0000
0000
,
1000
0100
0010
0010
0100
1000
0001
0001
,
0100
0001
0100
0001
0100
1000
0000
0000
,
0001
0010
0100
0100
0010
0001
1000
1000
,
0010
0001
0010
0001
0010
1000
0000
0000
,
0001
0100
0001
0000
1000
0100
1000
0000
0001
0000
0100
0000
1000
0000
0100
0000
,
0001
1000
0001
0000
1000
0001
1000
0000
0010
0000
0100
0000
0000
0000
0000
0000
,
0100
0000
0100
0000
0010
0000
0010
0000
0001
1000
0001
1000
0001
1000
0001
1000
,
0020
0000
0000
0000
0000
0000
0000
0000
0000
0000
0130
0001
1000
0000
0000
0000
,
1100
0000
0100
0101
0000
0000
1100
0000
,
0100
0001
0000
1001
0000
0000
0110
0000
,
0001
0100
0001
0000
1000
0000
0010
0000
1000
0100
1000
0000
0001
0000
0010
0000
,
0001
0100
0001
0000
1000
0000
0100
0000
1000
0001
1000
0001
1000
0000
0000
0000
,
0011
0000
0010
1010
0000
0000
0011
0010
,
1000
0000
0000
0110
0000
0000
0101
0001
,
0010
1000
0010
0000
0100
0000
0001
0000
0010
0001
0010
0000
0100
0000
1000
0000
,
0001
1000
0001
0000
1000
0000
0010
0000
0100
0000
0010
1000
0001
0000
0001
0000
,
0101
0000
1000
1100
0000
0000
1100
0000
,
1001
0000
0101
0000
0000
0000
0101
0000
1001
0000
0000
0000
0010
0100
0001
0000
,
0010
0100
0010
0100
1000
0001
1000
1000
,
0001
0000
0100
0000
0001
0000
0100
0000
0010
0000
0010
0001
0010
0000
0000
0000
,
1100
0000
1100
0110
0000
0000
1001
0000
,
0101
0000
0101
0110
0000
0000
1001
0001
,
0100
0000
0101
0000
0000
0000
1000
0000
1100
0000
0000
0000
0010
0100
0010
0100
,
0020
0000
0000
0000
0200
0000
0000
0330
,
0001
0100
0001
0100
1000
0100
1000
0100
,
0001
0000
0100
0000
1000
0000
0100
0000
0001
0000
1000
0000
1000
0001
1000
0001
,
1000
0100
1000
0100
0001
0100
0001
0100
,
1000
0000
0100
0000
0001
0000
0100
0000
1000
0000
0001
1000
0001
1000
0001
1000
,
0001
0010
0001
0010
1000
0010
1000
0010
,
0001
0000
0010
0000
1000
0000
0010
0000
0001
0000
1000
0000
1000
0001
1000
0001
,
1000
0010
1000
0010
0001
0010
0001
0010
,
1000
0000
1001
1000
0000
1001
0001
0000
,
0200
0320
1030
0001
1000
0001
1000
0100
,
0010
0100
1000
0001
0010
0010
1000
1000
,
0010
0001
0010
0001
0010
0100
0010
0001
,
1000
0000
0100
0000
0001
0000
0100
0000
1000
0000
0010
0000
0100
0001
0100
0001
,
0100
0010
0100
0010
1000
0100
0010
0100
,
1000
0001
1000
0001
0100
0100
0010
0010
,
0001
0000
0010
0000
1000
0000
0010
0000
0001
0000
0010
1000
0001
0000
1000
0001
,
0100
0000
1100
1000
0000
0101
0001
0000
,
0100
0000
0001
0000
0000
0000
0001
0000
1000
0000
0000
0000
0010
0100
0010
0000
,
1100
0000
0110
0000
0000
0000
0101
0000
0110
0000
0000
0000
0100
0001
0100
0001
,
0100
0000
0001
0000
0000
0000
0001
0000
0010
0000
0000
0000
0100
1000
0100
0000
,
1100
0000
1001
0000
0010
0100
0010
0100
0010
0000
0001
1000
0001
1000
0001
0000
,
0010
0000
0100
0000
0000
0000
0100
0000
1000
0000
0000
0000
1000
0001
1000
0000
,
0011
0000
1001
0000
0000
0000
1010
0000
1001
0000
0000
0000
0010
0000
0010
0100
,
0010
1000
0010
1000
0010
0000
1000
0000
0001
0000
0000
0000
0100
0001
0100
0000
,
0011
0000
0000
0000
0110
0000
0000
0000
0100
0000
0100
0000
0100
1000
0100
1000
,
0100
1100
0000
0100
0110
0000
0100
0101
,
0000
0000
0000
0000
,
0001
0101
0000
0001
0011
0000
0001
1001
,
0000
0000
0000
0000
,
0010
1010
0000
0010
0110
0000
0010
0011
,
0000
0000
0000
0000
,
1000
0000
1010
0000
0000
0000
1000
0000
1001
0000
0000
0000
1000
0000
1000
0100
,
1000
0000
0000
0200
,
0310
1000
0010
1000
0010
1000
0010
0100
,
0001
0000
0010
0000
0001
0000
0010
0000
0100
0000
1000
0000
0100
1000
0100
0010
,
0001
0100
0001
0100
0001
0100
0010
0010
,
0010
0000
0100
0000
0010
0000
0100
0000
1000
0000
1000
0000
1000
0100
0010
0001
,
0100
0010
0100
0010
1000
0001
1000
1000
,
0100
0000
0001
0000
0100
0000
0001
0000
0100
0000
1000
0000
0100
1000
0010
0100
,
0001
0011
0000
0010
1010
0000
0011
1001
,
1000
0100
1000
0100
0010
0001
0010
0001
0100
0000
0100
0001
1000
0010
1000
0100
,
0002
0103
1000
1000
0010
0100
0100
0001
,
0010
0000
0010
0000
0100
0000
1000
0000
0100
0000
1000
0000
0100
0010
0100
0010
,
0001
0001
0100
0010
0010
1000
0100
0100
,
0010
0000
0001
0000
0010
0000
0001
0000
0010
0000
0100
1000
0010
0100
0001
1000
,
0010
0000
0000
0000
1000
0000
0001
1000
0000
0000
0110
0000
0000
0000
0000
0000
,
0010
0000
0000
0000
0100
0000
0001
1000
0000
0000
1001
0000
0010
0100
0010
0100
,
0010
0100
0000
1001
1001
0000
0010
0100
,
0001
0000
0001
0000
0001
0000
0001
0000
0100
0000
0100
0002
2000
0000
0000
3003
,
0110
0000
0000
0000
;

//---------------dance-single - ----------------
#NOTEDATA:;
#CHARTNAME:;
#STEPSTYPE:dance-single;
#DESCRIPTION:;
#CHARTSTYLE:;
#DIFFICULTY:Challenge;
#METER:10;
#RADARVALUES:0.933174,1.027922,0.400749,0.130244,0.581087,652.000000,612.000000,40.000000,13.000000,0.000000,0.000000,0.000000,0.000000,0.000000,0.933174,1.027922,0.400749,0.130244,0.581087,652.000000,612.000000,40.000000,13.000000,0.000000,0.000000,0.000000,0.000000,0.000000;
#CREDIT:;
#NOTES:
// measure 0
0000
0000
0000
0000
,  // measure 1
0000
0000
0000
0000
,  // measure 2
0000
0000
0000
0000
,  // measure 3
0000
0000
0000
0000
,  // measure 4
1000
1000
0100
0001
0100
0100
1000
0010
,  // measure 5
0100
0001
0100
1000
0100
0101
0000
0000
,  // measure 6
0001
0001
0010
1000
0010
0010
0001
0100
,  // measure 7
0010
1000
0010
0001
0010
1010
0000
0000
,  // measure 8
0010
0001
0010
0100
1000
0100
1000
0001
,  // measure 9
1000
0010
0100
0010
1000
1010
0000
0000
,  // measure 10
1000
0000
1000
0000
1000
0000
1000
0000
1000
0100
0010
0001
0010
0100
1000
0001
,  // measure 11
0200
0000
0000
0000
0000
0000
0000
0000
0300
0000
0010
0100
0010
0000
0000
0000
,  // measure 12
1100
0000
0000
0000
0100
1000
0100
0000
0000
0000
0000
0000
0101
0000
0000
0000
,  // measure 13
1010
0000
0000
0000
0100
0001
0100
0000
0000
0000
0000
0000
0120
0000
0000
0000
,  // measure 14
1030
0100
0010
0001
0001
0100
0010
1000
,  // measure 15
0001
0000
1000
0000
0001
0000
1000
0000
0010
0100
0010
0000
0110
0000
0000
0000
,  // measure 16
0011
0000
0000
0000
0010
0001
0010
0000
0000
0000
0000
0000
1000
0010
1000
0000
,  // measure 17
1010
0000
0000
0000
1000
0010
1000
0000
0000
0000
0000
0000
0001
1000
0001
1000
,  // measure 18
0001
0010
0100
1000
1000
0010
0100
0001
,  // measure 19
0100
0000
0010
0000
0100
0000
0010
0000
1000
0000
0010
0100
0001
0000
0001
0000
,  // measure 20
0101
0000
0101
1001
0000
0000
0110
0000
,  // measure 21
0010
0010
0000
0010
1001
0010
1001
0001
,  // measure 22
0100
0010
0100
0010
1000
0010
1000
1000
,  // measure 23
1100
0000
0000
0000
0011
0000
0000
0000
0001
0000
0100
1000
0100
0000
0000
0000
,  // measure 24
0011
0000
0110
1100
0000
0000
0010
0000
,  // measure 25
1100
0000
0110
0011
0000
0000
1001
0000
,  // measure 26
0110
0000
0100
0000
0000
0000
0010
0100
0010
0000
0000
0000
1000
0001
0100
0010
,  // measure 27
2000
0000
0000
0000
0000
0000
0000
0000
3010
0100
0010
0000
1000
0001
1000
0000
,  // measure 28
0011
0010
0001
0010
0100
0010
0100
0010
,  // measure 29
0001
0000
0100
0000
0010
0000
1000
0000
0010
0000
0100
0000
0001
0100
0010
1000
,  // measure 30
0100
0010
0100
0010
0100
1000
0100
1000
,  // measure 31
0010
0000
0100
0000
0001
0000
0010
0000
0001
0000
1000
0010
1000
0100
0010
0001
,  // measure 32
0100
0010
0100
0010
0001
0010
0001
0010
,  // measure 33
1000
0000
0100
0000
0001
0000
0100
0000
1000
0000
1000
0000
0001
0100
0010
1000
,  // measure 34
0100
0001
0100
1000
0100
0001
0100
1000
,  // measure 35
1010
0000
0000
0000
0010
0100
0001
0000
0000
0000
0010
0100
1000
0000
0001
1000
,  // measure 36
0001
0110
1000
0100
0010
0001
1000
0100
,  // measure 37
0010
0000
0001
0000
1000
0000
0100
0000
0010
0001
0010
0001
0100
0001
0100
0001
,  // measure 38
0100
0010
1000
0001
0100
0010
1000
0001
,  // measure 39
0100
0000
0010
0000
1000
0000
0001
0000
1000
0000
0001
0000
1000
0100
1000
0100
,  // measure 40
0010
0001
1000
0100
0010
0001
1000
0100
,  // measure 41
0010
0000
0001
0000
1000
0000
0100
0000
0010
0100
0010
0100
1000
0100
1000
0100
,  // measure 42
1000
0000
1000
0000
0001
0000
0001
0000
0100
0000
0010
0100
0001
0000
0100
1000
,  // measure 43
0100
0000
0000
0000
0001
0100
0010
0000
0000
0000
0100
0010
1000
0000
0000
0000
,  // measure 44
1100
0000
2100
0000
0000
0000
0010
0000
3010
0000
0000
0000
0100
0001
0100
0000
,  // measure 45
0001
0000
0102
0000
0000
0000
0010
0000
1003
0000
0000
0000
0010
0100
0010
0100
,  // measure 46
0010
0000
2001
0000
0000
0000
0010
0000
3010
0000
0000
0000
0100
1000
0001
0000
,  // measure 47
0011
0000
0011
0000
0100
1000
0100
1000
0100
0000
0010
0001
0010
0000
0001
0100
,  // measure 48
0010
0210
0000
1000
1300
0000
1000
0100
,  // measure 49
0010
0000
0120
0000
0000
0000
0001
0000
0031
0000
0000
0000
0010
1000
0010
1000
,  // measure 50
0010
0100
0001
1000
0010
0100
0001
1000
0010
0000
0100
0001
0100
0000
0010
1000
,  // measure 51
0010
0000
1000
0100
0010
0000
0010
0000
0010
0000
0100
1000
0100
1000
0100
1000
,  // measure 52
0010
0100
0001
0010
0001
1000
0100
0001
,  // measure 53
0100
0000
1000
0000
0010
0000
0100
0000
0001
0000
0100
0000
0010
1000
0001
0100
,  // measure 54
0001
0010
0100
0001
0100
1000
0010
0100
,  // measure 55
0010
0000
1000
0000
0001
0000
0100
0000
0010
0000
1000
0000
0100
1000
0010
0100
,  // measure 56
0010
1000
0100
0001
0100
1000
0010
0100
,  // measure 57
1000
0000
0100
0000
0001
0000
1000
0000
0010
0100
0010
0100
0010
0000
1000
0000
,  // measure 58
0100
0000
0001
0000
0100
0000
1000
0000
0010
0000
0001
0000
0010
0000
1000
0001
,  // measure 59
2000
0000
0010
3020
0000
0100
0130
0001
,  // measure 60
0010
0000
0000
0000
0010
0001
0010
0000
0000
0000
0001
0010
0001
0000
0000
0000
,  // measure 61
0100
1000
0100
0000
0000
0000
1000
0100
1000
0000
0010
0000
0100
0001
0100
0001
,  // measure 62
0100
0000
0010
0000
0100
0001
1000
0000
0010
1000
0001
0000
0100
0001
0100
0001
,  // measure 63
1000
0000
0100
0000
1000
0000
0100
0000
0010
0000
0010
0100
1000
0001
0010
0100
,  // measure 64
0010
0000
0000
0000
0010
0100
0010
0000
0000
0000
0100
0010
0100
0000
1000
0000
,  // measure 65
0001
1000
0001
0000
0100
0000
1000
0000
0100
0000
0001
0000
1000
0010
0100
0001
,  // measure 66
0010
0000
0100
1100
0000
1000
1001
0000
,  // measure 67
0010
0000
0010
0000
0010
0000
0010
0000
0100
0000
0100
0000
1000
0001
0100
0010
,  // measure 68
2000
0000
3200
0000
0310
0000
0001
1000
0000
0000
0001
1000
0010
0000
0000
0000
,  // measure 69
0010
1000
0001
0000
0010
0000
0100
0000
1000
0000
0100
0000
1000
0010
0100
0001
,  // measure 70
1000
0000
0100
0000
0010
0001
0010
0000
0001
0010
0001
0000
1000
0000
1000
0000
,  // measure 71
0001
1000
0001
1000
0001
0000
1000
0000
0010
0000
0010
0100
0001
1000
0010
1000
,  // measure 72
0100
0000
0010
0000
0100
1000
0000
1000
0100
0000
0001
1000
0000
1000
0001
0010
,  // measure 73
0100
0000
1000
0000
0100
0010
0000
0010
0001
0000
1000
0000
0010
0100
0010
0100
,  // measure 74
0010
1000
0010
0000
0000
0000
0100
0001
0100
0000
0000
0000
1100
0000
0010
0000
,  // measure 75
0001
0000
0001
0000
0001
0000
0001
0000
0100
1000
0100
1000
0200
0000
0000
0000
,  // measure 76
0301
0000
0000
0000
;

//---------------dance-single - ----------------
#NOTEDATA:;
#CHARTNAME:;
#STEPSTYPE:dance-single;
#DESCRIPTION:;
#CHARTSTYLE:;
#DIFFICULTY:Easy;
#METER:8;
#RADARVALUES:0.625455,0.685281,0.370693,0.150281,0.000000,437.000000,400.000000,37.000000,15.000000,0.000000,0.000000,0.000000,0.000000,0.000000,0.625455,0.685281,0.370693,0.150281,0.000000,437.000000,400.000000,37.000000,15.000000,0.000000,0.000000,0.000000,0.000000,0.000000;
#CREDIT:;
#NOTES:
0000
0000
0000
0000
,
0000
0000
0000
0000
,
0000
0000
0000
0000
,
0000
0000
0000
0000
,
1000
0100
0010
0000
0010
0100
1000
0000
,
1000
0100
0001
0100
1000
0100
0000
0000
,
0001
0010
0100
0000
0100
0010
0001
0000
,
0001
0100
1000
0100
0001
0100
0000
0000
,
0010
0100
0001
0000
0001
0100
0010
0000
,
0010
0001
0010
1000
0010
0001
0000
0000
,
0010
0010
0010
1001
,
1100
0000
0000
0000
0000
0010
0001
0000
,
0201
0000
0000
1300
0000
0000
0100
0000
,
0201
0000
0000
1300
0000
0000
1001
0000
,
0010
1000
0100
1000
0010
0100
0001
0100
,
0010
1000
0100
1000
0010
0010
0010
0000
,
1200
0000
0000
0301
0000
0000
0100
1000
,
1200
0000
0000
0301
0000
0000
1000
0001
,
0100
0001
0010
0001
0100
0010
1000
0010
,
0100
0001
0010
0001
0100
0100
0010
0010
,
1020
0000
0000
0031
0000
0000
0010
0000
,
1000
0020
0000
0031
0020
0000
1030
0000
,
0001
0100
0010
1000
0010
0100
0001
0001
,
1000
0100
0010
0001
0010
0100
1000
0000
,
1020
0000
0030
0201
0000
0300
0011
0000
,
1200
0000
0300
0201
0000
0000
1300
0000
,
1000
0200
0000
0301
0200
0000
1300
0001
,
1000
0000
0000
0000
0010
0100
0001
0000
,
0001
0000
0001
0010
0000
0010
0100
0000
,
0100
0001
0000
0001
0100
1000
0001
0000
,
1000
0000
1000
0100
0000
0100
0010
0000
,
0010
1000
0000
1000
0010
0001
1000
0000
,
0100
0000
0100
0010
0000
0010
0001
0000
,
0001
0010
0000
0010
1000
0001
0100
0000
,
0010
0000
0010
0001
0000
0001
0010
0000
,
0010
1000
0000
0001
0100
0000
0010
1000
,
0100
0100
0010
0001
0100
0001
0010
0001
,
0100
0010
1000
0010
0100
0001
0100
0001
,
1000
0100
0010
0100
1000
0100
0010
0100
,
1000
0001
0010
0001
1000
0001
0010
0000
,
0100
1000
0001
1000
0100
1000
0001
1000
,
0100
0010
0001
0010
0100
1000
0100
1000
,
0001
0001
0001
0110
,
1000
0000
0000
0110
0000
0000
1001
0000
,
1000
0100
0000
1000
0100
0000
0001
0100
,
1000
0100
0000
1000
0100
0000
0001
0001
,
0100
1000
0000
0100
1000
0000
0010
0100
,
0001
0001
1000
1000
1000
1000
1000
0000
,
0001
0010
0000
0001
0010
0000
1000
0010
,
0001
0010
0000
0001
0010
0000
1000
1000
,
0010
0001
0010
1000
0001
0100
0010
1000
,
0100
0100
1001
0110
,
0100
0101
0000
0100
0101
0000
0100
0101
,
0000
0000
0000
0000
,
0010
1010
0000
0010
1010
0000
0010
1010
,
0000
0000
0000
0000
,
1000
1001
0000
1000
1001
0000
1000
1001
,
0000
0000
0000
0000
,
0010
0011
0000
0010
0011
0000
0010
0011
,
0000
0000
0000
0001
,
1000
0100
0010
0001
0000
0100
1000
0000
,
0100
0001
0000
1001
0000
0010
1000
0100
,
0001
0100
1000
0010
0000
0100
1000
1000
,
0100
0001
0010
0001
0010
1000
0010
0001
,
0100
0010
0001
0010
0000
1000
0010
0000
,
0100
1000
0000
0100
0001
1000
0010
1000
,
1100
0000
0010
0011
0000
0000
1001
0000
,
0010
0010
0010
0010
0001
1000
0002
0000
,
0203
0000
0310
1000
0000
0010
0001
0000
,
0010
1000
0100
0010
0001
0100
0001
1000
,
0100
0001
0100
1000
0100
1000
0100
0100
,
0001
0100
1000
0010
0100
0001
1000
0000
,
0010
0000
1000
0001
0000
0101
0000
0000
,
0100
0000
0001
1000
0000
0010
0100
0100
,
0100
0000
0001
1000
0000
0000
0110
0000
,
0100
0001
0100
0001
0100
1000
0100
0000
,
0101
0000
0000
0000
;

//---------------dance-single - ----------------
#NOTEDATA:;
#CHARTNAME:;
#STEPSTYPE:dance-single;
#DESCRIPTION:;
#CHARTSTYLE:;
#DIFFICULTY:Beginner;
#METER:3;
#RADARVALUES:0.259056,0.380712,0.260487,0.100187,0.000000,181.000000,155.000000,26.000000,10.000000,0.000000,0.000000,0.000000,0.000000,0.000000,0.259056,0.380712,0.260487,0.100187,0.000000,181.000000,155.000000,26.000000,10.000000,0.000000,0.000000,0.000000,0.000000,0.000000;
#CREDIT:;
#NOTES:
0000
0000
0000
0000
,
0000
0000
0000
0000
,
0000
0000
0000
0000
,
0000
0000
0000
0000
,
0100
0100
0100
0100
,
0100
0100
0100
0000
,
0001
0001
0001
0001
,
0001
0001
0001
0000
,
0010
0010
0010
0010
,
0010
0010
0010
0000
,
1000
0000
0001
0001
,
0001
0000
0000
0110
,
0110
0000
0000
1001
,
1001
0000
0000
0001
,
0001
0000
0100
0000
,
1000
0000
0000
1001
,
1001
0000
0000
0110
,
0110
0000
0000
1001
,
1001
0000
0100
0000
,
0001
0000
0100
0000
,
0110
0000
0000
1001
,
1001
0000
0110
0000
,
0010
0010
0000
1000
,
1000
0000
0000
0000
,
1001
0000
0000
0110
,
0110
0000
0000
1001
,
1001
0000
0110
0000
,
1001
0000
0000
0000
,
0001
0001
0000
0010
,
0010
0000
0000
1000
,
1000
1000
0000
0010
,
0010
0000
0000
0001
,
0001
0001
0000
0100
,
0100
0000
0000
1000
,
1000
1000
0000
0100
,
0100
0000
0000
0000
,
0000
0001
0000
0001
,
0000
0010
0000
0010
,
0010
0010
0000
1000
,
0000
1000
0000
0010
,
0010
0010
0000
0001
,
0000
0001
0000
0010
,
0010
0000
0000
0000
,
0001
0000
0000
0000
,
1000
0000
0100
0000
,
1000
0000
0000
0000
,
0001
0000
0010
0000
,
0001
0000
0000
0000
,
0100
0000
0010
0000
,
0100
0000
0000
0000
,
0001
0000
1000
0000
,
0001
0000
0000
0000
,
0220
0000
0000
0330
,
0000
0000
0000
0000
,
2002
0000
0000
3003
,
0000
0000
0000
0000
,
0220
0000
0000
0330
,
0000
0000
0000
0000
,
2002
0000
3003
0000
,
0010
0000
0000
0000
,
0001
0001
0001
0001
,
0001
0001
0001
0000
,
1000
1000
1000
1000
,
1000
1000
1000
0000
,
0010
0010
0010
0010
,
0010
0010
0010
0000
,
0100
0000
0000
0001
,
0001
0000
0000
0000
,
0000
1000
1000
1000
,
1000
1000
1000
0000
,
0100
0100
0100
0100
,
0100
0100
0100
0000
,
0020
0000
0030
0000
,
0002
0003
0000
1000
,
1000
0000
0000
0010
,
0010
0010
0010
0000
,
1001
0000
0000
0000
;

//---------------dance-double - ----------------
#NOTEDATA:;
#CHARTNAME:;
#STEPSTYPE:dance-double;
#DESCRIPTION:;
#CHARTSTYLE:;
#DIFFICULTY:Easy;
#METER:8;
#RADARVALUES:0.619730,0.685281,0.561049,0.130244,0.005009,433.000000,377.000000,56.000000,13.000000,0.000000,0.000000,0.000000,0.000000,0.000000,0.619730,0.685281,0.561049,0.130244,0.005009,433.000000,377.000000,56.000000,13.000000,0.000000,0.000000,0.000000,0.000000,0.000000;
#CREDIT:;
#NOTES:
00000000
00000000
00000000
00000000
,
00000000
00000000
00000000
00000000
,
00000000
00000000
00000000
00000000
,
00000000
00000000
00000000
00000000
,
00010000
00001000
00000100
00000000
00000100
00001000
00010000
00000000
,
00001000
00100000
00010000
01000000
00100000
00010000
00000000
00000000
,
00001000
00000010
00001000
00000000
00010000
00100000
00010000
00000000
,
00001000
00010000
00000100
00000010
00000001
00001000
00000000
00000000
,
00000100
00001000
00010000
00000000
00010000
00001000
00000100
00000000
,
00010000
00001000
01000000
00010000
10000000
01000000
00000000
00000000
,
00100000
00100000
00100000
00100000
00001000
00010000
00001000
00010000
,
00000020
00000000
00000000
00000000
00000030
00000000
00000000
00000000
00000000
00000000
00000100
00000010
00000100
00000000
00000000
00000000
,
00000012
00000000
00000000
00001003
00000000
00000000
00001100
00000000
,
00020100
00000000
00000000
00031000
00000000
00000000
00100000
00000000
,
00010000
00010000
11000000
01010000
,
00001000
00000000
00001000
00000000
00010000
00010000
00010010
00000000
,
00012000
00000000
00000000
01003000
00000000
00000000
00010000
00010000
,
10020000
00000000
00000000
01030000
00000000
00000000
00100000
00100000
,
00110000
00011000
00000100
00001000
,
00000011
00000000
00001100
00000000
00010000
00100000
01000000
01000000
,
12000000
00000000
00000000
03100000
00000000
00000000
00011000
00000000
,
00000100
00000100
00000000
00000010
00000010
00000000
00000001
00000000
,
00000101
00000000
00001100
00000000
00010000
00000000
00001000
00001000
,
01001000
00000000
11000000
00000000
00100000
01000000
00010000
00000000
,
00201000
00000000
00000000
00310000
00000000
00000000
00011000
00000000
,
00001020
00000000
00000000
00000130
00000000
00000000
00000100
00000000
,
00000001
00000001
00000000
00001000
00001000
00000000
00000100
00001000
,
00010000
00000000
00000000
00000000
,
00001000
00000000
00000100
00010000
00000000
00010000
00001000
00000000
,
00010000
01000000
00010000
01000000
00010000
00000000
10000000
00000000
,
00100000
00000000
00100000
10000000
00000000
10000000
00010000
00000000
,
00100000
00001000
00100000
00001000
00010000
00010000
00000100
00000100
,
00001000
00000000
00001000
00000010
00000000
00000010
00000001
00000000
,
00000010
00001000
00000010
00001000
00000100
00000000
00010000
00000000
,
00001000
00000000
00001000
01000000
00000000
01000000
10000000
00000000
,
01000000
00000000
00010000
00010000
00000000
00001000
00001000
00000000
,
00010000
00001000
00010000
00000000
00010000
00000000
00000110
00000000
,
00000101
00000000
00000010
00001000
00000001
00001000
00000100
00001000
,
00000100
00000100
00011000
00110000
,
01000000
10000000
01000000
10000000
00100000
01000000
00010000
00100000
,
00110000
00000000
00101000
00000000
00001000
00010000
00001000
00000000
,
00011000
00000000
00010100
00000000
00000100
00001000
00000100
00001000
,
00000010
00000100
00000010
00000100
00000001
00001000
00000001
00000010
,
00000022
00000000
00000033
00002200
00000000
00003300
00011000
00000000
,
00100000
00100000
00000000
00100000
00100000
00000000
01000000
10000000
,
00010000
00100000
00100000
00000000
00100000
00100000
00001000
00001000
,
00010000
00010000
00000000
00010000
00010000
00000000
00000100
00001000
,
00010000
00010000
00010000
00001000
00000010
00000100
00000010
00000100
,
00000010
00000010
00000000
00000010
00000010
00000000
00001000
00000001
,
00000100
00000001
00000001
00000000
00000001
00000001
00000100
00000000
,
00000010
00010000
00000010
00010000
00000010
00010000
00000010
00000000
,
00011000
00000000
00110000
00000000
01000000
01000000
10000000
00100000
,
01000000
01010000
00000000
01000000
01010000
00000000
01000000
01010000
,
00000000
00000000
00000000
00000000
,
00000001
00000011
00000000
00000001
00000011
00000000
00000001
00000011
,
00000000
00000000
00000000
00000000
,
10000000
10100000
00000000
10000000
10100000
00000000
10000000
10100000
,
00000000
00000000
00000000
00000000
,
00000001
00000101
00000000
00000001
00000101
00000000
00000001
00000101
,
00000000
00000000
00000000
00000000
00000000
00000000
00000100
00010000
,
00001000
01000000
00001000
01000000
00000000
00100000
00100000
00000000
,
10000000
10000000
00000000
01010000
00000000
00100000
00001000
00010000
,
00000010
00000010
00000100
00000100
00000000
00001010
00000010
00000010
,
00000100
00000001
00000100
00000001
00000000
00001000
00001000
00001000
,
00000010
00010000
00000010
00010000
00000000
00001000
00001000
00000000
,
00100000
00100000
00000000
01010000
00000000
10000000
00100000
01000000
,
01010000
00000000
00001000
00011000
00000000
00000000
00000010
00000000
,
00000010
00000010
00000010
00000010
00000010
00000000
00001001
00000000
,
00000020
00000000
00001030
00001000
00000000
00010000
00010000
00000000
,
00001000
00001000
00000000
00000010
00000001
00000010
00001000
00001000
,
00010000
00100000
00010000
00100000
00000000
10000000
00010000
10000000
,
00010000
01000000
00000000
11000000
00000000
01000000
00010000
01000000
,
00010000
00000000
00100000
00001000
00000000
00101000
00000000
00000000
,
00010000
00000000
00000100
00001000
00000000
00000010
00000010
00000010
,
00000100
00000001
00000000
00000001
00001000
00000000
00001100
00000000
,
00010000
00001000
01000000
10000000
01000000
00001000
00010000
00000000
,
00011000
00000000
00000000
00000000
;

//---------------dance-double - ----------------
#NOTEDATA:;
#CHARTNAME:;
#STEPSTYPE:dance-double;
#DESCRIPTION:;
#CHARTSTYLE:;
#DIFFICULTY:Medium;
#METER:9;
#RADARVALUES:0.649786,0.685281,0.571068,0.090169,0.000000,454.000000,397.000000,57.000000,9.000000,0.000000,0.000000,0.000000,0.000000,0.000000,0.649786,0.685281,0.571068,0.090169,0.000000,454.000000,397.000000,57.000000,9.000000,0.000000,0.000000,0.000000,0.000000,0.000000;
#CREDIT:;
#NOTES:
00000000
00000000
00000000
00000000
,
00000000
00000000
00000000
00000000
,
00000000
00000000
00000000
00000000
,
00000000
00000000
00000000
00000000
,
10000000
01000000
00010000
00000000
00001000
00000010
00000001
00000010
,
00001000
01000000
10000000
01000000
00010000
00001000
00000000
00000000
,
00000001
00000100
00001000
00000000
00010000
00100000
10000000
00100000
,
00010000
00001000
00000100
00000001
00000100
00001000
00000000
00000000
,
01000000
10000000
01000000
00000000
00010000
00100000
00010000
00000000
,
00000100
00010000
00000100
00000010
00000001
00000010
00000000
00001000
,
00000100
00000100
00000100
00000100
00010000
00001000
00010000
00001000
,
00011000
00000000
00000000
00000000
00000000
10000000
10000000
00000000
,
00110000
00000000
00000000
00011000
00000000
00000000
00000010
00000000
,
00000101
00000000
00000000
00010010
00000000
00000000
00001000
00000000
,
00010000
01000000
10000000
00000000
01000000
00010000
00001000
00000000
,
00000001
00000010
00001000
00010000
00100000
10000000
10000000
00000000
,
11000000
00000000
00000000
00110000
00000000
00000000
00001000
00001000
,
00001100
00000000
00000000
00000101
00000000
00000000
00000010
00000010
,
00001000
00010000
00100000
00000000
10000000
01000000
00010000
00000000
,
00001000
00000100
00000001
00000100
00000000
00001000
00010000
00010000
,
01010000
00000000
00000000
11000000
00000000
00000000
00010000
00000000
,
00011000
00001000
00000000
00000010
00001010
00000000
00000101
00000000
,
00000010
00001000
00000100
00010000
00001000
01000000
10000000
01000000
,
01000000
00001000
00010000
00000100
00001000
00000010
00000010
00000000
,
00000011
00000000
00000000
00001010
00000000
00000000
00010000
00000000
,
00110000
00000000
00000000
10100000
00000000
00000000
10000000
00000000
,
00010000
00100000
00000000
00100000
01000000
00000000
00010000
00001000
,
00000100
00000000
00000000
00000000
,
11000000
00000000
00100000
01000000
00000000
01000000
00010000
00000000
,
00100000
00001000
00100000
00001000
00010000
00000000
00001010
00000000
,
00000101
00000000
00000001
00000100
00000000
00000100
00000010
00000000
,
00010000
00001000
00010000
00001000
00200000
01000000
01300000
00000000
,
11000000
00000000
00010000
01000000
00000000
01000000
00001000
00000000
,
00010000
00000100
00001000
00000010
00001010
00000000
00010100
00000000
,
00011000
00000000
00001000
00100000
00000000
00100000
00010000
00000000
,
01000000
10000000
00000000
01000000
10000000
00000000
01000000
00010000
,
00010000
00000000
00100000
00001000
00010000
00000010
00001000
00000000
,
00000101
00001010
00011000
01010000
,
10000000
01000000
00100000
00010000
01000000
00000000
01010000
00000000
,
00101000
00000000
00010100
00000000
00001010
00000000
00000100
00000100
,
00000001
00001000
00000100
00010000
00000100
00000000
00011000
00000000
,
01010000
10100000
10010000
00100000
,
00001000
00010000
00001000
00010000
00000010
00000100
00000010
00000100
,
00000101
00000000
00000000
00001010
00000000
00000000
00110000
00000000
,
02000000
10000000
00000000
10000000
13000000
00000000
10000000
00010000
,
00200000
00001000
00000000
00301000
00000000
00000000
00010000
00001000
,
00020000
00000010
00000000
00000010
00030010
00000000
00000100
00001000
,
00000100
00000100
00000001
00001000
00000010
00010000
00010000
00000000
,
00002000
00000100
00000000
00000100
00003100
00000000
00001000
00010000
,
02000000
00010000
00000000
03010000
00000000
00000000
01000000
10000000
,
00100000
01000000
00100000
01000000
00010000
00100000
00010000
00001000
,
00010000
00100000
00110000
00000000
00100000
00100000
00001000
00001000
,
00010000
00010100
00000000
00000010
00000011
00000000
00001000
00001010
,
00000000
00000000
00000000
00000000
,
10000000
11000000
00000000
00010000
00110000
00000000
01000000
01001000
,
00000000
00000000
00000000
00000000
,
00000001
00000101
00000000
00001000
00001100
00000000
00010000
00010100
,
00000000
00000000
00000000
00000000
,
10000000
10100000
00000000
00010000
00110000
00000000
00100000
00001000
,
00202000
00000000
00000000
00303000
,
00001000
00010000
00001000
00000100
00001000
00010000
00001000
00100000
,
00010000
01000000
10000000
01000000
00010000
01000000
10000000
01000000
,
00010000
00100000
00010000
00100000
00010000
00001000
00010000
00010000
,
00100000
00001000
00100000
00001000
00100000
00010000
00001000
00010000
,
01000000
10000000
01000000
00010000
00100000
00001000
00000100
00000001
,
00000100
00000010
00001000
00000100
00010000
00001000
00010000
00010000
,
00011000
00000000
00000000
00000101
00000000
00000000
00010010
00000000
,
00001000
00001000
00001000
00001000
00010000
00000000
00001000
00000000
,
00100000
00010000
01000000
10000000
01000000
10000000
01000000
00010000
,
01000000
00010000
00001000
00000100
00001000
00000100
00000001
00000001
,
00000010
00001000
00000010
00001000
00010000
00001000
00010000
00001000
,
00010000
00100000
00010000
00100000
10000000
00100000
10000000
00000000
,
00010000
00000000
10000000
01000000
00000000
00100000
00000000
00000000
,
00001000
00000000
00010000
00000100
00000000
00001000
00000010
00000010
,
00000010
00000000
00000000
00011000
00000000
00000000
00100000
00000000
,
00001000
00001000
00001000
00001000
00010000
01000000
00020000
00000000
,
00031000
00000000
00000000
00000000
;

//---------------dance-double - ----------------
#NOTEDATA:;
#CHARTNAME:;
#STEPSTYPE:dance-double;
#DESCRIPTION:;
#CHARTSTYLE:;
#DIFFICULTY:Hard;
#METER:10;
#RADARVALUES:0.820105,0.951780,0.400749,0.170318,0.360674,573.000000,533.000000,40.000000,17.000000,0.000000,0.000000,0.000000,0.000000,0.000000,0.820105,0.951780,0.400749,0.170318,0.360674,573.000000,533.000000,40.000000,17.000000,0.000000,0.000000,0.000000,0.000000,0.000000;
#CREDIT:;
#NOTES:
00000000
00000000
00000000
00000000
,
00000000
00000000
00000000
00000000
,
00000000
00000000
00000000
00000000
,
00000000
00000000
00000000
00000000
,
10000000
01000000
00010000
01000000
10000000
01000000
00010000
01000000
,
10000000
01000000
00010000
00001000
00000100
00000001
00000000
00000000
,
00000001
00000010
00001000
00000010
00000001
00000010
00001000
00000010
,
00000001
00000010
00001000
00010000
00100000
10000000
00000000
00000000
,
10000000
01000000
00010000
00001000
00000100
00000001
00000100
00001000
,
00010000
01000000
10000000
00100000
00010000
00001000
00000000
00000000
,
00000010
00000010
00000010
00000010
00000001
00000100
00000010
00001000
,
00011000
00000000
00000000
00000000
00000000
00000000
00000000
00000000
00000000
00000000
00100000
00010000
10000000
00000000
00000000
00000000
,
12000000
00000000
00010000
03010000
00000000
00000000
01100000
00000000
,
10200000
00000000
00010000
00310000
00000000
00000000
00011000
00000000
,
00000100
00001000
00010000
00001000
00000100
00000010
00001000
00000010
,
00000001
00000000
00000100
00000000
00000010
00000000
00000001
00000000
00000010
00001000
00000010
00001000
00000010
00000000
00000000
00000000
,
00001200
00000000
00000001
00000301
00000000
00000000
00000010
00000010
,
00001020
00000000
00000001
00000031
00000000
00000000
00000010
00000010
,
00001000
00010000
00100000
01000000
00010000
01000000
10000000
00100000
,
00010000
00000000
00001000
00000000
00000010
00000000
00000001
00000000
00000100
00000000
00000100
00000010
00001000
00000000
00001000
00000000
,
00002100
00000000
00010000
00013000
00000000
00000000
00021000
00000000
,
00100000
00100000
00000000
00001000
00031000
00000000
01010000
00000000
,
00100000
10000000
01000000
00100000
10000000
00100000
00010000
00001000
,
00001000
00000000
00000100
00000000
00000001
00000000
00000010
00000000
00000100
00000000
00001000
00000100
00010000
00000000
00000000
00000000
,
00012000
00000000
01000000
01003000
00000000
00000000
10010000
00000000
,
00201000
00000000
00010000
00310000
00000000
00000000
00011000
00000000
,
00000100
00000000
00001100
00000000
00000000
00000000
00000010
00000000
00000011
00000000
00000000
00000000
00000100
00000001
00000100
00000001
,
00000100
00000000
00000000
00000000
00000000
00000000
00000000
00000000
00000010
00001000
00000010
00000000
00010000
00000000
00001000
00000000
,
01000000
00010000
01000000
00010000
01000000
10000000
01000000
00010000
,
00100000
00001000
00100000
00001000
00100000
00010000
00001000
00010000
,
00100000
01000000
00100000
01000000
00100000
00001000
00100000
00001000
,
00010000
00000100
00001000
00010000
00001000
00000100
00000100
00001000
,
00000010
00000100
00000010
00000100
00000001
00000100
00000001
00000100
,
00000010
00010000
00001000
00000100
00001000
00010000
00000100
00010000
,
00010000
00000000
00001000
00000000
00010000
00000000
00001000
00000000
00100000
00000000
00010000
00000000
00100000
00000000
00010000
10000000
,
01000000
00000000
00000000
00000000
01000000
00010000
01000000
00000000
00000000
00000000
01000000
10000000
01000000
00000000
20000000
00000000
,
00100000
30100000
01000000
00010000
00100000
00001000
00010000
00100000
,
00010000
00001000
00010000
00000010
00001000
00010000
00001000
00000010
,
00000100
00001000
00010000
01000000
00100000
00001000
00010000
00000100
,
00001000
00010000
00001000
00000100
00001000
00000010
00000100
00000100
,
00000001
00000010
00001000
00000010
00000001
00000100
00001000
00010000
,
01000000
00100000
00001000
00000100
00000010
00010000
00000100
00001000
,
00000010
00001000
00000010
00001000
00000100
00010000
00000100
00010000
00001000
00010000
00001000
00010000
01000000
00000000
00010000
00100000
,
01000000
00000000
10000000
10010000
00000000
00000000
01010000
01010000
,
00200000
00000000
01000000
00000000
00000000
00000000
01000000
00000000
10300000
00000000
00000000
00000000
01000000
00000000
00100000
00010000
,
02000000
00000000
00010000
00000000
00000000
00000000
03010000
00000000
00001000
00000000
00000000
00000000
00010000
00000100
00001000
00000100
,
00002000
00000000
00000010
00000000
00000000
00000000
00000010
00000000
00003001
00000000
00000000
00000000
00000100
00000000
00000010
00010000
,
00001000
00000000
00100000
01000000
00010000
00100000
00010000
00100000
00010000
00000000
10000000
01000000
10000000
00000000
00010000
01000000
,
00010000
02010000
00000000
00001000
03001000
00000000
00100000
00100000
,
01000000
00000000
01200000
00000000
00000000
00000000
00010000
00000000
00310000
00000000
00000000
00000000
00100000
00000000
01000000
10000000
,
00100000
10000000
00100000
10000000
00100000
10000000
00100000
10000000
00100000
00000000
01000000
00001000
00010000
00000000
00001000
00010000
,
00001000
00000000
00000000
00000000
00011000
00000000
00000000
00000000
00010100
00000000
00000100
00000000
00000100
00001000
00000100
00001000
,
00000010
00000011
00000000
00000010
00000011
00000000
00000010
00000011
,
00000000
00000000
00000000
00000000
,
01000000
11000000
00000000
01000000
11000000
00000000
01000000
11000000
,
00000000
00000000
00000000
00000000
,
00000001
00000101
00000000
00000001
00000101
00000000
00000001
00000101
,
00000000
00000000
00000000
00000000
,
10000000
10100000
00000000
10000000
10100000
00000000
00100000
01000000
,
02002000
00000000
00000000
00000000
00000000
00003000
03001000
00010000
,
00000100
00000000
00001000
00000100
00001000
00000000
00000010
00000000
00000100
00000000
00000001
00000010
00000001
00000000
00001000
00000000
,
00000100
00000000
00010000
00001000
00010000
00000000
00001000
00000000
01000000
00000000
00100000
00000000
10000000
01000000
00100000
00010000
,
01000000
00000000
00100000
00000000
00001000
00010000
00100000
00000000
00010000
00000000
00001000
00000000
00010000
00000100
00010000
00000100
,
00001000
00000000
00000010
00000001
00000010
00000001
00000010
00000000
00001000
00000000
00000100
00001000
00000100
00001000
00000100
00000000
,
00010000
00000000
00001000
00000000
00000100
00000000
00001000
00000000
00000000
00000000
00010000
01000000
00010000
00000000
00000000
00000000
,
10000000
00100000
10000000
00000000
00000000
00000000
00100000
00010000
00100000
00000000
10000000
00000000
00010000
00100000
00010000
00000000
,
01000000
00000000
01000000
01001000
00000000
00010000
00010100
00000000
,
00001000
00000000
00001000
00000000
00001000
00000000
00001000
00000000
00000010
00000100
00000001
00000010
00000001
00001000
00000100
00001000
,
00000010
00000000
00010000
00000000
00001000
00000000
01000000
00000000
00000000
00000000
00010000
10000000
00010000
00000000
00000000
00000000
,
01000000
00001000
00010000
00000000
00000000
00000000
00000100
00000000
00001000
00000000
00000010
00000000
00000100
00000001
00000100
00000001
,
00000100
00000000
00000010
00010000
00000010
00000000
00000010
00010000
00000010
00000000
00010000
00000000
00001000
00010000
00001000
00010000
,
00001000
00000000
00100000
00000000
01000000
00000000
00100000
00000000
01000000
00000000
00100000
00000000
00010000
10000000
01000000
00100000
,
01000000
00000000
10000000
00000000
00010000
00000000
00100000
00001000
00000000
00000000
00011000
00000000
00000000
00000000
00000100
00000000
,
00001000
00000000
00000010
00000000
00000100
00000000
00000001
00001000
00000000
00000000
00001001
00000000
00000010
00000000
00000010
00000000
,
00000100
00001000
00000100
00001000
00000100
00000000
00010100
00000000
00000000
00000000
00000000
00000000
00010000
00000000
00001000
00000000
,
01000000
00000000
00010000
00000000
00100000
00000000
00001000
00000000
00010000
00001000
00010000
00001000
00020000
00000000
00000000
00000000
,
00031000
00000000
00000000
00000000
;

//---------------dance-double - ----------------
#NOTEDATA:;
#CHARTNAME:;
#STEPSTYPE:dance-double;
#DESCRIPTION:;
#CHARTSTYLE:;
#DIFFICULTY:Challenge;
#METER:10;
#RADARVALUES:0.924586,1.065993,0.300562,0.060112,0.681274,646.000000,616.000000,30.000000,6.000000,0.000000,0.000000,0.000000,0.000000,0.000000,0.924586,1.065993,0.300562,0.060112,0.681274,646.000000,616.000000,30.000000,6.000000,0.000000,0.000000,0.000000,0.000000,0.000000;
#CREDIT:;
#NOTES:
00000000
00000000
00000000
00000000
,
00000000
00000000
00000000
00000000
,
00000000
00000000
00000000
00000000
,
00000000
00000000
00000000
00000000
,
00001000
00000000
00000100
00000000
00010000
00000000
00001000
00100000
00000000
00100000
00010000
00000000
01000000
00000000
10000000
00000000
,
01000000
00010000
00100000
00001000
00010000
00010010
00000000
00000000
,
00000001
00000000
00000100
00000000
00001000
00000000
00000100
00000001
00000000
00000001
00001000
00000000
00000100
00000000
00001000
00000000
,
00010000
00001000
00000100
00010000
00001000
01001000
00000000
00000000
,
10000000
00000000
00100000
00000000
00010000
00000000
00001000
00000100
00000000
00000100
00000001
00000000
00001000
00000000
00000010
00000000
,
00010000
00001000
01000000
00100000
10000000
11000000
00000000
00000000
,
00100000
00000000
00100000
00000000
00100000
00000000
00100000
00000000
00001000
00010000
00001000
00010000
00001000
00010000
00001000
00010000
,
00001000
00000000
00000000
00000000
00000000
00000000
00000000
00000000
00000000
00000000
00000010
00000001
00001000
00000000
00000000
00000000
,
00000011
00000000
00000000
00000000
00001000
00000100
00001000
00000000
00000000
00000000
00000000
00000000
00011000
00000000
00000000
00000000
,
00110000
00000000
00000000
00000000
01000000
10000000
01000000
00000000
00000000
00000000
00000000
00000000
10010000
00000000
00000000
00000000
,
01000000
00000000
00000000
01000000
00010000
00000000
00000000
00010000
00100000
00000000
00000000
00100000
00001000
00000000
00000000
00001000
,
00010000
00000000
00000000
00010000
00001000
00000000
00000000
00001000
01000000
00000000
01000000
00000000
01010000
00000000
00000000
00000000
,
00101000
00000000
00000000
00000000
00001000
00010000
00001000
00000000
00000000
00000000
00000000
00000000
00011000
00000000
00010000
00000000
,
00010010
00000000
00000000
00000000
00000010
00000100
00000010
00000000
00000000
00000000
00000000
00000000
00000101
00000000
00000001
00000000
,
00000001
00000000
00000000
00000001
00001000
00000000
00000000
00001000
00000100
00000000
00000000
00000100
00010000
00000000
00000000
00010000
,
00000100
00000000
00000000
00000100
00001000
00000000
00000000
00001000
00000010
00000000
00000010
00000100
00000001
00000000
00000001
00000000
,
00000101
00000000
00000000
00000000
00001000
00000100
00001000
00000000
00000000
00000000
00000000
00000000
00011000
00000000
00000000
00000000
,
01000000
00020000
00000000
00031000
00020000
00000000
01030000
00100000
,
10000000
00000000
00000000
10000000
00010000
00000000
00000000
00010000
00100000
00000000
00000000
00100000
00010000
00000000
00010000
00000000
,
00001000
00000000
00000000
00001000
00010000
00000000
00000000
00010000
00100000
00000000
00100000
01000000
00100000
00000000
00000000
00000000
,
11000000
00000000
00000000
00000000
00100000
00001000
00010000
00000000
00000000
00000000
00000000
00000000
01001000
00000000
00000000
00000000
,
00011000
00000000
00000000
00000000
00001000
00010000
00000100
00000000
00000000
00000000
00000000
00000000
00000101
00000000
00000000
00000000
,
00000100
00000000
00002000
00000000
00000000
00000000
00013000
00000000
00002000
00000000
00000000
00000000
00103000
00010000
00100000
00010000
,
01000000
00000000
00000000
00000000
00000000
00000000
00000000
00000000
00100000
00000000
00100000
10000000
00100000
00000000
10000000
00000000
,
10000000
01000000
10000000
01000000
00010000
01000000
00010000
01000000
,
10000000
00100000
01000000
00010000
00100000
01000000
00100000
00100000
,
00001000
00010000
00001000
00000100
00001000
00010000
00000100
00001000
,
00000010
00000000
00000100
00000000
00000001
00000000
00001000
00000000
00000100
00001000
00000100
00001000
00000100
00000001
00000100
00000001
,
00000100
00010000
00001000
00100000
00010000
01000000
10000000
01000000
,
00010000
00100000
00001000
00010000
00000010
00001000
00000100
00000001
,
00000100
00001000
00000100
00001000
00000100
00010000
00000100
00010000
,
00001000
00011000
00000000
01000000
01010000
00000000
00100000
00120000
,
00000000
00000000
10030000
01000000
00100000
00000000
00001000
00000000
00010000
00000000
00001000
00000000
00010000
00000000
00001000
00000000
,
00010000
00000010
00010000
00000010
00000100
00000001
00001000
00000010
,
00000100
00001000
00000100
00001000
00010000
00001000
00010000
00001000
,
00100000
00000000
00010000
00000000
01000000
00000000
10000000
00000000
01000000
00010000
01000000
00010000
10000000
00100000
10000000
00100000
,
00010000
00100000
10000000
01000000
00010000
00001000
00000010
00000001
,
00000100
00001000
00000100
00000001
00001000
00000100
00000010
00010000
,
00000010
00000000
00000010
00000000
00000010
00000000
00000010
00000000
00000001
00000000
00000001
00001000
00000001
00000000
00001000
00000100
,
00010000
00000000
00011000
00011000
00000000
01010000
01010000
00000000
,
00100000
10000000
00100000
00000000
00000000
00000000
01000000
00010000
01000000
00000000
00000000
00000000
00100000
00001000
00100000
00001000
,
00100000
00010000
01000000
00000000
00000000
00000000
00001000
00010000
00000100
00000000
00000000
00000000
00001000
00000010
00001000
00000010
,
00001000
00000100
00001000
00000000
00000000
00000000
00000001
00000100
00000001
00000000
00000000
00000000
00000100
00000010
00000100
00000010
,
00000100
00000000
00000001
00000000
00001000
00000100
00001000
00000100
00000010
00000000
00000001
00000100
00001000
00000000
00000100
00000001
,
00001000
00000100
00001000
00000000
00000000
00000000
00010000
00001000
00010000
00000000
00000000
00000000
00001000
01000000
00001000
01000000
,
00001000
00100000
00010000
00000000
00000000
00000000
01000000
00010000
10000000
00000000
00000000
00000000
00100000
01000000
00100000
01000000
,
00100000
00000000
00100000
00000000
00100000
00000000
00100000
00000000
10000000
00000000
00010000
01000000
00100000
00000000
01000000
00001000
,
00010000
00000000
00000000
00000000
00011000
00000000
00000000
00000000
00001000
00010000
00000100
00001000
00000010
00000100
00000001
00000000
,
00000100
00001000
00010000
00100000
10000000
01000000
00100000
10000000
,
00100000
00001000
00010000
01000000
00010000
00001000
00100000
00001000
,
00010000
00000100
00000001
00000100
00010000
00001000
00000100
00001000
,
00010000
01000000
10000000
01000000
00010000
00001000
00000010
00000001
,
00000100
00001000
00010000
01000000
00100000
00010000
00100000
10000000
,
00100000
00001000
00000100
00000001
00001000
00000010
00000100
00001000
,
00010000
00000000
01000000
00000000
10000000
00000000
00100000
00000000
00010000
00000000
00001000
00000000
00000100
00000000
00000001
00001000
,
00000001
00000000
00000000
00000000
00000000
00000000
00000000
00000000
00000000
00000000
00000000
00000000
00000100
00010000
00000100
00010000
,
00000100
00001000
00010000
00001000
00000100
00000000
00010000
00000000
00001000
00000000
01000000
00010000
00100000
00000000
01000000
00000000
,
10000000
00100000
01000000
00000000
00010000
00000000
00100000
00000000
00001000
00000000
00010000
00000000
00000010
00001000
00000010
00001000
,
00000010
00000000
00000100
00000000
00000100
00000001
00000100
00000000
00000100
00000001
00000100
00000000
00001000
00000100
00001000
00000100
,
00001000
00000000
00000100
00010000
00000100
00000000
00010000
00001000
00010000
00000000
00001000
00100000
00010000
01000000
00100000
10000000
,
01000000
00100000
00010000
00100000
01000000
00000000
10000000
00000000
00010000
00000000
00100000
01000000
00100000
00000000
00001000
00000000
,
00001000
00010000
00001000
00000000
00010000
00000000
00000100
00000000
00001000
00000000
00000001
00001000
00000100
00001000
00000010
00000000
,
00000110
00000100
00000001
00001001
00000000
00000000
00011000
00000000
,
00001000
00000000
00001000
00000000
00001000
00000000
00001000
00000000
01000000
00010000
01000000
00010000
01000000
00100000
10000000
00010000
,
01000000
00000000
00010000
00000000
00100000
00000000
00001000
00100000
00001000
00000000
00010000
00000100
00001000
00000000
00000010
00000000
,
00000100
00000001
00001000
00000000
00000010
00000100
00001000
00000000
00010000
00000000
01000000
00000000
00100000
10000000
00010000
10000000
,
00100000
00000000
01000000
00010000
01000000
00010000
01000000
00001000
00010000
00000000
00000010
00000000
00010000
00000010
00010000
00000010
,
00010000
00000000
00000010
00000000
00000100
00000010
00000100
00000000
00000100
00000010
00000100
00000000
00000001
00000010
00000100
00001000
,
00000100
00000000
00010000
00000000
00001000
00000000
00100000
00010000
00000000
00010000
01000000
00000000
00100000
00000000
10000000
00000000
,
00010000
00000000
00100000
00000000
01000000
00000000
00100000
00001000
00000000
00001000
00010000
00000000
00000010
00000100
00000010
00000100
,
00000001
00001000
00000100
00000000
00000000
00000000
00000100
00010000
00001000
00000000
00000000
00000000
00011000
00000000
00001000
00000000
,
01000000
00010000
01000000
00010000
01000000
00010000
01000000
00010000
01000000
00000000
00001000
00010000
00002000
00000000
00000000
00000000
,
00013000
00000000
00000000
00000000
;
