#TITLE:Jeffer;
#SUBTITLE:;
#ARTIST:Boys Noize;
#TITLETRANSLIT:;
#SUBTITLETRANSLIT:;
#ARTISTTRANSLIT:;
#GENRE:House;
#CREDIT:;
#BANNER:Jeffer-bn.png;
#BACKGROUND:Jeffer-bg.png;
#LYRICSPATH:;
#CDTITLE:;
#MUSIC:Jeffer.ogg;
#OFFSET:-0.040000;
#SAMPLESTART:23.090000;
#SAMPLELENGTH:12.000000;
#SELECTABLE:YES;
#BPMS:0.000000=125.999992
;
#STOPS:
;
#BGCHANGES:;
#KEYSOUNDS:;
#ATTACKS:;

//---------------dance-single - ----------------
#NOTES:
     dance-single:
     :
     Hard:
     9:
     0.608459,0.641390,0.257199,0.123456,0.812749,414.000000,389.000000,25.000000,12.000000,0.000000,0.000000,0.608459,0.641390,0.257199,0.123456,0.812749,414.000000,389.000000,25.000000,12.000000,0.000000,0.000000:
0000
0000
0000
0000
,
0000
0000
0000
0000
,
1000
0001
0000
0000
1000
0000
0001
1000
0000
0010
0000
1000
0001
0000
0100
0000
,
0020
1000
1030
0000
0200
0001
0301
0000
,
0100
0001
0011
0000
0001
0000
0100
0010
,
0110
0000
0100
0000
0000
0001
0000
0000
0011
0000
0001
0000
1000
0000
0001
0000
,
1000
0000
0100
0000
0010
0000
0000
0000
0001
0000
0000
0100
0000
0000
0001
0000
,
0011
0010
0001
0000
1010
1000
0001
0100
,
0010
0000
0100
0000
0001
0000
1000
0000
0000
0010
0000
0000
1000
0000
0100
0000
,
1100
1000
0010
0000
0101
0001
0010
0001
,
0100
0000
0010
0000
1000
0000
0000
0010
0000
0000
1000
0000
0001
0100
0001
0100
,
0001
0000
0100
0000
0000
0010
0000
1000
0000
0010
0000
0000
0100
0000
0010
1000
,
0000
0000
1000
0000
0000
1000
0000
1100
0000
1001
0000
0000
0010
0100
0010
0000
,
0100
0000
0001
0000
0000
0010
0000
0011
0000
0110
0000
0000
0100
0000
0100
0000
,
0010
0000
1000
0000
0000
0100
0000
1100
0000
0110
0000
0000
0001
0000
1000
0001
,
0000
0000
1001
0000
0000
0010
0000
0010
0000
0010
0000
0000
0100
0000
0001
0000
,
0010
1000
0010
0000
1000
0001
0000
0100
0000
0001
0000
1000
0001
0000
1000
0000
,
0001
0100
0001
0000
0100
0010
0000
1000
0000
0010
0000
0100
0010
0000
1000
0000
,
0100
1000
0100
0000
1000
0010
0000
0100
0000
0001
0000
0100
0010
0000
1000
0000
,
0001
0000
0100
0000
0010
0000
1000
0000
0100
0000
0010
0000
0001
1000
0100
0000
,
0001
0100
0000
0100
0001
0000
1000
0000
0100
1000
0000
1000
0100
0000
1000
0000
,
0010
0100
0010
0000
0100
0000
0001
0000
1000
0100
1000
0000
0010
0000
0100
0000
,
0001
0010
0000
0001
0010
0000
0001
0000
1000
0100
0000
1000
0100
0000
1000
0001
,
1000
0001
1000
0000
0010
0000
0100
0000
0001
0000
0010
0000
0001
1000
0001
0000
,
0000
0000
1002
0000
0000
0100
0000
0100
0000
0103
0000
0000
0010
0100
0000
0001
,
0000
0000
1200
0000
0000
0010
0000
0010
0000
0310
0000
0000
1000
0000
0100
0010
,
0000
0000
0012
0000
0000
1000
0000
1000
0000
1003
0000
0000
0001
0100
0000
0000
,
0001
1010
0100
0011
,
1000
0100
1000
0000
0000
0010
0000
0100
0000
0001
0000
0000
0100
0001
0100
0000
,
0001
0000
1000
0000
0000
0100
0000
1000
0000
0010
0000
0000
0100
0010
0100
0010
,
0100
0000
0001
0000
0000
0100
0000
0001
0000
1000
0000
0000
0010
1000
0010
1000
,
0010
0000
0100
0000
0000
0001
0000
0100
0000
1000
0000
0000
0100
0001
0100
0001
,
0100
0000
0010
0000
0000
1000
0000
0001
0000
1000
0000
0010
0100
0000
0001
0000
,
1000
0000
2100
0000
0000
3010
0000
1000
0000
0100
0000
0000
1000
0000
0001
0000
,
0010
0000
0012
0000
0000
0103
0000
0001
0000
1000
0000
0000
0010
0100
0010
1000
,
0010
0000
1000
0000
0000
0001
0000
0001
0000
0001
0000
0000
1000
0100
1000
0100
,
1000
0000
0000
0000
0010
0000
0000
0000
0000
0000
0100
1000
0000
0000
0100
1000
0000
0000
0100
1000
0000
0000
0000
0000
0010
0000
0100
0000
0010
0000
0000
0000
,
0001
0000
0000
0000
1000
0000
0000
0000
0000
0000
1000
0010
0000
0000
1000
0010
0000
0000
1000
0010
0000
0000
0000
0000
0100
0000
0010
0000
0100
0000
0001
0000
,
0100
0000
0000
0000
0001
0000
0000
0000
0000
0000
1000
0010
0000
0000
1000
0010
0000
0000
1000
0010
0000
0000
0000
0000
0001
0000
1000
0000
0001
0000
1000
0000
,
0001
1100
0010
0011
,
0001
0100
0000
0000
0001
0000
1000
0100
0000
0010
0000
0001
1000
0000
0010
0000
,
1000
0010
0000
0000
0100
0010
0000
0000
0100
0001
0000
0000
0010
0001
0000
0000
,
1000
0001
0000
0000
1000
0000
0010
1000
0000
0010
0000
0100
0001
0000
0100
0000
,
0001
0100
0000
0000
0010
0100
0000
0000
0010
1000
0000
0000
0100
1000
0000
0000
,
0001
0100
0000
0000
0010
0000
1000
0001
0000
0100
0000
0001
1000
0000
0010
0000
,
1000
0010
0000
0000
0001
0010
0000
0000
1000
0100
0000
0000
0001
0100
0000
0000
,
1000
0001
0000
0000
0100
0000
0001
1000
0000
0010
0000
1000
0001
0000
1000
0000
,
0000
2002
0000
3003
2002
0000
3003
0000
,
0010
0100
0100
0001
1000
1000
0001
0100
,
0000
0010
1000
1000
0100
1000
2000
3100
;

//---------------dance-single - ----------------
#NOTES:
     dance-single:
     :
     Medium:
     7:
     0.424746,0.436145,0.205759,0.082304,0.205759,289.000000,269.000000,20.000000,8.000000,0.000000,0.000000,0.424746,0.436145,0.205759,0.082304,0.205759,289.000000,269.000000,20.000000,8.000000,0.000000,0.000000:
// measure 0
0000
0000
0000
0000
,  // measure 1
0000
0000
0000
0000
,  // measure 2
0011
0000
0001
0100
0010
0000
1000
0000
,  // measure 3
1100
0000
0000
0001
0100
0000
0000
0001
0100
0000
0000
0001
0100
0000
0000
0000
,  // measure 4
0010
0100
0001
0000
1000
0001
1000
0000
,  // measure 5
0020
1000
0100
0031
,  // measure 6
0100
0010
1000
0000
0001
0100
0001
1000
,  // measure 7
0200
1000
0010
0301
,  // measure 8
0100
0001
1000
0000
0010
0100
0010
0000
,  // measure 9
2000
0100
0001
3010
,  // measure 10
0001
0100
0010
0000
1000
0100
1000
0001
,  // measure 11
0000
0000
0001
0000
0000
1000
0000
0001
0000
0100
0000
0000
0020
0000
0000
0000
,  // measure 12
0130
0010
0000
1001
0000
0010
0100
0010
,  // measure 13
1000
0001
0000
0110
0000
1000
0001
1000
,  // measure 14
0010
0100
0000
0011
0000
0001
1000
0001
,  // measure 15
1000
0100
0000
1100
0000
1000
0010
1000
,  // measure 16
0001
0000
0000
0000
0001
1000
0000
1000
0000
1000
0000
1000
0000
0000
0000
0000
,  // measure 17
1000
0100
0100
0000
0010
0001
0001
0000
,  // measure 18
0100
0000
0000
0000
0100
0010
0000
0010
0000
0010
0000
0010
0000
0000
0000
0000
,  // measure 19
0001
0010
0010
0000
0100
1000
1000
0000
,  // measure 20
0001
1000
0001
0000
1000
0000
0100
0000
,  // measure 21
1000
0010
0000
0010
0000
0010
0000
0010
,  // measure 22
0100
0001
0100
0010
0000
1000
0100
1000
,  // measure 23
0000
0001
0000
0100
1000
0100
0001
0000
,  // measure 24
0000
0000
0001
0000
0000
1000
0000
0010
0000
0100
0000
0000
0010
0000
0000
0000
,  // measure 25
0000
0000
1000
0000
0000
0001
0000
0010
0000
0100
0000
0000
0010
0000
0000
0000
,  // measure 26
0000
0000
0100
0000
0000
0001
0000
0100
0000
0010
0000
0000
0100
0000
0000
0000
,  // measure 27
1001
0110
1001
0110
,  // measure 28
1000
0010
0000
1000
0000
0001
1000
0100
,  // measure 29
1000
0001
0000
0100
0000
0010
0100
0010
,  // measure 30
0001
1000
0000
0010
0000
0100
0010
0100
,  // measure 31
1000
0000
0010
1000
0000
0001
0100
0010
,  // measure 32
1000
0100
1000
0000
0101
0000
0010
0000
,  // measure 33
0002
1000
0100
0013
,  // measure 34
0100
0001
0100
0000
0001
0000
0110
0000
,  // measure 35
0010
1000
0000
0001
0100
0001
1000
0000
,  // measure 36
0000
0000
2000
0000
0000
0001
0000
0001
0000
3001
0000
0000
1000
0000
0001
0000
,  // measure 37
0000
0000
0002
0000
0000
1000
0000
1000
0000
1003
0000
0000
1000
0000
0001
0000
,  // measure 38
0000
0000
0200
0000
0000
0010
0000
0010
0300
0010
0000
0000
1000
0000
0001
0000
,  // measure 39
1000
0101
1000
0101
,  // measure 40
0001
1000
0000
1010
0000
0010
0100
0001
,  // measure 41
1000
0000
0000
1000
0010
0000
0000
0010
0100
0000
0000
0100
0001
0000
0000
0001
,  // measure 42
1000
0001
0000
0011
0000
0001
1000
0010
,  // measure 43
0100
0000
0000
0100
0001
0000
0000
0001
1000
0000
0000
1000
0010
0000
0000
0010
,  // measure 44
0100
0000
0001
1000
0100
1000
0010
0100
,  // measure 45
0001
1001
1010
0101
,  // measure 46
0010
0000
1000
0001
0100
0001
0010
0100
,  // measure 47
0010
0100
0000
0000
1001
0000
0000
0000
,  // measure 48
0001
0100
1000
1000
,  // measure 49
0100
0000
0001
0000
0100
0010
0010
0010
;

//---------------dance-single - ----------------
#NOTES:
     dance-single:
     :
     Easy:
     2:
     0.141092,0.176439,0.030864,0.123456,0.000000,96.000000,93.000000,3.000000,12.000000,0.000000,0.000000,0.141092,0.176439,0.030864,0.123456,0.000000,96.000000,93.000000,3.000000,12.000000,0.000000,0.000000:
0000
0000
0000
0000
,
0000
0000
0000
0000
,
0001
0000
0000
0010
,
0001
1000
1000
1000
,
0010
0000
0000
1000
,
0100
0000
0000
0001
,
0010
0000
0000
0100
,
0010
0000
0000
1000
,
0001
0000
0000
1000
,
0010
0000
0000
0001
,
0010
0000
0000
1000
,
1000
0000
0000
0001
0000
0000
0001
0000
,
0000
0100
0000
0000
0000
0000
0000
0000
,
0000
0010
0000
0000
0000
0000
0000
0000
,
0000
1000
0000
0000
0000
0000
0000
0000
,
0000
0001
0000
0000
0000
0000
0000
0000
,
2000
0000
3000
0000
,
0002
1000
1000
1003
,
0020
0000
0030
0000
,
0200
0010
0010
0310
,
1000
0000
0000
1000
0000
0000
0000
0000
,
0000
0001
0000
0000
0000
0000
0000
0000
,
0100
0000
0000
0002
,
0003
0001
0000
0000
0000
0000
1000
0000
,
0000
1000
0000
0000
0000
0000
0000
0000
,
0000
0100
0000
0000
0000
0000
0000
0000
,
0000
0010
0000
0000
0000
0000
0000
0000
,
1001
0000
0000
0000
,
0010
0000
0100
0000
,
0020
1000
1000
1030
,
1000
0000
0001
0000
,
0020
0001
0001
0031
,
0010
0000
0000
0000
,
0100
0000
0001
1000
,
0010
0000
0000
0200
,
0300
0100
0000
0000
0000
0000
0000
0000
,
0000
0010
0000
0000
0000
0000
0000
0000
,
0000
0110
0000
0000
0000
0000
0000
0000
,
0000
0100
0000
0000
0000
0000
0000
0000
,
1001
0000
0000
0000
,
0002
0000
0003
0000
,
2000
0100
0100
3100
,
0020
0000
0030
0000
,
0200
0001
0001
0301
,
1000
0000
0001
0000
,
0100
0100
0100
0100
,
0100
0000
0010
0000
,
0000
1000
0000
0000
1000
0000
0000
0000
,
0010
0000
0000
0000
,
0100
0000
0000
0000
;

//---------------dance-single - ----------------
#NOTES:
     dance-single:
     :
     Beginner:
     1:
     0.072016,0.126028,0.030864,0.000000,0.000000,49.000000,46.000000,3.000000,0.000000,0.000000,0.000000,0.072016,0.126028,0.030864,0.000000,0.000000,49.000000,46.000000,3.000000,0.000000,0.000000,0.000000:
0000
0000
0000
0000
,
0000
0000
0000
0000
,
0010
0000
0000
0000
,
0000
0000
0000
0000
,
1000
0000
0000
0000
,
0100
0000
0100
0000
,
0100
0000
0000
0000
,
0010
0000
0010
0000
,
0010
0000
0000
0000
,
0001
0000
0000
0000
,
1000
0000
0000
1000
,
0000
0000
0000
0000
,
0000
0000
0000
0010
,
0000
0000
0000
0100
,
0000
0000
0000
0010
,
0000
0000
0000
0000
,
0001
0000
0000
0000
,
1000
0000
0000
0000
,
0010
0000
0000
0000
,
1000
0000
0000
0000
,
0100
0000
0000
0000
,
0000
0001
0000
0000
,
0000
0000
1000
0000
,
0000
0010
0000
0000
,
0000
0000
0000
0100
,
0000
0000
0000
0001
,
0000
0000
0000
1000
,
0000
0000
0000
0000
,
0010
0000
0000
0000
,
1000
0000
0000
0000
,
0001
0000
0000
0000
,
0010
0000
0000
0000
,
0001
0000
0000
0000
,
0010
0000
0010
0000
,
0010
0000
0000
0001
,
0000
0000
0000
0000
,
0000
0000
0000
1000
,
0000
0000
0000
0100
,
0000
0000
0000
0010
,
0000
0000
0000
0000
,
0001
0000
0000
0000
,
1001
0000
0000
0000
,
1000
0000
0000
0000
,
1001
0000
0000
0000
,
0010
0000
0000
0000
,
0110
0000
0000
0000
,
0100
0000
0000
0000
,
0000
0000
0000
0000
,
0001
0000
0000
0000
,
1000
0000
0000
0000
;
