#TITLE:Invisible Border;
#SUBTITLE:;
#ARTIST:world sequence;
#TITLETRANSLIT:;
#SUBTITLETRANSLIT:;
#ARTISTTRANSLIT:;
#GENRE:Classical;
#CREDIT:;
#BANNER:invisibleborder-bn.png;
#BACKGROUND:invisibleborder-bg.png;
#LYRICSPATH:;
#CDTITLE:;
#MUSIC:Invisible Border.ogg;
#OFFSET:-0.200000;
#SAMPLESTART:64.040001;
#SAMPLELENGTH:12.000000;
#SELECTABLE:YES;
#BPMS:0.000000=156.000000
;
#STOPS:
;
#BGCHANGES:;
#KEYSOUNDS:;
#ATTACKS:;

//---------------dance-single - ----------------
#NOTES:
     dance-single:
     :
     Hard:
     7:
     0.463278,0.537608,0.306337,0.507040,0.000000,307.000000,278.000000,29.000000,48.000000,0.000000,0.000000,0.463278,0.537608,0.306337,0.507040,0.000000,307.000000,278.000000,29.000000,48.000000,0.000000,0.000000:
0000
0000
0000
0000
,
0000
0000
0000
0000
,
0000
0000
0000
0000
,
0000
0000
0000
0000
,
2000
0000
0000
0200
0000
3300
0101
0000
,
0000
0000
0000
0000
0001
0010
0100
1000
,
0002
0000
0000
0020
0000
0033
1010
0000
,
0010
1000
0100
1000
0010
0100
0001
1000
,
2000
0000
0000
0001
3002
0000
0000
0100
,
0203
0000
0000
1000
2300
0000
0000
0100
,
3200
0000
0010
0010
0000
0000
0310
0000
,
0001
1000
0110
0010
,
2020
0000
3030
0202
0000
0303
2020
0000
,
3030
0000
0000
0001
1000
0000
0010
0000
,
2200
0000
3300
0022
0000
0033
2200
0000
,
3300
0022
0000
0033
0001
1000
0010
0001
,
0002
0000
0000
0010
0023
0000
0000
1000
,
2030
0000
0000
0001
3002
0000
0000
0100
,
0203
0000
0001
0001
0000
0000
0301
0000
,
0010
0100
0001
1000
0001
0100
0010
0000
,
2000
0000
0000
0020
0000
3030
0011
0000
,
0000
0000
0000
0010
0100
0000
1000
0000
,
0002
0000
0000
0200
0000
0303
1100
0000
,
0010
1000
0100
1000
0010
0100
0001
0100
,
0010
0000
1000
0001
0000
0001
1000
0000
,
0010
0100
0000
0001
0100
0001
0100
0000
,
1000
0000
0100
1000
0000
0100
1000
0000
,
0010
1000
0000
0100
1000
0100
1000
0000
,
0001
0000
0010
0001
0000
0001
0010
0000
,
0100
1000
0000
0010
0100
0010
0100
0000
,
0020
1000
0100
1000
,
0100
1000
0100
1030
,
0002
0010
0100
0010
,
0100
0010
0203
0320
,
0031
0100
0000
0010
1000
0000
0100
1000
,
0000
0010
0100
0000
2002
0000
3003
0000
,
0100
0001
0000
1000
0010
0000
1000
0100
,
0000
1000
0010
0000
0100
0000
0001
0000
,
0010
0000
0100
1000
0000
0100
0001
0000
,
0100
1000
0000
0100
0001
0000
1000
0000
,
0100
0000
1000
0010
0000
0100
0010
0100
,
0001
0010
1100
1001
,
0100
0001
0010
0001
0100
0001
0100
0001
,
0100
0010
1000
0000
2002
0000
3003
0000
,
0010
1000
0100
1000
0010
1000
0010
1000
,
0100
0010
0001
1000
0010
0000
0100
0000
,
0001
0010
0001
0000
1000
0100
1000
0000
,
0010
0100
0001
1000
0010
0000
1000
0000
,
1100
0100
0010
0001
1000
0010
1000
0000
,
0101
0001
0100
0000
0011
0000
0110
0000
,
1000
0100
0001
0100
1000
0100
1000
0100
,
0010
0001
1000
0000
0220
0000
0330
0000
,
0001
0010
0100
0010
0001
0010
0001
0010
,
0100
1000
0010
0100
0001
0000
1000
0000
,
1010
1000
0001
1000
0010
0100
0001
0000
,
0011
0001
1000
0000
0110
0000
0101
0000
,
2000
0100
0010
3001
,
0002
0010
0100
1003
,
1010
0010
1000
2002
0000
3003
0110
0100
,
0001
0202
0000
0000
0300
0000
1000
1003
;

//---------------dance-single - ----------------
#NOTES:
     dance-single:
     :
     Medium:
     5:
     0.316900,0.411112,0.042253,0.411970,0.000000,210.000000,206.000000,4.000000,39.000000,0.000000,0.000000,0.316900,0.411112,0.042253,0.411970,0.000000,210.000000,206.000000,4.000000,39.000000,0.000000,0.000000:
0000
0000
0000
0000
,
0000
0000
0000
0000
,
0000
0000
0000
0000
,
0000
0000
0000
0000
,
2000
0000
0000
0002
0000
3003
0100
0000
,
0000
0000
0010
0100
,
0002
0000
0000
2000
0000
3003
0010
0000
,
0000
0000
0000
0000
1000
0001
1000
0010
,
1000
0000
0000
0100
0010
0000
0000
0010
,
0001
0000
0000
0001
1000
0000
0000
0010
,
0100
0000
0100
0001
0000
0000
1000
0000
,
0010
1000
0100
0010
,
0200
0000
0000
2000
0000
3300
0001
0000
,
0000
0000
0000
0100
0010
0000
0100
0000
,
0020
0000
0000
0002
0000
0033
0200
0000
,
0000
0020
0000
0330
0000
0000
0000
1000
,
0010
0000
0000
0010
0100
0000
0000
0100
,
0001
0000
0000
0001
1000
0000
0000
1000
,
0010
0000
0010
0100
0000
0000
0001
0000
,
1000
0100
0010
0100
,
2000
0000
0000
0010
0000
0000
3010
0000
,
0000
0000
0000
1000
0001
0000
0100
0000
,
0002
0000
0000
0100
0000
0000
0103
0000
,
0010
0000
0000
0000
0000
0000
0000
0100
,
0001
0000
0100
0001
0000
0100
0001
0000
,
0100
0001
0000
0000
1000
0000
0000
1000
,
0100
0000
1000
0100
0000
1000
0100
0000
,
1000
0100
0000
0000
0010
0000
0000
0100
,
0010
0000
0100
0010
0000
0100
0010
0000
,
0100
0010
0000
0000
0001
0000
0000
0000
,
1000
0100
0010
0001
,
1000
0100
0010
0001
,
0010
0100
0001
1000
,
0010
0100
0002
2003
,
3020
0000
1030
1000
,
1000
0100
0010
0000
0022
0000
0033
0000
,
0200
0000
0001
0301
,
0001
0010
0100
0000
2000
0000
3002
0000
,
2003
0000
3010
0010
,
0010
0100
0001
0000
0200
0000
0320
0000
,
0230
0000
0000
0000
,
0002
0303
1000
1000
,
0010
1000
0001
1000
,
0001
1000
0010
0000
2020
0000
3030
0000
,
1000
0100
0010
0100
,
0010
0001
1000
0000
0002
0000
0023
0000
,
0031
0100
0010
0100
,
0010
1000
0100
0000
0020
0000
0230
0000
,
2300
0000
0000
0000
,
3020
0000
0130
0001
,
0010
0000
0100
1000
0100
0000
0100
1000
,
0100
1000
0100
0000
2002
0000
3003
0000
,
0100
0000
0001
0010
0001
0000
0001
0010
,
0001
0010
0001
0000
1000
0000
0100
0000
,
0010
0000
0001
1000
0001
0000
0010
0100
,
0020
0000
1030
0001
,
2002
0000
0000
0000
,
0000
0000
0000
3003
,
0010
0100
0001
1000
0000
0000
1000
0100
,
0010
0002
0000
0000
0000
0000
1000
1003
;

//---------------dance-single - ----------------
#NOTES:
     dance-single:
     :
     Easy:
     4:
     0.273138,0.284616,0.031690,0.623237,0.000000,181.000000,178.000000,3.000000,59.000000,0.000000,0.000000,0.273138,0.284616,0.031690,0.623237,0.000000,181.000000,178.000000,3.000000,59.000000,0.000000,0.000000:
0000
0000
0000
0000
,
0000
0000
0000
0000
,
0000
0000
0000
0000
,
0000
0000
0000
0000
,
1000
0000
0000
1000
0000
0000
1000
0000
,
0000
0000
0010
0001
,
0010
0000
0000
0010
0000
0000
0010
0000
,
0000
0000
0100
1000
,
0200
1000
2300
0010
,
3020
0100
0130
0000
,
0001
0000
0000
0001
0000
0000
0001
0000
,
0000
0000
0010
0100
,
2000
0000
0000
0002
0000
3003
0010
0000
,
0000
0000
0100
0100
,
0002
0000
0000
2000
0000
3003
0020
0000
,
0000
0200
0000
0330
0000
0000
0000
0000
,
0200
0001
0302
0010
,
0023
0100
0230
0010
,
0310
0000
0000
0010
0000
0000
0010
0000
,
0000
0000
0100
0010
,
2000
0000
0000
0200
0000
3300
0010
0000
,
0000
0000
0001
1000
,
0002
0000
0000
0020
0000
0033
0100
0000
,
1000
0010
0100
0001
,
0010
0100
0010
0100
,
1000
0100
0001
1000
,
0100
0010
0100
0010
,
0001
0100
1000
0001
,
1000
0010
0001
0010
,
1000
0100
0010
0010
,
0002
2003
3002
2003
,
3002
2003
3002
2003
,
3020
0230
0320
0230
,
0320
0230
0302
0023
,
0130
1000
0100
0010
,
0100
1000
0200
0000
,
1300
0010
1000
0100
,
1000
0010
2000
3200
,
0320
0031
0010
0100
,
0010
0001
0020
0230
,
2300
0000
0000
3000
,
0002
0000
0203
0302
,
1003
0100
0010
0100
,
1000
0010
0200
0000
,
0301
0010
1000
0010
,
0001
0100
0020
2030
,
3100
0001
0100
1000
,
0010
0100
0002
2003
,
3020
0000
0000
0030
,
2000
0000
3002
0203
,
0301
0010
0100
0010
,
0001
0100
2000
0000
,
3100
0001
0010
0100
,
0010
0001
0200
0302
,
1003
0010
0010
0100
,
0200
0000
0002
0303
,
2002
0000
0000
0000
,
0000
0000
0000
3003
,
1000
0000
0000
1100
0000
0000
0001
0000
,
0000
0101
0000
0000
0000
0000
0100
0010
;

//---------------dance-single - ----------------
#NOTES:
     dance-single:
     :
     Beginner:
     1:
     0.092052,0.157790,0.000000,0.021127,0.000000,61.000000,61.000000,0.000000,2.000000,0.000000,0.000000,0.092052,0.157790,0.000000,0.021127,0.000000,61.000000,61.000000,0.000000,2.000000,0.000000,0.000000:
0000
0000
0000
0000
,
0000
0000
0000
0000
,
0000
0000
0000
0000
,
0000
0000
0000
0000
,
2000
0000
3000
1000
,
0000
0000
0000
0000
,
0002
0000
0003
0001
,
0000
0000
0000
0000
,
0100
0000
0010
0000
,
0100
0000
0010
0000
,
0100
0000
0000
0000
,
0000
0000
0001
0000
,
0001
0000
0000
0000
,
0000
0000
1000
0000
,
1000
0000
0000
0000
,
0000
0000
0000
0000
,
0100
0000
0001
0000
,
0100
0000
0001
0000
,
0100
0000
0000
0000
,
0000
0000
0000
0000
,
0010
0000
0000
0000
,
0000
0000
1000
0000
,
1000
0000
0000
0000
,
0000
0000
0000
0000
,
0010
0000
0000
0000
,
1000
0000
0000
0000
,
0100
0000
0000
0000
,
0010
0000
0000
0000
,
0001
0000
0000
0000
,
0100
0000
0000
0000
,
1000
0000
0000
0000
,
0000
0000
0000
0000
,
0001
0000
0000
0000
,
0000
0000
0100
0100
,
0100
0000
0000
0000
,
0000
0000
0010
0000
,
0010
0000
0000
0000
,
0000
0000
1000
1000
,
1000
0000
0000
0000
,
0000
0000
0001
0001
,
0001
0000
0000
0000
,
0010
0000
0000
0000
,
0100
0000
0000
0000
,
0000
0000
0010
0000
,
0010
0000
0000
0000
,
0000
0000
1000
1000
,
1000
0000
0000
0000
,
0000
0000
0100
0100
,
0100
0000
0000
0000
,
0001
0000
0000
0000
,
1000
0000
0000
0000
,
0000
0000
0010
0000
,
0010
0000
0000
0000
,
0000
0000
0100
0100
,
0100
0000
0000
0000
,
0000
0000
0010
0000
,
0010
0000
0000
0000
,
0000
0000
0000
0000
,
0001
0000
0000
0000
,
0000
0000
0000
1000
;

//---------------dance-single - ----------------
#NOTES:
     dance-single:
     :
     Challenge:
     9:
     0.621728,0.668263,0.464787,0.633801,0.269365,412.000000,368.000000,44.000000,60.000000,0.000000,0.000000,0.621728,0.668263,0.464787,0.633801,0.269365,412.000000,368.000000,44.000000,60.000000,0.000000,0.000000:
// measure 0
0000
0000
0000
0000
,  // measure 1
0000
0000
0000
0000
,  // measure 2
0000
0000
0000
0000
,  // measure 3
0000
0000
0000
0000
,  // measure 4
2000
0000
3000
2200
0000
3300
0202
0000
,  // measure 5
0303
0000
0000
0000
0000
0000
0001
1000
0001
0000
0100
0000
0001
0000
0000
0000
,  // measure 6
0002
0000
0003
0202
0000
0303
2200
0000
,  // measure 7
3300
0000
1000
0010
1000
0000
0010
0100
0010
0000
0100
0001
0100
0000
0001
1000
,  // measure 8
0020
0000
0031
0010
2000
0000
3001
0100
,  // measure 9
2000
0000
0000
0000
3001
0000
0010
0000
2000
0000
0000
0000
3100
0000
0010
0001
,  // measure 10
0010
0000
0000
0000
0200
0000
2000
0000
0000
0000
3300
0000
1001
0000
1000
0001
,  // measure 11
1000
0001
0100
0010
1000
0010
0100
0001
,  // measure 12
0202
0000
0303
2200
0000
3300
0202
0000
,  // measure 13
0303
0000
0000
0000
0000
0000
0100
0010
0100
0000
0000
0000
1001
0000
0000
0000
,  // measure 14
0022
0000
0033
2020
0000
3030
0022
0000
,  // measure 15
0033
0000
0110
0000
0000
0000
0100
1000
0100
0000
1000
0000
0100
0000
1000
0001
,  // measure 16
0200
0000
1300
0100
0002
0000
1003
0010
,  // measure 17
0002
0000
0000
0000
1003
0000
0100
0000
0002
0000
0000
0000
0013
0000
0100
1000
,  // measure 18
0100
0000
0000
0000
0020
0000
0002
0000
0000
0000
0033
0000
1001
0000
0001
1000
,  // measure 19
0001
1000
0010
0100
0001
0100
0010
1000
,  // measure 20
2200
0000
3300
0202
0000
0303
2200
0000
,  // measure 21
3300
0000
0000
0000
0000
0000
1000
0001
1000
0000
0000
0000
0110
0000
0000
0000
,  // measure 22
0202
0000
0303
0220
0000
0330
1010
0000
,  // measure 23
1001
0000
1000
0100
0010
0000
0011
0000
0000
0000
0001
0100
0010
0000
1000
0000
,  // measure 24
0001
0000
1000
0010
0000
0001
0010
0000
,  // measure 25
1000
0100
0000
0001
0100
1000
0010
0100
,  // measure 26
0001
0000
0010
1000
0000
0010
0001
0000
,  // measure 27
0100
1000
0000
0100
0001
0010
0100
1000
,  // measure 28
0010
0000
0100
1000
0000
0100
0001
0000
,  // measure 29
0010
0100
0000
0001
0100
1000
0010
0100
,  // measure 30
1002
0010
1000
0010
,  // measure 31
1000
0010
1000
0013
,  // measure 32
1200
0010
1000
0010
,  // measure 33
1000
0310
0011
1001
,  // measure 34
1000
0000
0010
0100
0001
0000
0010
0000
0100
0000
1000
0000
0010
0000
0100
0001
,  // measure 35
1000
0000
0010
1000
0001
0000
0100
0000
0020
0000
0000
0000
0000
0000
0000
0000
,  // measure 36
0130
0000
0001
1000
0100
0000
0010
0000
0001
0000
0100
0000
0010
0000
1000
0001
,  // measure 37
0100
0000
0010
0100
0001
0000
1000
0000
0200
0000
0000
0000
0302
0000
0000
0000
,  // measure 38
0103
0000
1000
0010
0100
0000
0001
0000
0010
0000
0100
0000
1000
0000
0001
0100
,  // measure 39
0001
0000
1000
0010
1000
0000
0001
0000
0101
0000
0000
0000
1010
0000
0000
0000
,  // measure 40
1200
0000
0010
0010
0000
0301
0100
1000
,  // measure 41
0010
0000
0100
0001
0100
0000
0001
1000
0001
0000
0000
0000
0110
0000
0000
0000
,  // measure 42
1000
0000
0001
0010
0100
0000
1000
0000
0010
0000
0100
0000
0001
0000
1000
0010
,  // measure 43
0100
0000
0001
0010
0100
0000
1000
0000
0002
0000
0000
0000
0000
0000
0000
0000
,  // measure 44
0103
0000
0010
0100
0010
0000
1000
0000
0001
0000
1000
0000
0100
0000
0010
0001
,  // measure 45
0100
0000
0010
1000
0100
0000
0010
0000
2000
0000
0000
0000
3020
0000
0000
0000
,  // measure 46
0031
0000
0100
0010
1000
0000
0010
0000
0100
0000
0001
0000
1000
0000
0010
1000
,  // measure 47
0010
0000
1000
0100
1000
0000
0010
0000
0110
0000
0000
0000
0101
0000
0000
0000
,  // measure 48
1002
0000
0100
0010
0000
0100
1003
0000
,  // measure 49
0001
0000
1000
0100
1000
0000
0001
0100
0001
0000
0000
0000
1001
0000
0000
0000
,  // measure 50
0001
0000
0100
0010
0100
0000
1000
0000
0100
0000
0010
0000
0100
0000
0001
0010
,  // measure 51
0100
0000
1000
0010
0100
0000
0001
0000
2002
0000
0000
0000
3003
0000
0000
0000
,  // measure 52
1000
0000
0010
0100
0010
0000
0001
0000
0010
0000
0100
0000
0010
0000
1000
0100
,  // measure 53
0010
0000
0001
0100
0010
0000
1000
0000
0001
0000
0000
0000
1100
0000
0000
0000
,  // measure 54
0001
0000
0100
1000
0100
0000
0001
0010
0001
0000
0100
1000
0100
0000
0001
0010
,  // measure 55
0002
0000
0013
0101
,  // measure 56
2000
0000
0000
3010
1000
0010
1000
0000
0000
0010
0000
0100
,  // measure 57
0001
0100
0010
1000
0100
0010
0001
1000
,  // measure 58
1001
0000
1010
1010
0000
1000
0001
0101
,  // measure 59
0000
0000
0100
0010
1000
0000
0001
0000
0100
0000
0000
0000
0110
0000
0220
0000
,  // measure 60
0000
0330
0000
0000
;
