#TITLE:Into You;
#SUBTITLE:;
#ARTIST:Ariana Grande;
#TITLETRANSLIT:;
#SUBTITLETRANSLIT:;
#ARTISTTRANSLIT:;
#GENRE:Pop;
#CREDIT:;
#BANNER:intoyou-bn.png;
#BACKGROUND:intoyou-bg.png;
#LYRICSPATH:;
#CDTITLE:;
#MUSIC:Into You.ogg;
#OFFSET:-2.229000;
#SAMPLESTART:28.693003;
#SAMPLELENGTH:12.000000;
#SELECTABLE:YES;
#BPMS:0.000000=107.989998
;
#STOPS:
;
#BGCHANGES:;
#KEYSOUNDS:;
#ATTACKS:;

//---------------dance-single - ----------------
#NOTES:
     dance-single:
     :
     Challenge:
     9:
     0.549175,0.516982,0.369273,0.170434,0.568112,406.000000,367.000000,39.000000,18.000000,0.000000,0.000000,0.549175,0.516982,0.369273,0.170434,0.568112,406.000000,367.000000,39.000000,18.000000,0.000000,0.000000:
0010
1000
0010
0000
0100
0000
0010
0000
1000
0000
0000
0010
0100
0000
0000
0001
,
0000
0001
0100
0000
0010
0000
0010
0000
0100
0000
0000
0001
0000
0000
0000
1000
,
0000
1000
0100
0000
1000
0000
0010
0000
0101
0000
0000
0001
0000
0000
0000
0100
,
0000
0100
0010
0000
0100
0000
0001
0000
0011
0000
0000
0100
0000
0000
1000
0000
,
0010
0000
0100
0000
0110
0000
1000
0000
0100
0000
0010
0000
1001
0000
0000
0010
,
0100
0000
0010
0000
1001
0000
0001
0000
0100
0000
0010
0000
1100
0000
0000
0001
,
1000
0000
0010
0000
1010
0000
0100
0000
0010
0000
0001
0000
0110
0000
0000
0100
,
0010
0000
1000
0000
1010
0000
0100
0000
0010
0000
1000
0000
1100
0000
0000
0100
,
2000
0000
0000
0000
3010
0000
0010
0000
0100
0000
0001
0000
1000
0000
0000
0001
,
0000
0001
0100
0000
0010
0000
0010
0000
1001
0000
0000
0000
0100
0000
0000
0010
,
0200
0000
0310
0010
0001
0100
0010
2000
,
0000
0000
3200
0000
0000
0000
0302
0000
0000
0000
0203
0000
0000
0000
0300
1000
,
0010
1000
0010
0000
0100
0000
0001
0010
0001
0000
1000
0100
1000
0000
0000
0010
,
0100
0010
0100
0000
0001
0000
0001
0000
1000
0100
1000
0100
1000
0000
0000
0001
,
0010
0001
0010
0000
0100
0000
1000
0010
1000
0000
0001
0100
0001
0000
0000
1000
,
0001
1000
0001
0000
0100
0000
0010
0000
0100
0001
0100
0001
0100
0000
0000
0001
,
0010
0001
0010
0000
0100
0000
1000
0010
0000
0010
0000
1000
0000
1000
0000
1000
,
0100
1000
0100
0000
1000
0000
0001
0000
0010
0001
0010
0001
0010
0000
0000
0000
,
0101
0000
0000
0000
0110
0000
0000
0000
1010
0000
0000
1000
0100
0000
0000
0000
,
0011
0000
0000
0001
0100
0000
0000
0000
1010
0000
0000
1000
0100
0000
0000
0000
,
1100
0000
0000
0110
0000
0000
0022
0000
0000
0000
0000
0000
0033
0000
0000
0000
,
0001
0000
1000
0000
0010
0000
0000
0100
0010
0000
1000
0000
0100
0000
0010
0000
,
0011
0000
0000
0110
0000
0000
2200
0000
0000
0000
0000
0000
3300
0000
0000
0010
,
1000
0100
1000
0100
0010
0001
0100
0010
,
0110
0000
0000
0101
0000
0000
0022
0000
0000
0000
0000
0000
0033
0000
0000
0010
,
0100
0000
1000
0000
0010
0000
0000
0100
0010
0000
1000
0000
0001
0000
0100
0000
,
0101
0000
0000
1001
0000
0000
2020
0000
0000
0000
0000
0000
3030
0000
0000
0010
,
1000
0010
1000
0010
0100
0001
1001
0000
,
0100
0000
1000
0000
1010
0000
0000
0000
1000
0100
1000
0100
0010
0001
0010
0001
,
0100
0010
0100
0010
0100
0000
0000
0001
1000
0001
1000
0000
0010
0000
1000
0100
,
0000
0000
1000
0100
0000
0000
0000
1000
0010
1000
0010
0000
0100
0000
0010
0000
,
1000
0000
1000
0010
0000
0000
0000
0100
0001
0100
0001
0000
0010
0000
0100
1000
,
0000
0000
0100
1000
0000
0000
0000
0010
0100
0010
0100
0000
0001
0000
1000
0000
,
0001
0010
0001
0010
0001
0000
0000
1000
0100
1000
0100
0000
1000
0000
0010
1000
,
0000
1000
0000
0001
0000
0001
0000
0001
0100
0001
0100
0000
0010
0000
0100
0000
,
0001
0100
0001
0100
0001
0000
0000
0000
1010
0000
0000
0000
0110
0000
0000
0000
,
1001
0000
0000
0001
0100
0000
0000
0000
1010
0000
0000
1000
0100
0000
0000
0000
,
0011
0000
0000
0002
0200
0000
0303
0010
1000
0010
1000
0000
0100
0000
0010
0100
,
0000
0000
0010
0100
0000
0000
0000
0100
1000
0100
1000
0000
0010
0000
0100
0000
,
0001
1000
0010
1000
0001
0000
0000
0100
0001
0100
0001
0000
0010
0000
0100
0010
,
0000
0000
0100
0010
0000
0000
0000
0010
0001
0010
0001
0000
0100
0000
0010
0000
,
1000
0100
0010
0100
1000
0000
0000
0010
0100
0010
0100
0000
0001
0000
1000
0001
,
0000
0001
0000
0100
0000
0100
0000
0100
0010
0100
0010
0000
1000
0000
0100
0000
,
1000
0010
0100
0001
1000
0000
0000
0010
1000
0000
0000
0000
0101
0000
0000
0000
,
1010
0000
0000
1000
0100
0000
0000
0000
0011
0000
0000
0001
0100
0000
0000
0000
,
1010
0000
0000
2000
0002
0000
0000
0000
3003
0000
0000
0000
0000
0000
0000
0000
;

//---------------dance-single - ----------------
#NOTES:
     dance-single:
     :
     Hard:
     7:
     0.405794,0.387736,0.359804,0.189371,0.142028,300.000000,262.000000,38.000000,20.000000,0.000000,0.000000,0.405794,0.387736,0.359804,0.189371,0.142028,300.000000,262.000000,38.000000,20.000000,0.000000,0.000000:
1000
0000
0000
0000
0110
0000
0000
0000
0100
0000
0000
1000
0001
0000
0000
0000
,
0100
0000
0001
0000
1000
0000
1000
0000
0001
0000
0000
0100
0001
0000
0000
0000
,
0010
0010
0110
0000
1000
1000
1001
0000
,
0010
0010
0011
0000
1000
1000
0100
1000
,
0010
0100
0010
1000
0001
0000
1001
0000
,
0100
0010
0100
0001
0200
0000
1300
0000
,
0001
0010
0001
0100
0001
0000
1001
0000
,
0010
0100
1000
0001
0010
0100
1000
0000
,
0001
0000
1000
0001
0000
0000
0000
0000
0200
0000
0000
0000
0310
0000
0200
0000
,
0000
0300
0000
0000
1001
0000
0110
0000
,
0100
0000
0001
0100
0000
0000
0000
0000
0002
0000
0000
0000
1003
0000
0002
0000
,
0000
0000
0000
0200
0000
0000
0303
0000
,
0001
0000
1000
0000
0100
0000
0010
0001
0000
0000
0000
0000
1001
0000
0000
0000
,
1000
0000
0001
0000
0010
0000
0100
0000
1000
0000
0000
0001
1000
0000
0000
0000
,
0010
0000
1000
0000
0100
0000
0010
0001
0000
0000
0000
0000
1001
0000
0000
0000
,
0100
0000
0001
0000
0010
0000
0100
0000
1000
0000
0000
0001
1000
0000
0000
0000
,
0010
1000
0010
0100
0010
0010
0110
0000
,
0100
0001
1000
0010
1000
1000
1000
0000
,
0011
0000
0000
0000
0101
0000
0000
0000
0010
0000
0000
0001
0100
0000
0000
0000
,
0010
0000
0000
1000
0100
0000
0000
0000
0010
0000
0000
0001
0100
0000
0000
0000
,
0101
0000
0000
0110
0000
0000
2020
0000
0000
0000
0000
0000
3030
0000
0000
0000
,
0010
1000
0001
0000
0100
0001
1000
0010
,
1010
0000
0000
0110
0000
0000
0202
0000
0000
0000
0000
0000
0303
0000
0000
0000
,
0001
1000
0001
1000
0010
0100
0010
0000
,
0110
0000
0000
1010
0000
0000
2200
0000
0000
0000
0000
0000
3300
0000
0000
0000
,
1000
0100
0010
0000
0001
0010
0100
0010
,
0110
0000
0000
0011
0000
0000
0202
0000
0000
0000
0000
0000
0303
0000
0000
0000
,
0010
1000
0010
1000
0100
0010
0001
0000
,
0100
0010
1000
0000
2002
0000
0000
0000
,
0000
0000
0000
0000
3003
0000
0000
0010
0100
0000
0001
0000
1000
0000
0010
0100
,
0000
0000
0000
0000
0000
0000
0000
0001
0010
0000
0100
0000
1000
0000
0100
0000
,
0010
0000
0010
0000
0011
0000
0000
0000
0100
0000
0010
0000
1000
0000
0100
0010
,
0000
0000
0000
0000
0000
0000
0000
0010
0100
0000
1000
0000
0010
0000
0100
0000
,
1000
1000
1100
0000
0001
0010
0001
0100
,
0001
0001
1000
0001
1000
0100
1000
0010
,
0100
0100
0100
0000
1010
0000
1100
0000
,
0010
0000
0000
1000
0100
0000
0000
0000
0010
0000
0000
0001
0100
0000
0000
0000
,
0010
0000
0000
2000
0002
0000
3003
0000
0100
0000
0001
0000
1000
0000
0010
0100
,
0000
0000
1001
0000
0100
0001
1000
0010
,
1000
0000
0000
0100
1000
0000
0000
0000
0001
0000
1000
0000
0010
0000
0100
0001
,
0000
0000
1001
0000
0010
0100
0010
0001
,
0010
0000
0000
0100
0010
0000
0000
0000
1000
0000
0100
0000
0010
0000
0001
0000
,
0101
0000
1001
0000
1000
0100
0010
0100
,
1100
1001
0011
0110
,
0100
0000
0000
1000
0010
0000
0000
0000
0100
0000
0000
0001
0010
0000
0000
0000
,
0100
0000
0000
2000
0020
0000
0000
0000
3030
0000
0000
0000
0000
0000
0000
0000
;

//---------------dance-single - ----------------
#NOTES:
     dance-single:
     :
     Medium:
     5:
     0.340867,0.364183,0.246182,0.056811,0.023671,252.000000,226.000000,26.000000,6.000000,0.000000,0.000000,0.340867,0.364183,0.246182,0.056811,0.023671,252.000000,226.000000,26.000000,6.000000,0.000000,0.000000:
0010
1000
0001
0010
,
0000
0000
0000
0000
0010
0000
0100
0000
0010
0000
0000
0010
0000
0000
0010
0000
,
0000
0000
0100
0001
0100
0000
1000
0001
,
1000
0000
0010
1000
0010
0000
0100
0010
,
0100
0000
0001
0010
0100
0000
0000
0000
,
1000
0100
0010
0001
1000
0000
0001
0000
,
0010
0100
0001
1000
0001
0000
1000
0000
,
0100
0010
1000
0001
0100
0000
0010
0000
,
1000
0100
1000
0000
0010
0000
0001
0100
,
0000
0010
0100
0001
,
0010
0001
0010
0000
0001
0000
0100
0020
,
0000
0000
0000
2030
0000
0000
3000
0000
,
1000
0100
1000
0100
0010
0000
0001
0000
,
0010
0001
0010
0001
0100
0000
0000
0000
,
0010
1000
0010
1000
0001
0000
0100
0000
,
0001
0010
0001
0010
1000
0000
0000
0000
,
0010
0100
0001
0000
0011
0000
0100
0000
,
0010
1000
0100
0000
1100
0000
0010
0000
,
1000
0001
0101
0101
,
1010
1010
1001
1001
,
0001
0000
0000
0001
0000
0000
0002
0000
0000
0000
0000
0000
0000
0000
0000
0000
,
1003
0100
1000
0000
0100
0000
0010
0100
,
0010
0000
0000
0010
0000
0000
0020
0000
0000
0000
0000
0000
0000
0000
0000
0000
,
0031
1000
0001
1000
0001
0000
0100
0010
,
0100
0000
0000
0100
0000
0000
0200
0000
0000
0000
0000
0000
0000
0000
0000
0000
,
0310
1000
0100
0000
0010
0000
1000
0001
,
1000
0000
0000
1000
0000
0000
2000
0000
0000
0000
0000
0000
0000
0000
0000
0000
,
3010
0100
0010
0100
0010
0000
1000
0000
,
0001
0000
0100
0000
0001
0010
0100
1000
,
0100
0010
0001
0000
0100
0000
1001
0000
,
0010
0100
0001
0000
0100
0000
1001
0000
,
0010
1000
0100
0000
1000
0000
0110
0000
,
0001
1000
0100
0000
1000
0000
0110
0000
,
0100
0001
0010
0000
0001
0100
0010
0100
,
0001
0000
0000
0000
1000
0010
0100
0010
,
1000
0000
0001
1000
,
1010
0101
0011
1100
,
1001
0000
0110
0000
0010
0100
0010
0100
,
0001
0000
1000
0000
0100
1000
0100
1000
,
0010
0100
0010
0000
0100
0001
0100
0001
,
1000
0000
0010
0000
1000
0100
1000
0100
,
0010
0001
0010
0000
0001
1000
0100
0000
,
1000
0000
1010
0000
0100
0001
1000
0000
,
0001
0011
0100
1000
,
1010
1010
0110
0110
,
0101
0101
0000
0000
;

//---------------dance-single - ----------------
#NOTES:
     dance-single:
     :
     Easy:
     3:
     0.175844,0.192803,0.009469,0.047343,0.000000,130.000000,129.000000,1.000000,5.000000,0.000000,0.000000,0.175844,0.192803,0.009469,0.047343,0.000000,130.000000,129.000000,1.000000,5.000000,0.000000,0.000000:
0001
0010
0100
1000
,
0000
1000
0001
1000
,
0000
0001
0000
0001
,
0000
0001
0000
0001
,
0100
0001
0000
0000
,
0010
1000
0000
0100
,
1000
0010
0000
0000
,
0100
0001
0000
1000
,
0001
1000
0010
0100
,
0000
0000
0001
0001
,
0100
0010
1000
0100
,
0000
0000
0000
0000
,
0001
0010
0000
0000
,
0100
1000
0010
0100
,
0001
1000
0000
0000
,
0010
0100
0001
0010
,
0100
0010
0001
0001
,
1000
0010
0100
0000
,
0001
1000
0010
0010
,
1000
1000
0001
0001
,
0020
0000
0000
0000
,
0031
0100
0001
0100
,
0002
0000
0000
0000
,
1003
0010
1000
0010
,
2000
0000
0000
0000
,
3001
1000
0010
0100
,
0020
0000
0000
0000
,
1030
1000
0001
0010
,
0001
0100
0002
0000
,
0000
0003
1000
0100
,
1000
0000
0010
0001
,
0100
0000
0001
1000
,
0000
0000
0100
0010
,
1000
0000
0010
1000
,
0010
0100
0001
1000
,
0010
0000
0000
0000
,
0000
0000
0000
0000
,
0000
1001
0100
0001
,
1000
0000
0010
0100
,
0001
0100
1000
0010
,
0100
0000
0010
1000
,
0001
0010
0001
0100
,
0100
0010
0100
0001
,
1000
0000
0010
0100
,
1000
1000
0001
0001
,
0100
0100
0000
0000
;

//---------------dance-single - ----------------
#NOTES:
     dance-single:
     :
     Beginner:
     1:
     0.060869,0.085217,0.000000,0.037874,0.000000,45.000000,45.000000,0.000000,4.000000,0.000000,0.000000,0.060869,0.085217,0.000000,0.037874,0.000000,45.000000,45.000000,0.000000,4.000000,0.000000,0.000000:
0100
0000
1000
0000
,
0000
0001
0000
0000
,
0000
0000
0000
0000
,
0000
0000
0000
0000
,
0010
0000
0000
0000
,
0001
0000
0000
0000
,
1000
0000
0000
0000
,
0100
0000
0000
0000
,
1000
0000
0001
0000
,
0000
0000
0000
0000
,
0001
0000
1000
0000
,
0000
0000
0000
0000
,
0010
0000
0000
0000
,
0100
0000
0000
0000
,
0001
0000
0000
0000
,
0010
0000
0000
0000
,
1000
0000
0000
0000
,
0001
0000
0000
0000
,
0000
0000
0010
0000
,
0010
0000
0010
0000
,
0002
0000
0003
0000
,
0000
0000
0000
0000
,
2000
0000
3000
0000
,
0000
0000
0001
0000
,
0020
0000
0030
0000
,
0000
0000
0000
0000
,
0200
0000
0300
0000
,
0000
0000
1000
0000
,
0001
0000
1000
0000
,
0000
0000
0010
0000
,
0000
0000
0100
0000
,
0000
0000
0001
0000
,
0000
0000
0010
0000
,
0000
0000
1000
0000
,
0000
0000
0001
0000
,
0000
0000
1000
0000
,
0000
0000
0000
0000
,
0000
0001
0001
0000
,
0000
0000
0010
0000
,
0000
0000
0100
0000
,
0000
0000
0001
0000
,
0000
0000
0100
0000
,
0000
0000
1000
0000
,
0000
0000
0000
0000
,
0010
0000
0010
0000
,
0010
0000
0000
0000
;

//---------------dance-double - ----------------
#NOTES:
     dance-double:
     :
     Easy:
     4:
     0.240771,0.280032,0.113622,0.160965,0.000000,178.000000,166.000000,12.000000,17.000000,0.000000,0.000000,0.240771,0.280032,0.113622,0.160965,0.000000,178.000000,166.000000,12.000000,17.000000,0.000000,0.000000:
00000010
00000100
00000001
00001000
,
00000000
00000010
00000100
00000001
,
00001000
00000200
00000300
00020000
,
00030000
00002000
00003000
00200000
,
01300000
10000000
01000000
00000000
,
10000000
00100000
10000000
00010000
,
01000000
00001000
01000000
00000000
,
00001000
00010000
00001000
00010000
,
00000100
00000020
00000031
00001000
,
00000010
00000000
00010000
00010000
,
00001000
00000000
00200000
00000000
01300000
00000000
10000000
00020000
,
00000000
00000000
00000000
02030000
00000000
00000000
00000000
00000000
,
03100000
10000000
01010000
00000000
,
10000000
01000000
00110000
00010000
,
10000000
01000000
00010000
00000000
,
00001000
00000100
00000001
00001001
,
00001000
00000010
00001000
00000000
00000001
00000000
00000001
00000000
,
00000001
00000100
00000001
00000000
00001000
00000000
00001000
00000000
,
00000001
00000010
00001000
00010000
,
00100000
10000000
01000000
00100000
,
00020000
00000000
00000000
10030000
00000000
00000000
00000000
00000000
,
10000000
00000000
11000000
00000000
00010000
00100000
00010000
00000000
,
00200000
00000000
00000000
00301000
00000000
00000000
00000000
00000000
,
00001000
00010000
00001000
00000000
00010000
00000100
00010000
00000010
,
00000200
00000000
00000000
00000310
00000000
00000000
00000000
00000000
,
00001000
00000000
00000101
00000000
00000010
00001000
00000010
00010000
,
00002000
00000000
00000000
00103000
00000000
00000000
00000000
00000000
,
01000000
00000000
10000000
00000000
00010000
00100000
00010000
00000000
,
01000000
00001000
01000000
00000000
00022000
00000000
00000000
00000000
,
00000000
00033000
00001000
00010000
,
00000100
00000000
00010000
00001000
,
02000000
03000000
00001000
00010000
,
00000010
00000000
00010000
00001000
,
00100000
00000000
00001000
00010000
,
00001100
00010000
00001000
00010000
,
01001000
00000000
00100000
00100000
,
01000000
01000000
10000000
10000000
,
00010000
00000000
00010000
10000000
00010000
00000000
01000000
00000000
,
00100000
00000000
00010000
00001000
,
00000100
00000000
00000001
00000000
00001000
00000010
00001000
00000000
,
00000001
00000000
00000100
00000000
00000010
00001000
00000010
00000000
,
00000100
00001000
00010000
01000000
,
10000000
00000000
00100000
00010000
,
00001000
00000010
00000001
00001100
,
00000010
00010100
00001000
00011000
,
00100000
02200000
03300000
00000000
;

//---------------dance-double - ----------------
#NOTES:
     dance-double:
     :
     Medium:
     4:
     0.296230,0.278493,0.142028,0.170434,0.037874,219.000000,204.000000,15.000000,18.000000,0.000000,0.000000,0.296230,0.278493,0.142028,0.170434,0.037874,219.000000,204.000000,15.000000,18.000000,0.000000,0.000000:
10000000
00000000
01000000
00000000
00100000
00010000
10000000
00000000
,
00000000
00000000
00000000
00000000
00100000
00000000
01000000
00000000
00010000
00000000
00000000
10000000
00000000
00000000
00020000
00000000
,
00000000
00230000
00300000
00002000
,
00003000
00000000
00020000
00000000
00030000
00000000
00000010
00000100
,
00000001
00000010
00000001
00000010
00000001
00000000
00000000
00000000
,
00001000
00000100
00001000
00000100
00001000
00000000
00000010
00000000
,
00010000
00001000
00010000
00001000
00010000
00000000
00000000
00000000
,
00001000
00010000
00001000
00010000
00001000
00000000
00100000
00000000
,
01000000
00000000
10100000
00000000
01000000
00000000
00020000
20000000
,
00000000
30030000
00100000
00001000
,
00010000
00000000
00000110
00000000
00000100
00000000
00000001
00002000
,
00000000
00003020
00000000
00000230
00000000
00000302
00000000
00000013
,
00000100
00001000
00000100
00000000
00010000
00000000
00011000
00000000
,
00001000
00100000
00001000
00000000
00100000
00000000
01000000
00000000
,
10000000
00010000
10000000
00000000
00100000
00000000
11000000
00000000
,
00100000
01000000
00100000
00000000
01000000
00000000
00011000
00000000
,
00010000
00000100
00001000
00000000
00000010
00000000
00000100
00000001
,
00001000
00000001
00000200
00000310
,
00010000
00001100
00010000
00001000
,
00010000
00100000
10000000
00010000
,
01000000
00000000
00000000
01000000
00000000
00000000
02000000
00000000
00000000
00000000
00000000
00000000
00000000
00000000
00000000
00000000
,
03001000
00000000
00010000
00000000
00000100
00000010
00000001
00001000
,
00001000
00000000
00000000
00001000
00000000
00000000
00002000
00000000
00000000
00000000
00000000
00000000
00000000
00000000
00000000
00000000
,
00003001
00000100
00000010
00001000
00000100
00010000
00001000
00000000
,
00010000
00000000
00000000
00010000
00000000
00000000
00020000
00000000
00000000
00000000
00000000
00000000
00030000
00000000
00000000
00000000
,
00001000
00100000
01000000
00000000
10000000
00000000
00100000
01000000
,
01000000
00000000
00000000
01000000
00000000
00000000
02000000
00000000
00000000
00000000
00000000
00000000
00000000
00000000
00000000
00000000
,
13000000
00010000
10000000
00010000
10000000
00000000
00010000
00000000
,
01000000
00001000
00022000
00000000
,
00000000
00033000
00010000
00000010
,
00000100
00001001
00000100
00010000
,
00001000
00100000
01000000
10000000
,
00100000
01010000
00100000
01000000
,
10000000
00010000
01000000
00000000
00010000
00000000
00100000
00000000
,
00011000
00000000
00000100
00000000
00010000
00000000
00000010
00000100
,
00000001
00001000
00000100
00000100
,
00010000
00001000
00001000
00100000
,
00100000
00000000
02000000
00000000
13000000
00010000
01000000
00000000
,
00010000
00000000
00110000
00000000
00100000
00001000
00010000
00000000
,
00000100
00000000
00000000
00001000
00000000
00000000
00000000
00000000
00000010
00000000
00000100
00000000
00000001
00000000
00000000
00000000
,
00001000
00000000
00000101
00000000
00000010
00010000
00001000
00000000
,
00010000
00000000
00000000
00001000
00000000
00000000
00000000
00000000
00100000
00000000
01000000
00000000
00100000
00000000
00000000
00000000
,
01000000
10000000
01000000
00000000
10000000
00010000
01000000
00000000
,
00010000
00000000
00000000
00100000
00000000
00000000
00000000
00000000
00001000
00000000
00000000
00000000
00010000
00000000
00000000
00000000
,
00000100
00000110
00000001
00001001
,
00000100
00010100
00000000
00000000
;

//---------------dance-double - ----------------
#NOTES:
     dance-double:
     :
     Hard:
     7:
     0.382799,0.344655,0.123091,0.236713,0.246182,283.000000,270.000000,13.000000,25.000000,0.000000,0.000000,0.382799,0.344655,0.123091,0.236713,0.246182,283.000000,270.000000,13.000000,25.000000,0.000000,0.000000:
00000020
00000000
00000000
00000000
00000230
00000000
00000000
00000000
00000301
00000000
00000000
00000001
00001000
00000000
00000000
00000000
,
00000000
00000000
00000000
00000000
00000010
00000000
00000100
00000000
00000001
00000000
00000000
00001000
00000000
00000000
00000002
00000000
,
00000000
00000203
00000300
00002000
,
00003000
00000000
00020000
00000000
00030000
00000000
01000000
10000000
,
00010000
01000000
00010000
00100000
00010000
00000000
10000000
00100000
,
01000000
00100000
10000000
01000000
00100000
00001000
00010000
00000100
,
00001000
00000010
00001000
00000100
00001000
00000000
00000000
00000001
,
00000100
00000010
00000100
00000001
00000100
00000010
00000100
00000001
,
00001000
00000000
00000010
00002000
00000000
00000000
00003001
00000000
00000001
00000000
00000000
00000000
00000002
00000000
00002000
00000000
,
00000000
00003003
00000000
00000010
00000100
00000000
00001001
00000000
,
00000100
00000000
00010000
00000200
00000000
00000000
00001300
00000000
00000100
00000000
00000000
00000000
00010000
00000000
00002000
00000000
,
00000000
00203000
00000000
02300000
00000000
23000000
00000000
30010000
,
01000000
00000000
00100000
00000000
01000000
00000000
00010000
10000000
00000000
00000000
00000000
00000000
00000000
00000000
00000000
00100000
,
01000000
00000000
00100000
00000000
10000000
00000000
00010000
00000000
01000000
00000000
00000000
01000000
00000000
00000000
00000000
00001000
,
00010000
00000000
00001000
00000000
00010000
00000000
00000010
00010000
00000000
00000000
00000000
00000000
00000000
00000000
00000000
00000010
,
00000100
00000000
00000001
00000000
00000100
00000000
00000010
00000000
00001000
00000000
00000000
00000100
00000000
00000000
00000000
00000100
,
00010000
00000000
00001000
00000000
00100000
00000000
01000000
00100000
00000000
00000000
00000000
00000000
00010000
00000000
00000000
00000000
,
10000000
00000000
00100000
00000000
01000000
00000000
00100000
00000000
10000000
00000000
00000000
00010000
00000000
00000000
00000000
00000000
,
20000000
00000000
00000000
00000000
30020000
00000000
00000000
00000000
00130000
00000000
00000000
00100000
00001000
00000000
00000000
00000000
,
00001000
00000000
00000000
00001000
00010000
00000000
00000000
00000000
00010000
00000000
00000000
00010000
00000100
00000000
00000000
00000000
,
00000110
00000000
00000000
00000011
00000000
00000000
00002002
00000000
00000000
00000000
00000000
00000000
00000000
00000000
00003003
00000000
,
00000100
00000000
00000010
00000000
00000001
00000000
00000000
00000001
00000100
00000000
00000010
00000000
00001000
00000000
00000000
00000000
,
00001100
00000000
00000000
00010100
00000000
00000000
00022000
00000000
00000000
00000000
00000000
00000000
00033000
00000000
00000000
00100000
,
00010000
00100000
00010000
00100000
00010000
01000000
00010000
00000000
,
01100000
00000000
00000000
10100000
00000000
00000000
20020000
00000000
00000000
00000000
00000000
00000000
30030000
00000000
00000000
10000000
,
01000000
00000000
00100000
00000000
00010000
00000000
00000000
00010000
01000000
00000000
00100000
00000000
10000000
00000000
00000000
00000000
,
11000000
00000000
00000000
01100000
00000000
00000000
00220000
00000000
00000000
00000000
00000000
00000000
00330000
00000000
00000000
00010000
,
01000000
00010000
10000000
01000000
00100000
00001000
00010000
00000000
,
00001000
00010000
00000010
00000000
00000100
00000010
00001000
00000010
,
00000100
00000000
00000001
00000000
00000010
00000000
00000000
00000100
00001000
00000000
00000100
00000000
00001000
00000000
00000010
00001000
,
00000000
00000000
00000000
00000000
00000000
00000000
00000000
00000001
00000100
00000000
00000010
00000000
00010000
00000000
00001000
00000000
,
01000000
00000000
00000000
00100000
00000000
00000000
00000000
00100000
01000000
00000000
00010000
00000000
01000000
00000000
00100000
10000000
,
00000000
00000000
00000000
00000000
00000000
00000000
00000000
10000000
01000000
00000000
00100000
00000000
00001000
00000000
00010000
00000000
,
00000100
00000000
00000000
00000010
00000000
00000000
00000000
00000010
00000001
00000000
00001000
00000000
00000010
00000000
00000100
00000010
,
00000000
00000000
00001000
00000000
00000001
00000100
00000010
00000100
,
00000001
00000000
00000000
00001000
00000000
00000000
00000000
00000000
00000100
00000000
00000000
00000000
00010000
00000000
00000000
00000000
,
00001000
00000000
00000000
00001000
00100000
00000000
00000000
00000000
00100000
00000000
00000000
00100000
01000000
00000000
00000000
00000000
,
01000000
00000000
00000000
01000000
10000000
00000000
00000000
10000000
00010000
00000000
01000000
00000000
00100000
00000000
10000000
00100000
,
00000000
00010000
00000000
00001000
00000010
00000001
00000100
00000010
,
00001000
00000000
00000000
00000001
00000000
00000000
00000000
00000001
00000100
00000000
00000010
00000000
00001000
00000000
00000001
00000000
,
00000010
00000000
00000001
00000100
00000000
00000000
00001000
00000000
00010000
00000000
01000000
00000000
10000000
00000000
00100000
00000000
,
01000000
00000000
00000000
00010000
00000000
00000000
00000000
00010000
10000000
00000000
00100000
00000000
01000000
00000000
00100000
10000000
,
00000000
00000000
01000000
00000000
00100000
00001000
00010000
00000100
,
00001000
00000000
00000000
00000010
00000000
00000000
00000000
00000000
00000100
00000000
00000000
00000000
00000100
00000000
00000000
00000000
,
00000010
00000000
00000000
00000010
00010000
00000000
00000000
00000000
00010000
00000000
00000000
00010000
00001000
00000000
00000000
00000000
,
00001000
00000000
00000000
00001000
02000000
00000000
00000000
00000000
03000000
00000000
00000000
00000000
00000000
00000000
00000000
00000000
;

//---------------dance-double - ----------------
#NOTES:
     dance-double:
     :
     Challenge:
     9:
     0.541059,0.516982,0.435552,0.198839,0.587049,400.000000,354.000000,46.000000,21.000000,0.000000,0.000000,0.541059,0.516982,0.435552,0.198839,0.587049,400.000000,354.000000,46.000000,21.000000,0.000000,0.000000:
// measure 0
00010000
00001000
00010000
00000000
00000100
00000000
00001000
00000000
00000010
00000000
00000000
00000010
00000100
00000000
00000000
00000100
,  // measure 1
00000000
00000001
00001000
00000000
00000010
00000000
00000100
00000000
00001000
00000000
00000000
00010000
00000000
00000000
00000000
01000000
,  // measure 2
00000000
10000000
01000000
00000000
10000000
00000000
00100000
00000000
01010000
00000000
00000000
00100000
10000000
00000000
00000000
10000000
,  // measure 3
00000000
00010000
10000000
00000000
01000000
00000000
00010000
00000000
00001000
00000000
00000000
00000010
00000001
00000000
00000100
00000000
,  // measure 4
00001020
00000000
00000130
00000000
00000021
00000000
00000130
00000000
00001001
00000000
00000000
00000010
00000100
00000000
00000000
00000100
,  // measure 5
00000020
00000000
00000130
00000000
00012000
00000000
00103000
00000000
00010000
00000000
00000000
01000000
00100000
00000000
00000000
10000000
,  // measure 6
00020000
00000000
01030000
00000000
10200000
00000000
01300000
00000000
00110000
00000000
00000000
00010000
10000000
00000000
00000000
01000000
,  // measure 7
00010000
00000000
00001000
00000000
00000010
00000000
00000001
00000000
00000100
00000000
00000010
00001000
00000010
00000000
00000100
00000001
,  // measure 8
00001000
00000000
00000000
00001000
00000010
00000000
00000100
00000000
00000001
00000000
00000010
00000000
00001000
00000000
00010000
00001000
,  // measure 9
00000000
00001000
00100000
00000000
01000000
00000000
10000000
00000000
00110000
00000000
00000000
00000000
01100000
00000000
00000000
10000000
,  // measure 10
00010000
00000000
01000000
00100000
00000000
00000000
00010000
00000000
00001000
00000000
00000010
00000000
00000001
00000000
00000201
00000000
,  // measure 11
00000300
00000000
00001020
00000000
00000030
00000000
00012000
00000000
00003000
00000000
00210000
00000000
00300000
00000000
00000000
00010000
,  // measure 12
00100000
01000000
00100000
00000000
01000000
00000000
10000000
00100000
00000000
00000000
00000000
01000000
00010000
00000000
00000000
00010000
,  // measure 13
01000000
00100000
01000000
00000000
00001000
00000000
00010000
00000000
00000100
00000000
00000000
00010100
00000000
00000000
00000000
00010000
,  // measure 14
00000010
00000100
00000001
00000000
00000010
00000000
00000100
00001000
00000000
00000000
00000000
00001000
00000010
00000000
00000000
00000010
,  // measure 15
00000100
00000001
00000100
00000000
00000010
00000000
00001000
00000000
00000010
00000000
00000000
00000100
00000000
00000001
00000000
00001000
,  // measure 16
00000001
00000100
00000010
00000000
00000100
00000000
00001000
00010000
00000000
00010000
00000000
01000000
00000000
01000000
00000000
10000000
,  // measure 17
00100000
01000000
00010000
00000000
00100000
00000000
00010000
00000000
00110000
00000000
00000000
11000000
00000000
00000000
00000000
10000000
,  // measure 18
00100000
00000000
00000000
00000000
01010000
00000000
00000000
00000000
10010000
00000000
00000000
01000000
00100000
00000000
00000000
00000000
,  // measure 19
00101000
00000000
00000000
00001000
00010000
00000000
00000000
00000000
00010100
00000000
00000000
00000100
00001000
00000000
00000000
00000000
,  // measure 20
00001010
00000000
00000000
00000101
00000000
00000000
00002020
00000000
00000000
00000000
00000000
00000000
00003030
00000000
00000000
00000000
,  // measure 21
00000001
00000000
00000100
00000000
00001000
00000000
00000000
00001000
00010000
00000000
01000000
00000000
10000000
00000000
00100000
00000000
,  // measure 22
10100000
00000000
00000000
01010000
00000000
00000000
20200000
00000000
00000000
00000000
00000000
00000000
30300000
00000000
00000000
10000000
,  // measure 23
00010000
10000000
00010000
10000000
01000000
00010000
00001000
00000100
,  // measure 24
00000101
00000000
00000000
00001001
00000000
00000000
00002020
00000000
00000000
00000000
00000000
00000000
00003030
00000000
00000000
00000001
,  // measure 25
00000100
00000000
00000001
00000000
00001010
00000000
00000000
00001000
00000010
00000000
00001000
00000000
00000101
00000000
00000001
00000000
,  // measure 26
00001001
00000000
00000000
00010100
00000000
00000000
00022000
00000000
00000000
00000000
00000000
00000000
00033000
00000000
00000000
00100000
,  // measure 27
01000000
10000000
01000000
10000000
01100000
00010000
10000000
00000000
,  // measure 28
01100000
00000000
10000000
00000000
00010000
00000000
00000000
00000000
10000000
01000000
00010000
01000000
10000000
00100000
00010000
00100000
,  // measure 29
10000000
01000000
00010000
00001000
00000100
00000000
00000000
00000001
00001000
00000001
00001000
00000000
00000010
00000000
00000100
00000010
,  // measure 30
00000000
00000000
00000100
00000010
00000000
00000000
00000000
00001000
00000010
00001000
00000010
00000000
00000100
00000000
00000001
00000000
,  // measure 31
00000010
00000100
00000010
00000100
00000010
00000000
00000000
00000100
00010000
00000100
00010000
00000000
00001000
00000000
00100000
01000000
,  // measure 32
00000000
00000000
00100000
01000000
00000000
00000000
00000000
01000000
10000000
01000000
10000000
00000000
00100000
00000000
01000000
00000000
,  // measure 33
00010000
00000000
00000000
10000000
00000000
00010000
00000000
10000000
00100000
01000000
00100000
00000000
01000000
00000000
00010000
10000000
,  // measure 34
00000000
00010000
00000000
01000000
00000000
01000000
00000000
00000000
00100000
10000000
00100000
00000000
00010000
00000000
00001000
00000000
,  // measure 35
00000010
00000000
00000000
00000001
00000000
00000000
00000000
00000100
00000010
00000000
00000000
00000000
00001010
00000000
00000000
00000000
,  // measure 36
00001100
00000000
00000000
00000010
00000001
00000000
00000000
00000000
00000101
00000000
00000000
00000010
00010000
00000000
00000000
00000000
,  // measure 37
00011000
00000000
00000000
00100000
01000000
10000000
01000000
10000000
01000000
00100000
00010000
00000000
01000000
00000000
00100000
10000000
,  // measure 38
00000000
00000000
01000000
00100000
00000000
00000000
00000000
00001000
00010000
00001000
00000100
00000000
00000001
00000000
00001000
00000000
,  // measure 39
00001010
00000000
00000000
00000101
00000000
00000000
00000000
00000001
00001000
00000001
00001000
00000000
00000001
00000000
00000100
00001000
,  // measure 40
00000000
00000000
00010000
01000000
00000000
00000000
00000000
10000000
00100000
01000000
00010000
00000000
00100000
00000000
01000000
00000000
,  // measure 41
11000000
00000000
00000000
00110000
00000000
10000000
00000000
00010000
01000000
00100000
10000000
00000000
01000000
00000000
00010000
00001000
,  // measure 42
00000000
00000100
00000000
00000001
00000000
00001000
00000000
00000010
00000100
00000010
00000100
00000000
00000001
00000000
00001000
00000000
,  // measure 43
00010100
00000000
00000000
00001010
00000000
00000000
00000000
00000001
00000200
00000000
00000000
00000000
00002300
00000000
00000000
00000000
,  // measure 44
00013000
00000000
00000000
00010000
01000000
00000000
00000000
00000000
10000000
00000000
00000000
00100000
00010000
00000000
00000000
00000000
,  // measure 45
00001000
00000000
00000000
00000010
00000002
00000000
00000000
00000000
00000003
00000000
00000000
00000000
00000000
00000000
00000000
00000000
;
