#VERSION:0.83;
#TITLE:Inspector Norse;
#SUBTITLE:;
#ARTIST:Todd Terje;
#TITLETRANSLIT:;
#SUBTITLETRANSLIT:;
#ARTISTTRANSLIT:;
#GENRE:House;
#ORIGIN:;
#CREDIT:;
#BANNER:inspectornorse-bn.png;
#BACKGROUND:inspectornorse-bg.png;
#PREVIEWVID:;
#JACKET:;
#CDIMAGE:;
#DISCIMAGE:;
#LYRICSPATH:;
#CDTITLE:;
#MUSIC:Inspector Norse.ogg;
#OFFSET:-0.040000;
#SAMPLESTART:55.900005;
#SAMPLELENGTH:12.000000;
#SELECTABLE:YES;
#BPMS:0.000=120.000;
#STOPS:;
#DELAYS:;
#WARPS:;
#TIMESIGNATURES:0.000=4=4;
#TICKCOUNTS:0.000=4;
#COMBOS:0.000=1;
#SPEEDS:0.000=1.000=0.000=0;
#SCROLLS:0.000=1.000;
#FAKES:;
#LABELS:0.000=Song Start;
#BGCHANGES:;
#KEYSOUNDS:;
#ATTACKS:
;

//---------------dance-single - ----------------
#NOTEDATA:;
#CHARTNAME:;
#STEPSTYPE:dance-single;
#DESCRIPTION:;
#CHARTSTYLE:;
#DIFFICULTY:Hard;
#METER:8;
#RADARVALUES:0.501721,0.491138,0.010975,0.021950,0.449981,320.000000,319.000000,1.000000,2.000000,0.000000,0.000000,0.000000,0.000000,0.000000,0.501721,0.491138,0.010975,0.021950,0.449981,320.000000,319.000000,1.000000,2.000000,0.000000,0.000000,0.000000,0.000000,0.000000;
#CREDIT:;
#NOTES:
0000
0000
0000
0000
,
0000
0000
0000
0000
,
0000
0000
0010
0100
0000
0000
0010
1000
0000
0000
0010
0100
0000
0000
0010
0001
,
0000
0000
0010
1000
0000
0000
0010
0000
0100
0000
0010
0000
1000
0000
0001
0000
,
0010
0000
0000
0100
0000
0000
0010
0000
0010
0000
0001
1000
0000
0000
0000
0000
,
0010
0000
0000
1000
0000
0000
0000
0000
0100
0000
0010
0000
0100
0000
1000
0000
,
0001
0000
0000
0010
0000
0000
0100
0000
0100
0000
1000
0010
0000
0000
0000
0000
,
0100
0000
0000
0001
0000
0000
0000
0000
0010
0000
0001
0000
1000
0000
0100
0000
,
0010
0000
0000
0100
0000
0000
1000
0000
1000
0000
0001
0010
0000
0000
0000
0000
,
0100
0000
0000
1000
0000
0000
0000
0000
0010
0000
0100
0000
0001
0000
1000
0000
,
0100
0000
0000
0010
0000
0000
0001
0000
1000
0000
0001
0010
0000
0000
0000
0000
,
0100
0000
0000
1000
0000
0000
0000
0000
1000
0000
0001
0000
0010
0000
0100
0000
,
0010
0000
0001
0010
0000
0000
0100
0000
0100
0000
1000
0001
0000
0000
0000
0000
,
0010
0000
1000
0010
0000
0000
0000
0000
0100
0000
0001
0000
1000
0000
0100
0000
,
0001
0000
0100
1000
0000
0000
0010
0000
0100
0000
0001
0010
0000
0000
0000
0000
,
0001
0000
0010
1000
0000
0000
0000
0000
0010
0000
0001
0000
0100
0000
0010
0000
,
0100
0000
0000
0100
0000
0000
0001
0000
0010
0000
0000
0010
0001
0000
0000
0000
,
0010
0000
0000
0010
1000
0000
0000
0000
0010
0000
0001
0000
0001
0000
0010
0000
,
1000
0000
0000
1000
0000
0000
0010
0000
0001
0000
0000
0001
0100
0000
0000
0000
,
1000
0000
0000
1000
0100
0000
0000
0000
0010
0000
0010
0000
1000
0000
0100
0000
,
0010
0000
0100
1000
0000
0000
0100
0000
0010
0000
0001
0100
0000
0000
0100
0000
,
0010
0000
1000
0001
0000
0000
0001
0000
0100
0000
0010
0000
1000
0000
0100
0000
,
0010
0000
0100
1000
0000
0000
0001
0000
0010
0000
0100
0010
0000
0000
0010
0000
,
0001
0000
1000
0100
0000
0000
0100
0000
1000
0000
0010
0000
0100
0000
0001
0000
,
0010
0000
0100
0010
0000
0000
0001
0000
1000
0000
0100
0010
0000
0000
0010
0000
,
0100
0000
1000
0010
0000
0000
0010
0000
0100
0000
0001
0000
0010
0000
0100
0000
,
0010
0001
1000
0100
0010
1000
0010
0001
,
0100
0010
1000
0100
0010
0100
0001
0100
,
1000
0000
0010
0000
0100
0010
0000
0010
0000
0000
1000
0000
0100
0010
0000
0000
,
0001
0000
0100
0000
0001
0010
0000
0000
0001
0000
0100
0000
0001
0010
0000
0000
,
0001
0000
0100
0000
0010
1000
0000
1000
0000
0000
0100
0000
0010
0001
0000
0000
,
1000
0000
0100
0000
1000
0010
0000
0000
1000
0000
0100
0000
1000
0010
0000
0000
,
0100
0000
0010
0000
1000
0001
0000
0001
0000
0000
0100
0000
0010
1000
0000
0000
,
0010
0000
0100
0000
0010
1000
0000
0000
0010
0000
0100
0000
0010
1000
0000
0000
,
0001
0000
0010
0000
0100
0010
0000
0000
0001
0000
0100
0000
0001
1000
0000
0000
,
0100
0000
1000
0000
0100
0010
0000
0000
0100
0000
1000
0000
0100
0010
0000
0000
,
1000
0000
0001
0000
0100
0001
0000
0000
0010
0000
0100
0000
1000
0100
0000
0000
,
1000
0001
1000
0001
1000
0000
0000
0000
0001
1000
0001
1000
0001
0000
0000
0000
,
0010
0000
0100
0000
0010
1000
0000
0000
0100
0000
0001
0000
0010
0001
0000
0000
,
1000
0010
1000
0010
1000
0000
0000
0000
0001
0010
0001
0010
0001
0000
0000
1000
,
0001
0000
1000
0000
0010
0100
0000
0000
1000
0000
0100
0000
0010
0001
0000
0000
,
1000
0100
1000
0100
1000
0000
0000
0000
0001
0100
0001
0100
0001
0000
0000
0000
,
0100
0000
0010
0000
1000
0100
0000
0000
0010
0000
0001
0000
0100
0001
0000
0000
,
0010
0001
0010
0001
0010
0000
0000
0000
1000
0100
1000
0100
1000
0000
0000
0000
,
2002
0000
0000
3003
;

//---------------dance-single - ----------------
#NOTEDATA:;
#CHARTNAME:;
#STEPSTYPE:dance-single;
#DESCRIPTION:;
#CHARTSTYLE:;
#DIFFICULTY:Easy;
#METER:2;
#RADARVALUES:0.175602,0.196455,0.000000,0.010975,0.000000,112.000000,112.000000,0.000000,1.000000,0.000000,0.000000,0.000000,0.000000,0.000000,0.175602,0.196455,0.000000,0.010975,0.000000,112.000000,112.000000,0.000000,1.000000,0.000000,0.000000,0.000000,0.000000,0.000000;
#CREDIT:;
#NOTES:
0000
0000
0000
0000
,
0000
0000
0000
0000
,
0000
0000
0000
0000
,
0000
0010
0100
1000
,
0001
0000
0100
0000
,
0000
0000
0001
0010
,
0001
0000
1000
0000
,
0000
0000
0010
0100
,
0001
0000
0100
0000
,
0000
0000
0010
1000
,
0100
0000
0010
0000
,
0000
0000
1000
0100
,
0010
0000
0001
0000
,
1000
0000
0001
0010
,
0001
0000
1000
0000
,
0010
0000
1000
0100
,
1000
0000
0010
0000
,
0100
0000
0010
1000
,
0010
0000
0100
0000
,
0001
0000
0010
0001
,
0010
0100
0010
0100
,
0001
0000
1000
0000
,
0100
0010
0100
0010
,
1000
0000
0001
0000
,
0010
0001
0010
0001
,
1000
0000
0001
0000
,
1000
0000
0010
0000
,
0100
0001
1000
0010
,
1000
0000
0100
0000
,
1000
1000
0001
0001
,
0001
0000
0100
0000
,
0001
0001
1000
1000
,
1000
0000
0010
0000
,
0100
0100
0010
0010
,
0010
0000
1000
0000
,
0010
0010
0100
0100
,
0100
0000
0001
0000
,
0010
0001
1000
0001
,
0010
0000
0100
0000
,
0010
0001
0100
0001
,
0010
0000
0001
0000
,
1000
0100
0010
0100
,
1000
0000
0010
0000
,
0100
0010
1000
0010
,
0200
0000
0000
0300
;

//---------------dance-single - ----------------
#NOTEDATA:;
#CHARTNAME:;
#STEPSTYPE:dance-single;
#DESCRIPTION:;
#CHARTSTYLE:;
#DIFFICULTY:Beginner;
#METER:1;
#RADARVALUES:0.076826,0.098228,0.000000,0.010975,0.000000,49.000000,49.000000,0.000000,1.000000,0.000000,0.000000,0.000000,0.000000,0.000000,0.076826,0.098228,0.000000,0.010975,0.000000,49.000000,49.000000,0.000000,1.000000,0.000000,0.000000,0.000000,0.000000,0.000000;
#CREDIT:;
#NOTES:
0000
0000
0000
0000
,
0000
0000
0000
0000
,
0000
0000
0000
0000
,
0000
0000
0000
0000
,
0100
0000
0000
0000
,
0000
0000
0000
0000
,
0010
0000
0000
0000
,
0000
0000
0000
0000
,
1000
0000
0000
0000
,
0000
0000
0000
0000
,
0001
0000
0000
0000
,
0000
0000
0000
0000
,
0100
0000
0000
0000
,
0010
0000
0000
0000
,
1000
0000
0000
0000
,
0100
0000
0000
0000
,
0010
0000
0000
0000
,
0001
0000
0000
0000
,
0100
0000
0000
0000
,
0010
0000
0000
0000
,
1000
0000
0000
0001
,
0001
0000
0000
0000
,
0100
0000
0000
0010
,
0010
0000
0000
0000
,
1000
0000
0000
0100
,
0100
0000
0000
0000
,
0010
0000
0000
0001
,
0001
0000
0000
0000
,
0100
0000
0000
0000
,
0010
0000
1000
0000
,
0100
0000
0000
0000
,
0010
0000
0001
0000
,
0100
0000
0000
0000
,
0001
0000
1000
0000
,
0100
0000
0000
0000
,
1000
0000
0001
0000
,
0010
0000
0000
0000
,
0001
0000
0100
0000
,
0010
0000
0000
0000
,
1000
0000
0100
0000
,
0010
0000
0000
0000
,
0001
0000
0100
0000
,
1000
0000
0000
0000
,
0010
0000
0001
0000
,
2000
0000
0000
3000
;

//---------------dance-single - ----------------
#NOTEDATA:;
#CHARTNAME:;
#STEPSTYPE:dance-single;
#DESCRIPTION:;
#CHARTSTYLE:;
#DIFFICULTY:Medium;
#METER:4;
#RADARVALUES:0.293193,0.319239,0.010975,0.065851,0.000000,187.000000,186.000000,1.000000,6.000000,0.000000,0.000000,0.000000,0.000000,0.000000,0.293193,0.319239,0.010975,0.065851,0.000000,187.000000,186.000000,1.000000,6.000000,0.000000,0.000000,0.000000,0.000000,0.000000;
#CREDIT:;
#NOTES:
0000
0000
0000
0000
,
0000
0000
0000
0000
,
0000
0010
0000
0001
0000
0010
0000
0100
,
0000
0010
0000
1000
0000
0010
0000
0100
,
0010
1000
0001
1000
,
0001
1000
0100
1000
,
0010
0100
0001
0100
,
0010
1000
0010
0100
,
0001
0010
0100
1000
,
0010
0100
0001
1000
,
0100
0010
0001
1000
,
0010
0000
0100
0000
1000
0001
0001
0000
,
0010
0000
0001
0000
1000
0000
0000
0001
,
1000
0000
0010
0000
0000
0000
0000
0001
,
1000
0000
0010
0000
0100
0000
0000
0001
,
0010
0000
0001
0000
0000
0000
0000
1000
,
0100
0000
0010
0000
0100
0000
0000
1000
,
0010
0000
0100
0000
0000
0000
0000
0010
,
0100
0000
0001
0000
0010
0000
0000
0001
,
1000
0000
0010
0000
0100
0010
0010
0000
,
0100
0001
0100
0000
0010
0000
0010
0000
,
1000
0010
1000
0000
0001
0000
0001
0000
,
1000
0100
1000
0000
0100
0000
0100
0000
,
0001
0100
0001
0000
0100
0000
0100
0000
,
0010
1000
0010
0000
1000
0000
1000
0000
,
0001
0100
0001
0000
0010
0000
0010
0000
,
0001
1000
0001
0000
1000
0001
1000
0000
,
0010
0100
0010
0000
0100
0010
0100
0000
,
0020
1000
0130
0010
,
1000
0100
1000
0100
,
2000
0001
3100
0010
,
0100
0001
0100
0001
,
0200
0010
1300
0001
,
1000
0010
1000
0010
,
0002
0010
1003
0100
,
0010
0001
0010
0001
,
1000
0010
1000
0100
,
0010
0001
0010
0000
0010
0001
0010
0000
,
0001
0100
0010
1000
,
0010
1000
0010
0000
0010
1000
0010
0000
,
0100
0010
1000
0001
,
1000
0001
1000
0000
1000
0001
1000
0000
,
0001
0010
0100
0010
,
0001
1000
0001
0000
0001
1000
0001
0000
,
0202
0000
0000
0303
;

//---------------dance-double - ----------------
#NOTEDATA:;
#CHARTNAME:;
#STEPSTYPE:dance-double;
#DESCRIPTION:;
#CHARTSTYLE:;
#DIFFICULTY:Easy;
#METER:3;
#RADARVALUES:0.232046,0.241453,0.054876,0.241453,0.000000,148.000000,143.000000,5.000000,22.000000,0.000000,0.000000,0.000000,0.000000,0.000000,0.232046,0.241453,0.054876,0.241453,0.000000,148.000000,143.000000,5.000000,22.000000,0.000000,0.000000,0.000000,0.000000,0.000000;
#CREDIT:;
#NOTES:
00000000
00000000
00000000
00000000
,
00000000
00000000
00000000
00000000
,
00000000
10000000
00000000
00010000
00000000
01000000
00000000
00100000
,
00000000
10000000
00000000
00010000
00000000
01000000
00000000
00100000
,
10000000
00000000
01000000
00000000
,
00100000
00001000
00001000
00010000
,
00000100
00000000
00001000
00000000
,
00000010
00000100
00000100
00000001
,
00001000
00000000
00000100
00000000
,
00010000
00001000
00001000
00100000
,
01000000
00000000
10000000
00000000
,
00010000
01000000
01000000
00001000
,
00010000
00000010
00000100
00000000
,
00000101
00000000
00001010
00000000
,
00000001
00001000
00000100
00000000
,
00020000
00000000
00032000
00000000
,
00103000
00010000
10000000
00000000
,
11000000
00000000
00110000
00000000
,
00100000
01000000
00010000
00000000
,
00200000
00000000
00302000
00000000
,
00013000
00000010
00000100
00000100
,
00000001
00000000
00001000
00000000
,
00000100
00010000
00001000
00001000
,
00100000
00000000
01000000
00000000
,
10000000
00010000
01000000
01000000
,
00001000
00000000
00010000
00000000
,
00000100
00001000
00000010
00000010
,
00000200
00000301
00000200
00000301
,
00002000
00003010
00002000
00003100
,
00010000
00001000
00010000
00001000
,
00200000
01300000
00200000
00301000
,
00010000
00001000
00010000
00001000
,
00020000
00030010
00020000
00030100
,
00010000
00001000
00010000
00001000
,
00200000
01300000
00200000
00310000
,
00001000
00010000
00001000
00010000
,
00000200
00000310
00000002
00001003
,
00000100
00010000
00001000
01000000
,
00200000
10300000
00020000
01030000
,
00001000
00010000
00000100
00000010
,
00000002
00001003
00000200
00010300
,
00001000
00100000
01000000
10000000
,
00020000
01030000
00002000
00013000
,
00000100
00001000
00000010
00000100
,
00000110
00000000
00000000
00000000
;

//---------------dance-double - ----------------
#NOTEDATA:;
#CHARTNAME:;
#STEPSTYPE:dance-double;
#DESCRIPTION:;
#CHARTSTYLE:;
#DIFFICULTY:Medium;
#METER:5;
#RADARVALUES:0.312008,0.313889,0.010975,0.131702,0.104264,199.000000,198.000000,1.000000,12.000000,0.000000,0.000000,0.000000,0.000000,0.000000,0.312008,0.313889,0.010975,0.131702,0.104264,199.000000,198.000000,1.000000,12.000000,0.000000,0.000000,0.000000,0.000000,0.000000;
#CREDIT:;
#NOTES:
00000000
00000000
00000000
00000000
,
00000000
00000000
00000000
00000000
,
00000000
00000001
00000000
00001000
00000000
00000100
00000000
00010000
,
00000000
00001000
00000000
01000000
00000000
00100000
00000000
00100000
,
10000000
01000000
10000000
00100000
,
10000000
00000000
00000000
00010000
00000000
00000000
00000000
00000000
10000000
00000000
00000000
00000000
00020000
00000000
00000000
00000000
,
00130000
00001000
00010000
00000100
,
00001000
00000000
00000000
00000001
00000000
00000000
00000000
00000000
00001000
00000000
00000000
00000000
00000002
00000000
00000000
00000000
,
00000103
00000010
00001000
00000001
,
00000100
00000000
00000000
00000010
00000000
00000000
00000000
00000000
00000200
00000000
00000000
00000000
00000310
00000000
00000000
00000000
,
00010000
00001000
00100000
00010000
,
01000000
00000000
00000000
00100000
00000000
00000000
00000000
00000000
02000000
00000000
00000000
00000000
03100000
00000000
00000000
00000000
,
10000000
01000000
00100000
00010000
,
01000000
00000000
00000000
00001000
00000000
00000000
00000000
00000000
00010000
00000000
00000000
00000000
00000100
00000000
00001000
00000000
,
00000010
00000100
00000001
00001000
,
00000001
00000000
00000000
00001000
00000000
00000000
00000000
00000000
00000100
00000000
00000000
00000000
00010000
00000000
00001000
00000000
,
01000000
00100000
10000000
00010000
,
01000000
00000000
00000000
00010000
00000000
00000000
00000000
00000000
00100000
00000000
00000000
00000000
00001000
00000000
00010000
00000000
,
00000010
00000100
00000001
00001000
,
00000100
00000000
00000000
00010000
00000000
00000000
00000000
00000000
00001000
00000000
00000000
00000000
00100000
00000000
01000000
00000000
,
00100000
00000000
00000000
00010000
00000000
00000000
00100000
00000000
00010000
00000000
00000000
00100000
00000000
00000000
00000000
00000000
,
00010000
00000000
00000000
10000000
00000000
00000000
00000000
00000000
10000000
00000000
00000000
00000000
00100000
00000000
01000000
00000000
,
00001000
00000000
00000000
00010000
00000000
00000000
00001000
00000000
00010000
00000000
00000000
00001000
00000000
00000000
00000000
00000000
,
00010000
00000000
00000000
00000100
00000000
00000000
00000000
00000000
00001000
00000000
00000000
00000000
00000010
00000000
00000100
00000000
,
00000001
00000000
00000000
00000010
00000000
00000000
00000001
00000000
00000010
00000000
00000000
00000001
00000000
00000000
00000000
00000000
,
00000100
00000000
00000000
00000010
00000000
00000000
00000000
00000000
00000100
00000000
00000000
00000000
00000010
00000000
00010000
00000000
,
00001000
00000000
00000000
01000000
00000000
00000000
00001000
00000000
01000000
00000000
00000000
00001000
00000000
00000000
00000000
00000000
,
01000000
00100000
10000000
00000000
00010000
01000000
00100000
00000000
,
02000000
03001000
00200000
00301000
,
00010000
00000100
00001000
00000000
00001000
00000100
00010000
00000000
,
00000200
00010300
00000020
00010030
,
00001000
01000000
00010000
00000000
00010000
01000000
00001000
00000000
,
02000000
03001000
00200000
00301000
,
00010000
00000010
00001000
00000000
00001000
00000010
00010000
00000000
,
00000200
00010300
00000020
00010030
,
00001000
00100000
00010000
00000000
00010000
00100000
00001000
00000000
,
00010000
00000100
00000010
00000001
,
00000100
00001000
00010000
00000000
00001000
00010000
01000000
00000000
,
10000000
00010000
01000000
00100000
,
10000000
01000000
00010000
00000000
01000000
00010000
00001000
00000000
,
00010000
00000010
00000100
00000001
,
00000010
00001000
00010000
00000000
00001000
00010000
00100000
00000000
,
10000000
00010000
01000000
00100000
,
00010000
00001000
00000010
00000000
00001000
00000010
00000001
00000000
,
00000011
00000000
00000000
00000000
;

//---------------dance-double - ----------------
#NOTEDATA:;
#CHARTNAME:;
#STEPSTYPE:dance-double;
#DESCRIPTION:;
#CHARTSTYLE:;
#DIFFICULTY:Hard;
#METER:8;
#RADARVALUES:0.470363,0.482906,0.043901,0.000000,0.471931,300.000000,296.000000,4.000000,0.000000,0.000000,0.000000,0.000000,0.000000,0.000000,0.470363,0.482906,0.043901,0.000000,0.471931,300.000000,296.000000,4.000000,0.000000,0.000000,0.000000,0.000000,0.000000,0.000000;
#CREDIT:;
#NOTES:
// measure 0
00000000
00000000
00000000
00000000
,  // measure 1
00000000
00000000
00000000
00000000
,  // measure 2
00000000
10000000
00000000
01000000
00000000
00010000
00000000
00001000
,  // measure 3
00000000
00000010
00000001
00000100
00000001
00000010
00000001
00000100
,  // measure 4
00000010
00000000
00000000
00001000
00000000
00000000
00000100
00000000
00000010
00000000
00000000
00000001
00000000
00000000
00000000
00000000
,  // measure 5
00000100
00000000
00000000
00001000
00000000
00000000
00000000
00000000
00010000
00000000
00000000
00000000
01000000
00000000
10000000
00000000
,  // measure 6
00010000
00000000
00000000
00100000
00000000
00000000
01000000
00000000
10000000
00000000
00000000
01000000
00000000
00000000
00000000
00000000
,  // measure 7
00010000
00000000
00000000
00001000
00000000
00000000
00000000
00000000
00000100
00000000
00000000
00000000
00000001
00000000
00000010
00000000
,  // measure 8
00000100
00000000
00000000
00000100
00001000
00000000
00000000
00000000
00001000
00000000
00000000
00001000
00000010
00000000
00000000
00000000
,  // measure 9
00000100
00000000
00000000
00001000
00010000
00000000
00000000
00000000
01000000
00000000
00000000
00000000
10000000
00000000
10000000
00000000
,  // measure 10
10000000
00000000
00000000
10000000
00100000
00000000
00000000
00000000
00100000
00000000
00000000
00100000
01000000
00000000
00000000
00000000
,  // measure 11
01000000
00000000
00000000
00100000
00010000
00000000
00000000
00000000
00001000
00000000
00000000
00000000
00000010
00000000
00000010
00000000
,  // measure 12
00000001
00000000
00001000
00000100
00000000
00000000
00001000
00000000
00000001
00000000
00000100
00001000
00000000
00000000
00000000
00000000
,  // measure 13
00010000
00000000
00000000
01000000
00000000
00000000
10000000
00000000
00100000
00000000
00000000
00000000
01000000
00000000
00010000
00000000
,  // measure 14
10000000
00000000
00100000
01000000
00000000
00000000
00100000
00000000
01000000
00000000
00010000
10000000
00000000
00000000
00000000
00000000
,  // measure 15
01000000
00000000
00000000
00010000
00000000
00000000
00001000
00000000
00000010
00000000
00000000
00000000
00000001
00000000
00001000
00000000
,  // measure 16
00000010
00000000
00000100
00000001
00000000
00000000
00001000
00000000
00000010
00000000
00000100
00001000
00000000
00000000
00000000
00000000
,  // measure 17
00010000
00000000
00000000
01000000
00000000
00000000
10000000
00000000
00010000
00000000
00000000
00000000
01000000
00000000
00100000
00000000
,  // measure 18
10000000
00000000
00010000
01000000
00000000
00000000
01000000
00000000
00010000
00000000
10000000
01000000
00000000
00000000
00000000
00000000
,  // measure 19
00010000
00000000
00001000
00000100
00000000
00000000
00000000
00000000
00000101
00000000
00000000
00000000
00000010
00000000
00001000
00000000
,  // measure 20
00000001
00000000
00000100
00000010
00000000
00000000
00000010
00000000
00001000
00000000
00000100
00000010
00000000
00000000
00000000
00000000
,  // measure 21
00000010
00000000
00001000
00010000
00000000
00000000
00000000
00000000
10100000
00000000
00000000
00000000
10000000
00000000
00010000
00000000
,  // measure 22
01000000
00000000
00100000
10000000
00000000
00000000
10000000
00000000
01000000
00000000
00100000
00010000
00000000
00000000
00000000
00000000
,  // measure 23
01000000
00000000
00100000
00010000
00000000
00000000
00000000
00000000
00001010
00000000
00000000
00000000
00000001
00000000
00001000
00000000
,  // measure 24
00000001
00000000
00000000
00000100
00000000
00000000
00000010
00000000
00001000
00000000
00000000
00000001
00000000
00000000
00000000
00000000
,  // measure 25
00001000
00000000
00000010
00000000
00000100
00000001
00000000
00000000
00001000
00000000
00000010
00000000
00000100
00000001
00000000
00000000
,  // measure 26
00000010
00000000
00000000
00001000
00000000
00000000
00010000
00000000
00100000
00000000
00000000
10000000
00000000
00000000
00000000
00000000
,  // measure 27
00010000
00000000
01000000
00000000
00100000
10000000
00000000
00000000
00010000
00000000
01000000
00000000
00100000
10000000
00000000
00000000
,  // measure 28
00010000
00000000
01000000
00000000
00010000
01000000
00000000
00000000
00100000
00000000
10000000
00000000
00100000
10000000
00000000
00000000
,  // measure 29
01000000
00000000
00010000
00000000
00001000
00000100
00000000
00000000
00010000
00000000
00001000
00000000
00000100
00000001
00000000
00000000
,  // measure 30
00001000
00000000
00000010
00000000
00001000
00000010
00000000
00000000
00000100
00000000
00000001
00000000
00000100
00000001
00000000
00000000
,  // measure 31
00000010
00000000
00001000
00000000
00010000
00100000
00000000
00000000
00001000
00000000
00010000
00000000
00100000
10000000
00000000
00000000
,  // measure 32
00010000
00000000
10000000
00000000
00010000
10000000
00000000
00000000
00100000
00000000
01000000
00000000
00100000
01000000
00000000
00000000
,  // measure 33
00100000
00000000
00010000
00000000
00001000
00000010
00000000
00000000
00010000
00000000
00001000
00000000
00000010
00000001
00000000
00000000
,  // measure 34
00001000
00000000
00000001
00000000
00001000
00000001
00000000
00000000
00000100
00000000
00000010
00000000
00000100
00000010
00000000
00000000
,  // measure 35
00001000
00000000
00010000
00000000
00100000
01000000
00000000
00000000
00010000
00000000
10000000
00000000
00100000
01000000
00000000
00100000
,  // measure 36
00000000
00000000
10000000
00000000
00010000
01000000
00000000
00100000
00000000
00000000
10000000
00000000
00010000
01000000
00000000
00000000
,  // measure 37
00100000
10000000
00100000
10000000
00100000
00000000
00000000
00000000
01000000
00010000
01000000
00010000
01000000
00000000
00000000
00100000
,  // measure 38
00000000
00000000
10000000
00000000
01000000
00010000
00000000
00001000
00000000
00000000
00000100
00000000
00000010
00001000
00000000
00000000
,  // measure 39
00000001
00000100
00000001
00000100
00000001
00000000
00000000
00000000
00001000
00000010
00001000
00000010
00001000
00000000
00000000
00000010
,  // measure 40
00000000
00000000
00000100
00000000
00001000
00010000
00000000
01000000
00000000
00000000
10000000
00000000
00100000
01000000
00000000
00000000
,  // measure 41
00010000
10000000
00010000
10000000
00010000
00000000
00000000
00000000
01000000
00100000
01000000
00100000
01000000
00000000
00000000
00010000
,  // measure 42
00000000
00000000
10000000
00000000
01000000
00010000
00000000
00001000
00000000
00000000
00010000
00000000
00000010
00000100
00000000
00000000
,  // measure 43
00000001
00001000
00000001
00001000
00000001
00000000
00000000
00000000
00000100
00000010
00000100
00000010
00000100
00000000
00000000
00000000
,  // measure 44
00000110
00000000
00000000
00000000
;
