#TITLE:I Love Your Smile;
#SUBTITLE:(Superspeedo vrs);
#ARTIST:Speedmaster feat. Angelica;
#TITLETRANSLIT:;
#SUBTITLETRANSLIT:;
#ARTISTTRANSLIT:;
#GENRE:Hardcore;
#CREDIT:;
#BANNER:iloveyoursmile-bn.png;
#BACKGROUND:iloveyoursmile-bg.png;
#LYRICSPATH:;
#CDTITLE:;
#MUSIC:I Love Your Smile (Superspeedo vrs).ogg;
#OFFSET:-0.050000;
#SAMPLESTART:29.250008;
#SAMPLELENGTH:12.000000;
#SELECTABLE:YES;
#BPMS:0.000000=187.899994
;
#STOPS:
;
#BGCHANGES:;
#KEYSOUNDS:;
#ATTACKS:;

//---------------dance-single - ----------------
#NOTES:
     dance-single:
     :
     Hard:
     7:
     0.455979,0.569136,0.000000,0.083447,0.000000,306.000000,306.000000,0.000000,8.000000,0.000000,0.000000,0.455979,0.569136,0.000000,0.083447,0.000000,306.000000,306.000000,0.000000,8.000000,0.000000,0.000000:
0000
0000
0000
0000
,
0000
0000
0000
0000
,
0000
0000
0000
0000
,
0000
0000
0000
0000
,
1000
0100
0000
0100
0000
1000
0000
1000
,
0000
0000
1000
0100
0001
0000
1000
0000
,
0001
0010
0001
0100
,
0001
0010
0100
1000
,
0001
0010
0000
0100
1000
0100
0000
0010
,
0001
0010
0000
0100
1000
0100
0010
0000
,
0001
1000
0000
0010
0100
0010
0000
1000
,
0001
1000
0000
0010
0100
0010
1000
0000
,
0010
1000
0000
0001
0100
0001
0000
1000
,
0010
1000
0000
0001
0100
0001
0010
0100
,
1000
0100
0010
0001
,
1000
1000
0001
0001
,
1000
0000
1000
0100
0000
0000
1000
0100
,
0000
0100
0000
0000
0000
0100
0010
0100
,
0010
0000
0010
0001
0000
0000
0010
0001
,
0000
0001
0000
0000
0000
0001
1000
0001
,
1000
0000
1000
0001
0000
0000
1000
0001
,
0000
0001
0000
0000
0000
0100
0010
0100
,
0001
0000
0000
1000
0000
0000
0010
0000
,
1000
0001
0100
0010
,
1000
0010
0000
0010
0000
1000
0000
1000
,
0000
0000
1000
0010
0001
0000
0000
0000
,
0001
0100
0000
0100
0000
0001
0000
0001
,
0000
0000
0001
0100
1000
0000
0000
0000
,
1000
0010
0000
0010
0000
1000
0000
1000
,
0000
0000
1000
0010
0001
0000
1000
0000
,
0001
0001
0010
0010
,
0001
0010
0100
1000
,
0010
1000
0010
0000
0010
1000
0010
0000
,
1000
0001
0001
1000
,
0001
0100
0001
0000
0001
0100
0001
0000
,
0100
0010
0010
0100
,
0001
1000
0001
0000
1000
0001
1000
0000
,
0100
1000
1000
0100
,
1000
0010
0100
0000
0001
0100
0010
0000
,
1000
0100
0010
0000
0001
0010
0100
1000
,
0001
2000
3000
0020
,
0030
0200
0300
0002
,
0003
0020
0030
0200
,
0300
2000
3000
0010
,
0100
0001
1000
0000
0010
0000
1000
0000
,
0100
0010
0001
0000
0100
0000
0001
0000
,
0010
0100
1000
0000
0100
0010
0001
0000
,
0010
0100
1000
0100
0010
0001
0010
0100
,
1000
0100
0000
0100
0000
1000
0000
1000
,
0000
0000
1000
0100
0001
0000
0000
0000
,
0001
0010
0000
0010
0000
0001
0000
0001
,
0000
0000
0001
0010
1000
0000
0000
0000
,
1000
0010
0000
0010
0000
1000
0000
1000
,
0000
0000
1000
0010
0001
0000
1000
0000
,
0001
0001
1000
1000
,
0010
0100
0001
1000
,
0001
0001
0000
1000
0000
0100
0000
0001
,
0000
0000
0001
0100
1000
0000
0000
0000
,
1000
1000
0000
0001
0000
0010
0000
1000
,
0000
0000
1000
0010
0001
0000
0000
0000
,
1000
1000
0000
0001
0000
0100
0000
1000
,
0000
0000
1000
0100
0001
0000
1000
0000
,
0010
0010
0100
0100
,
0001
1000
0010
0100
,
0001
0010
0000
0010
0000
0100
0000
0100
,
0000
0000
1000
0100
0010
0000
0000
0000
,
0001
1000
0010
0100
,
0001
1000
0010
0100
,
0010
0100
0000
0100
0000
0001
0000
0001
,
0000
0000
1000
0010
0100
0000
0000
0000
,
0001
1000
0010
0100
,
0010
0000
1000
0000
0001
1000
0010
0100
,
0020
0000
0000
0030
;

//---------------dance-single - ----------------
#NOTES:
     dance-single:
     :
     Beginner:
     1:
     0.114740,0.262859,0.000000,0.020862,0.000000,77.000000,77.000000,0.000000,2.000000,0.000000,0.000000,0.114740,0.262859,0.000000,0.020862,0.000000,77.000000,77.000000,0.000000,2.000000,0.000000,0.000000:
0000
0000
0000
0000
,
0000
0000
0000
0000
,
0000
0000
0000
0000
,
0000
0000
0000
0000
,
0010
0000
0000
0000
,
0000
0000
0010
0010
,
0010
0000
1000
0000
,
0010
0000
1000
0000
,
0000
0000
0100
0000
,
0000
0000
0000
0000
,
0010
0000
0000
0000
,
0000
0000
0000
0000
,
0001
0000
0000
0000
,
0000
0000
0000
0000
,
1000
0000
0000
0000
,
0000
0010
0000
0000
,
0100
0000
0000
0000
,
0000
0000
0000
0100
,
0100
0000
0000
0000
,
0000
0000
0000
1000
,
1000
0000
0000
0000
,
0000
0000
0000
0001
,
0001
0000
0000
0000
,
1000
1000
1000
1000
,
1000
0000
0000
0000
,
0000
0000
0000
0000
,
0010
0000
0000
0000
,
0100
0000
0000
0000
,
0100
0000
0000
0000
,
0000
0000
1000
1000
,
1000
0000
0001
0000
,
1000
0000
0001
0000
,
0100
0000
0000
0000
,
0000
0000
0000
0000
,
0010
0000
0000
0000
,
0000
0000
0000
0000
,
0001
0000
0000
0000
,
0100
0000
0000
0000
,
0000
0000
0000
0000
,
0010
0010
0010
0000
,
1000
0000
0000
0000
,
0000
0000
0000
0000
,
0100
0000
0000
0000
,
0000
0000
0000
0000
,
0010
0000
0000
0000
,
0000
0000
0000
0000
,
0001
0000
0001
0000
,
0001
0000
0000
0000
,
1000
0000
0000
0000
,
0000
0000
0000
0000
,
0010
0000
0000
0000
,
0000
0000
0000
0000
,
0100
0000
0000
0000
,
0000
0000
0001
0001
,
0001
0000
0100
0000
,
0001
0000
0100
0000
,
0010
0000
0000
0000
,
0000
0000
0000
0000
,
0100
0000
0000
0000
,
0000
0000
0000
0000
,
1000
0000
0000
0000
,
0000
0000
0010
0010
,
0010
0000
0100
0000
,
0010
0000
0100
0000
,
0002
0000
0000
0000
,
0000
0000
0003
0000
,
1000
1000
0000
0000
,
1000
1000
0000
0000
,
2000
0000
0000
0000
,
0000
0000
3000
0000
,
0001
0001
0000
0000
,
0010
0010
0010
0010
,
0010
0000
0000
0000
;

//---------------dance-single - ----------------
#NOTES:
     dance-single:
     :
     Easy:
     4:
     0.336769,0.375512,0.010431,0.292065,0.000000,226.000000,225.000000,1.000000,28.000000,0.000000,0.000000,0.336769,0.375512,0.010431,0.292065,0.000000,226.000000,225.000000,1.000000,28.000000,0.000000,0.000000:
0000
0000
0000
0000
,
0000
0000
0000
0000
,
0000
0000
0000
0000
,
0000
0000
0000
0000
,
2000
0000
0000
3001
0000
1000
0000
0001
,
0000
0000
0100
0010
,
1000
1000
0001
0001
,
0100
0010
0100
0010
,
1000
0000
0001
0100
,
0010
0100
0001
0000
,
1000
0100
0010
0100
,
1000
0000
0000
0000
,
0010
0100
0001
0100
,
0010
1000
0100
1000
,
0010
0000
0000
0000
,
0200
0302
2003
3020
,
0130
0000
0010
0000
0100
0000
0000
0001
,
0000
1000
0000
0001
0000
0000
0000
0000
,
1000
0000
0010
0000
1000
0000
0000
0001
,
0000
0100
0000
0001
0000
0000
0000
0000
,
0001
0000
0010
0000
0001
0000
0000
1000
,
0000
0100
0000
1000
0000
0000
0000
0010
,
0000
0100
0000
0010
0000
0000
0000
0000
,
0001
1000
0001
1000
,
0002
0000
0000
0103
0000
0001
0000
0100
,
0000
0001
1000
0000
,
0020
0000
0000
1030
0000
0001
0000
1000
,
0000
0010
1000
0000
,
2000
0000
0000
3010
0000
0100
0000
0010
,
0000
0100
0001
0100
,
0010
0010
0100
0100
,
0001
1000
0010
0100
,
0001
0010
0001
0010
,
0100
1000
0001
0100
,
0010
1000
0010
1000
,
0001
1000
0100
0010
,
0100
0010
0100
0010
,
0001
1000
0100
1000
,
0001
0010
0001
0010
,
0100
1000
0010
0100
,
0001
2000
3000
0002
,
0003
0200
0300
0020
,
0030
0200
0300
0002
,
0003
2000
3000
0020
,
0130
0002
0003
0020
,
0030
0200
0300
2000
,
3001
0000
1000
0000
,
0010
0100
0010
0100
,
0002
0000
0000
0103
0000
0010
0000
0100
,
0000
0010
1000
0000
,
2000
0000
0000
3010
0000
0100
0000
0010
,
0000
0100
0001
0000
,
0200
0000
0000
0301
0000
1000
0000
0001
,
0000
0100
0010
1000
,
0001
0001
1000
1000
,
0010
0100
0010
0100
,
0002
0000
0000
1003
0000
0100
0000
0010
,
0000
0001
1000
0000
,
0002
0000
0000
0013
0000
0100
0000
1000
,
0000
0001
1000
0000
,
0020
0000
0000
0130
0000
0001
0000
1000
,
0000
0010
0100
0010
,
1000
0001
1000
0001
,
1000
0100
0010
0001
,
0200
0000
0000
0010
0000
0010
0000
0310
,
0000
1000
0001
0000
,
1000
0001
0100
0010
,
1000
0001
0100
0010
,
2000
0000
0000
0001
0000
0001
0000
3001
,
0000
0100
0010
0000
,
0001
0010
0100
1000
,
0001
0010
0100
1000
,
1001
0000
0000
0000
;

//---------------dance-single - ----------------
#NOTES:
     dance-single:
     :
     Medium:
     6:
     0.390414,0.525717,0.000000,0.250342,0.000000,262.000000,262.000000,0.000000,24.000000,0.000000,0.000000,0.390414,0.525717,0.000000,0.250342,0.000000,262.000000,262.000000,0.000000,24.000000,0.000000,0.000000:
0000
0000
0000
0000
,
0000
0000
0000
0000
,
0000
0000
0000
0000
,
0000
0000
0000
0000
,
1000
0100
0000
0100
0000
1000
0000
1000
,
0000
0001
1000
0001
,
0100
0100
0010
0010
,
0100
0010
0100
0010
,
1000
0000
0000
0000
0010
0000
0100
0001
,
0000
1000
0000
0001
0000
0000
0000
0000
,
0200
0000
0300
0010
0000
1000
0001
2000
,
0000
3000
0010
0000
0000
0000
1000
0000
,
0100
0000
0010
0100
0000
1000
0100
1000
,
0000
0001
0000
0100
0000
0010
0100
0000
,
0001
1000
0000
0001
,
1000
0010
1000
0010
,
2000
0000
3000
0200
0000
0300
2000
0000
,
3000
0200
0000
0300
0000
0010
0001
0010
,
0002
0000
0003
0020
0000
0030
0002
0000
,
0003
0000
0000
0000
0000
0001
1000
0001
,
2000
0000
3000
0002
0000
0003
2000
0000
,
3000
0002
0000
0003
0000
0100
0010
0100
,
0020
0000
0030
0200
0000
0300
0010
0000
,
0001
1000
0010
0100
,
0010
1000
0000
1000
0000
0010
0000
0010
,
0000
1000
0010
0000
,
0100
0001
0000
0001
0000
0100
0000
0100
,
0000
0001
0100
0000
,
0001
1000
0000
1000
0000
0001
0000
0001
,
0000
0100
0010
0100
,
0001
0001
0010
0010
,
0100
1000
0001
0010
,
0100
1000
0100
1000
,
0001
0010
0001
0010
,
0100
0010
0100
0000
0010
0100
0010
0000
,
1000
0001
1000
0000
0001
1000
0001
0000
,
0100
0001
0100
0001
,
1000
0010
1000
0010
,
0100
0001
0100
0000
0010
1000
0010
0000
,
1000
0100
1000
0000
0001
0010
0001
0000
,
0100
0002
0003
0020
,
0030
0002
0003
2000
,
3000
0200
0300
2000
,
3000
0200
0300
0010
,
0001
1000
0001
1000
,
0010
1000
0010
1000
,
0001
0100
0010
0000
1000
0010
0100
0000
,
0001
0100
0001
0100
0010
0100
0010
0000
,
1000
0100
0000
0100
0000
1000
0000
1000
,
0000
0010
0100
0000
,
0001
0100
0000
0100
0000
0001
0000
0001
,
0000
0010
0100
0000
,
1000
0001
0000
0001
0000
1000
0000
1000
,
0000
0001
0010
0001
,
0100
0100
0010
0010
,
1000
0001
0100
0010
,
1000
1000
0000
0001
0000
0100
0000
0010
,
0000
1000
0001
0000
,
0001
0001
0000
1000
0000
0010
0000
0100
,
0000
0001
1000
0000
,
1000
1000
0000
0010
0000
0100
0000
0001
,
0000
0100
0010
0100
,
0001
0001
1000
1000
,
0001
1000
0001
1000
,
0020
0000
0030
0010
0000
0010
0000
0010
,
0000
1000
0001
0000
,
1000
0100
0010
0001
,
1000
0100
0010
0001
,
0200
0000
0300
0100
0000
0100
0000
0100
,
0000
0001
1000
0000
,
0001
0010
0100
1000
,
0001
0010
0100
1000
,
0001
0000
0000
0000
;

//---------------dance-double - ----------------
#NOTES:
     dance-double:
     :
     Easy:
     4:
     0.321868,0.341482,0.000000,0.093878,0.000000,216.000000,216.000000,0.000000,9.000000,0.000000,0.000000,0.321868,0.341482,0.000000,0.093878,0.000000,216.000000,216.000000,0.000000,9.000000,0.000000,0.000000:
00000000
00000000
00000000
00000000
,
00000000
00000000
00000000
00000000
,
00000000
00000000
00000000
00000000
,
00000000
00000000
00000000
00000000
,
10000000
00000000
00000000
00010000
00000000
00100000
00000000
00010000
,
00000000
00100000
00001000
00000000
,
00010000
00000000
00001000
00000000
,
00010000
00000010
00010000
00000010
,
00000100
00000000
00000001
00000000
,
00001000
00000000
00000100
00000000
,
00010000
00000000
00001000
00010000
,
01000000
00000000
10000000
00000000
,
01000000
00100000
00010000
00000000
,
00000010
00001000
00000100
00000010
,
00000001
00000000
00001000
00000000
,
00000001
00000010
00000100
00010000
,
00001000
00000000
00000000
00100000
00000000
00000000
00001000
00000000
,
00000000
00100000
00000000
00000000
00000000
00000000
00000000
00000000
,
01000000
00000000
00000000
10000000
00000000
00000000
01000000
00000000
,
00000000
10000000
00000000
00000000
00000000
00000000
00000000
00000000
,
00100000
00000000
00000000
01000000
00000000
00000000
00100000
00000000
,
00000000
01000000
00000000
00000000
00000000
00000000
00000000
00000000
,
00001000
00000000
00000000
00010000
00000000
00000000
00001000
00000000
,
00010000
00000010
00000100
00000001
,
00001000
00000000
00000000
00000010
00000000
00000100
00000000
00000010
,
00000000
00010000
00001000
00000000
,
00010000
00000000
00000000
01000000
00000000
00100000
00000000
01000000
,
00000000
00001000
00010000
00000000
,
00001000
00000000
00000000
00000100
00000000
00000010
00000000
00000100
,
00000000
00010000
00001000
00010000
,
00001000
00001000
00100000
00100000
,
00010000
01000000
00100000
10000000
,
01000000
00100000
01000000
00100000
,
00001000
00010000
00001000
00010000
,
00000010
00000100
00000010
00000100
,
00000001
00001000
00000100
00010000
,
00001000
01000000
00001000
01000000
,
00100000
10000000
00100000
10000000
,
00010000
00100000
00010000
00100000
,
00001000
00010000
00000010
00000100
,
00000001
00002000
00003000
00000200
,
00000300
00020000
00030000
00002000
,
00003000
02000000
03000000
00200000
,
00300000
20000000
30000000
00010000
,
00100000
00000000
00001000
00010000
,
00000100
00000000
00001000
00000001
,
00000010
00000000
00000100
00000000
,
00010000
00010000
00010000
00010000
,
00001000
00000000
00000000
01000000
00000000
00100000
00000000
10000000
,
00000000
01000000
00100000
00000000
,
00001000
00000000
00000000
00010000
00000000
00000010
00000000
00000100
,
00000000
00000001
00001000
00000000
,
00000010
00000000
00000000
00010000
00000000
00001000
00000000
00100000
,
00000000
00010000
00010000
01000000
,
00100000
00100000
10000000
10000000
,
00010000
00100000
00010000
00100000
,
00001000
00000000
00000000
00010000
00000000
00000100
00000000
00001000
,
00000000
00000001
00000010
00000000
,
00000100
00000000
00000000
00001000
00000000
00000010
00000000
00010000
,
00000000
00001000
00100000
00000000
,
00010000
00000000
00000000
01000000
00000000
10000000
00000000
01000000
,
00000000
00010000
00100000
00001000
,
00010000
00010000
00001000
00001000
,
00010000
00000100
00001000
00000010
,
00000200
00000000
00000300
00000001
00000000
00001000
00000000
00000001
,
00000000
00000100
00000100
00000000
,
00000010
00001000
00000010
00001000
,
00000100
00010000
00000100
00010000
,
00010000
00000000
00000000
01000000
00000000
00100000
00000000
01000000
,
00000000
00010000
00010000
00000000
,
10000000
01000000
10000000
01000000
,
00100000
00001000
00010000
00000010
,
00000200
00000000
00000000
00000300
;

//---------------dance-double - ----------------
#NOTES:
     dance-double:
     :
     Medium:
     6:
     0.359121,0.493251,0.000000,0.114740,0.000000,241.000000,241.000000,0.000000,11.000000,0.000000,0.000000,0.359121,0.493251,0.000000,0.114740,0.000000,241.000000,241.000000,0.000000,11.000000,0.000000,0.000000:
00000000
00000000
00000000
00000000
,
00000000
00000000
00000000
00000000
,
00000000
00000000
00000000
00000000
,
00000000
00000000
00000000
00000000
,
00001000
00000000
00000000
00100000
00000000
00001000
00000000
00010000
,
00000000
00000010
00000010
00000100
,
00000001
00001000
00000001
00001000
,
00000100
00010000
00001000
01000000
,
00010000
00000000
00000000
00000000
01000000
00000000
00100000
01000000
,
00000000
00010000
00000000
00010000
00000000
00000000
00000000
00000000
,
10000000
00000000
00000000
01000000
00000000
00100000
00001000
00010000
,
00000000
00000100
00000000
00010000
,
00000100
00000000
00001000
00000010
00000000
00000100
00000001
00000100
,
00000000
00000010
00000000
00001000
00000000
00000001
00000100
00000000
,
00000010
00010000
00000000
00000010
,
00001000
00000100
00001000
00100000
,
01000000
00000000
00000000
00100000
00000000
00000000
01000000
00000000
,
00000000
00100000
00000000
00000000
00000000
20000000
00000000
30000000
,
10000000
00000000
00000000
01000000
00000000
00000000
10000000
00000000
,
00000000
01000000
00000000
00000000
00000000
00200000
00000000
00300000
,
00001000
00000000
00000000
00010000
00000000
00000000
00001000
00000000
,
00000000
00000000
00000000
00000000
00000000
00000200
00000000
00000300
,
00001000
00000000
00000000
00000100
00000000
00000000
00000001
00000000
,
00001000
00000010
00010000
00010000
,
00001000
00000000
00000000
01000000
00000000
10000000
00000000
01000000
,
00000000
00001000
00010000
00000000
,
00001000
00000000
00000000
00000010
00000000
00000001
00000000
00000010
,
00000000
00010000
00001000
00000000
,
00010000
00000000
00000000
00100000
00000000
10000000
00000000
00100000
,
00000000
00001000
00010000
00001000
,
00010000
00010000
00000010
00000010
,
00000100
00000001
00001000
00000001
,
00001000
00000100
00001000
00000100
,
00010000
00001000
00010000
00001000
,
00100000
00010000
00100000
00000000
00010000
00100000
00010000
00000000
,
01000000
00010000
01000000
00000000
00100000
10000000
00100000
00000000
,
10000000
01000000
10000000
01000000
,
00100000
00001000
00100000
00001000
,
00010000
00000100
00010000
00000000
00000100
00010000
00000100
00000000
,
00001000
00000010
00000100
00000000
00000001
00000100
00000010
00000000
,
00001000
00000200
00000300
00020000
,
00030000
00002000
00003000
00020000
,
00030000
02000000
03000000
00200000
,
00300000
00002000
00003000
00010000
,
00001000
00000000
00000100
00000010
,
00001000
00000000
00000001
00001000
,
00000010
00000000
00010000
00000000
,
00001000
00001000
00001000
00001000
,
01000000
00000000
00000000
00100000
00000000
10000000
00000000
00010000
,
00000000
01000000
01000000
00000000
,
00010000
00000000
00000000
00100000
00000000
00001000
00000000
00010000
,
00000000
00000010
00000010
00000000
,
00000100
00000000
00000000
00000001
00000000
00000001
00000000
00000001
,
00000000
00001000
00000100
00010000
,
00001000
00001000
01000000
01000000
,
00100000
10000000
00010000
00100000
,
00001000
00000000
00000000
00010000
00000000
00010000
00000000
00000100
,
00000000
00001000
00000010
00000000
,
00000100
00000000
00000000
00000010
00000000
00000010
00000000
00010000
,
00000000
00001000
01000000
00000000
,
00010000
00000000
00000000
10000000
00000000
10000000
00000000
01000000
,
00000000
00100000
00001000
00010000
,
00000010
00000010
00000100
00000100
,
00000001
00001000
00000001
00001000
,
00000010
00001000
00000000
00000100
00000000
00000100
00000000
00010000
,
00000000
00000000
00001000
00100000
01000000
00000000
00000000
00000000
,
10000000
10000000
00010000
00010000
,
00100000
00100000
00001000
00001000
,
00010000
00000010
00000000
00000010
00000000
00000100
00000000
00000100
,
00000000
00000000
00000001
00001000
00000100
00000000
00000000
00000000
,
00010000
00010000
00001000
00001000
,
01000000
00010000
10000000
00100000
,
02000000
00000000
00000000
03000000
;

//---------------dance-double - ----------------
#NOTES:
     dance-double:
     :
     Hard:
     7:
     0.463430,0.569136,0.041724,0.083447,0.000000,311.000000,307.000000,4.000000,8.000000,0.000000,0.000000,0.463430,0.569136,0.041724,0.083447,0.000000,311.000000,307.000000,4.000000,8.000000,0.000000,0.000000:
// measure 0
00000000
00000000
00000000
00000000
,  // measure 1
00000000
00000000
00000000
00000000
,  // measure 2
00000000
00000000
00000000
00000000
,  // measure 3
00000000
00000000
00000000
00000000
,  // measure 4
00000001
00000010
00000000
00000010
00000000
00001000
00000000
00001000
,  // measure 5
00000000
00000000
00010000
00100000
10000000
00000000
00010000
00000000
,  // measure 6
00100000
00100000
00001000
00001000
,  // measure 7
00010000
00000100
00001000
00000010
,  // measure 8
00000100
00000001
00000000
00001000
00000010
00001000
00000000
00000010
,  // measure 9
00010000
00000010
00000000
00010000
00001000
00100000
00010000
00000000
,  // measure 10
01000000
00100000
00000000
10000000
01000000
10000000
00000000
00010000
,  // measure 11
00100000
00010000
00000000
10000000
00010000
00100000
00001000
00000000
,  // measure 12
00010000
00000100
00000000
00001000
00000010
00001000
00000000
00000001
,  // measure 13
00000100
00000001
00000000
00001000
00000100
00010000
00001000
00000000
,  // measure 14
01000000
00010000
10000000
00100000
,  // measure 15
01000000
01000000
00001000
00001000
,  // measure 16
00010000
00000000
00010000
00000100
00000000
00000000
00010000
00000100
,  // measure 17
00000000
00000100
00000000
00000000
00000000
00001000
00000010
00001000
,  // measure 18
00000100
00000000
00000100
00000010
00000000
00000000
00000100
00000010
,  // measure 19
00000000
00000010
00000000
00000000
00000000
00001000
00000010
00010000
,  // measure 20
00001000
00000000
00001000
00100000
00000000
00000000
00001000
00100000
,  // measure 21
00000000
00100000
00000000
00000000
00000000
00010000
01000000
00100000
,  // measure 22
10000000
00000000
10000000
01000000
00000000
00000000
00000000
01000000
,  // measure 23
00100000
00100000
00001000
00001000
,  // measure 24
00010000
00000010
00000000
00000100
00000000
00000001
00000000
00001000
,  // measure 25
00000000
00000000
00000100
00001000
00010000
00000000
00000000
00000000
,  // measure 26
00001000
00000100
00000000
00000001
00000000
00001000
00000000
00000100
,  // measure 27
00000000
00000000
00010000
00001000
00100000
00000000
00000000
00000000
,  // measure 28
00010000
00100000
00000000
10000000
00000000
00100000
00000000
00010000
,  // measure 29
00000000
00000000
00100000
00001000
00010000
00000000
00000010
00000000
,  // measure 30
00000100
00001000
00010000
00001000
,  // measure 31
00000100
00000100
00000001
00000001
,  // measure 32
00000100
00001000
00010000
00000000
00010000
00001000
00000100
00000000
,  // measure 33
00000001
00000001
00001000
00001000
,  // measure 34
00000100
00010000
00001000
00000000
00001000
01000000
00010000
00000000
,  // measure 35
01000000
01000000
10000000
10000000
,  // measure 36
01000000
00010000
00001000
00000000
00001000
00010000
01000000
00000000
,  // measure 37
10000000
00010000
00100000
00001000
00010000
00000010
00000100
00000000
,  // measure 38
00000100
00001000
00010000
00000000
00010000
01000000
10000000
00000000
,  // measure 39
10000000
01000000
00010000
00000000
00001000
00000100
00000001
00000000
,  // measure 40
00000100
00002000
00003000
00020000
,  // measure 41
00030000
00200000
00300000
20000000
,  // measure 42
30000000
00200000
00300000
00020000
,  // measure 43
00030000
00002000
00003000
00000010
,  // measure 44
00000001
00000000
00001000
00000000
00000100
00000000
00010000
00001000
,  // measure 45
00000000
00001000
00000000
00000000
00100000
00000000
00010000
01000000
,  // measure 46
00100000
00000000
10000000
01000000
00100000
00000000
10000000
00010000
,  // measure 47
00100000
00001000
00010000
00001000
00100000
00001000
00010000
00000100
,  // measure 48
00010000
00001000
00000000
00001000
00000000
00010000
00000000
00010000
,  // measure 49
00000000
00000000
00000010
00000100
00000001
00000000
00000000
00000000
,  // measure 50
00000100
00001000
00000000
00001000
00000000
00010000
00000000
00010000
,  // measure 51
00000000
00000000
01000000
10000000
00010000
00000000
00000000
00000000
,  // measure 52
10000000
01000000
00000000
01000000
00000000
00010000
00000000
00010000
,  // measure 53
00000000
00000000
00001000
00000100
00000001
00000000
00001000
00000000
,  // measure 54
00000001
00000001
00001000
00001000
,  // measure 55
00000010
00010000
00001000
00100000
,  // measure 56
00010000
01000000
00000000
01000000
00000000
10000000
00000000
10000000
,  // measure 57
00000000
00000000
01000000
00010000
00001000
00000000
00000000
00000000
,  // measure 58
00000100
00000001
00000000
00000001
00000000
00000100
00000000
00000100
,  // measure 59
00000000
00000000
00001000
00000010
00010000
00000000
00000000
00000000
,  // measure 60
00001000
01000000
00000000
01000000
00000000
10000000
00000000
10000000
,  // measure 61
00000000
00000000
01000000
00001000
00010000
00000000
00000010
00000000
,  // measure 62
00000100
00000010
00010000
00001000
,  // measure 63
00011000
00110000
01100000
11000000
,  // measure 64
10000000
10000000
00000000
00100000
00000000
00010000
00000000
00001000
,  // measure 65
00000000
00000000
00000010
00000001
00001000
00000000
00000000
00000000
,  // measure 66
00000001
00000001
00001000
00001000
,  // measure 67
00000010
00000010
00000100
00000100
,  // measure 68
00000001
00000001
00000000
00000100
00000000
00001000
00000000
00010000
,  // measure 69
00000000
00000000
01000000
10000000
00010000
00000000
00000000
00000000
,  // measure 70
10000000
10000000
00010000
00010000
,  // measure 71
00100000
00000000
00100000
00000000
00001000
00010000
00000100
00001000
,  // measure 72
00000200
00000000
00000000
00000300
;
