#TITLE:I Can Talk;
#SUBTITLE:;
#ARTIST:Two Door Cinema Club;
#TITLETRANSLIT:;
#SUBTITLETRANSLIT:;
#ARTISTTRANSLIT:;
#GENRE:Rock;
#CREDIT:;
#BANNER:icantalk-bn.png;
#BACKGROUND:icantalk-bg.png;
#LYRICSPATH:;
#CDTITLE:;
#MUSIC:I Can Talk.ogg;
#OFFSET:-0.060000;
#SAMPLESTART:29.880001;
#SAMPLELENGTH:12.000000;
#SELECTABLE:YES;
#BPMS:0.000000=162.919998
;
#STOPS:
;
#BGCHANGES:;
#KEYSOUNDS:;
#ATTACKS:;

//---------------dance-single - ----------------
#NOTES:
     dance-single:
     :
     Hard:
     8:
     0.572568,0.565613,0.102769,0.020554,0.292890,390.000000,380.000000,10.000000,2.000000,0.000000,0.000000,0.572568,0.565613,0.102769,0.020554,0.292890,390.000000,380.000000,10.000000,2.000000,0.000000,0.000000:
0000
0000
0000
0000
,
0000
0000
0000
0000
,
0000
0000
0000
0000
,
0000
0000
0000
0000
,
1000
0000
0100
0000
1000
0100
0010
0000
,
0001
0000
0010
0000
0001
0010
0100
0000
,
1000
0000
0001
0000
1000
0001
0010
0000
,
0001
0000
1000
0000
0001
1000
0000
1000
,
0010
0000
0100
0000
0010
0100
1000
0000
,
0100
0000
0010
0000
0100
0010
0001
0000
,
0100
0000
0001
0000
0100
0001
1000
0000
,
0010
0000
1000
0000
0010
1000
0000
1000
,
0100
1000
0100
0000
0100
0001
0100
0000
,
0100
1000
0100
0001
0100
1000
0100
0000
,
0001
0100
0001
0000
0001
0010
0001
0000
,
0001
0100
0001
0010
0001
0100
0001
0000
,
0010
1000
0010
0000
0010
0001
0010
0000
,
0010
1000
0010
0001
0010
1000
0010
0000
,
1000
0100
1000
0000
1000
0010
1000
0000
,
1000
0100
1000
0010
1000
0100
1000
0000
,
1001
0000
0000
0000
1000
0000
0000
1000
0010
0000
0000
0010
1000
0000
0000
1000
,
0010
0000
0000
0010
0100
0000
0000
0100
0010
0000
0000
0010
0100
0000
0000
0100
,
0001
0000
1000
0000
0001
1000
0010
0000
,
0100
0001
0010
0000
0001
1000
0100
0000
,
0110
0000
0000
0000
0010
0000
0000
0010
0001
0000
0000
0001
0010
0000
0000
0010
,
0001
0000
0000
0001
0100
0000
0000
0100
0001
0000
0000
0001
0100
0000
0000
0100
,
0001
0000
1000
0000
0010
1000
0100
0000
,
0001
0100
1000
0100
0001
0100
1000
0000
,
0010
0000
0000
0000
1000
0000
0000
0000
0100
0000
0010
0001
0000
0000
0010
0000
,
0001
0000
0000
0000
0100
0000
0000
0000
0010
0000
0100
0010
0000
0000
0100
0000
,
0010
0000
0000
0000
1000
0000
0000
0000
0100
0000
1000
0010
0000
0000
1000
0000
,
0001
0000
1000
0000
0100
0001
0100
0001
,
0100
0000
1000
0000
0010
0000
0000
0000
0100
0000
0000
0001
0000
0000
0010
0000
,
0001
0000
0010
0000
1000
0000
0000
0000
0010
0000
0000
0001
0000
0000
0100
0000
,
0010
0000
1000
0000
0100
0000
0000
0000
0010
0000
0000
0100
0000
0000
1000
0000
,
0010
0000
0001
0000
0010
0000
0000
0000
1000
0000
0000
0001
0000
0000
0010
0000
,
0100
0000
1000
0000
0100
0000
1000
0000
0010
0000
0000
0100
0000
0000
0001
0000
,
0100
0000
0010
0000
0100
0000
0010
0000
0001
0000
0000
0010
0000
0000
1000
0000
,
0001
0000
0010
0000
0001
0000
0010
0000
0100
0000
0000
1000
0000
0000
0001
0000
,
0100
0000
1000
0000
0100
0000
1000
0000
0100
0000
0000
0001
0000
0000
0010
0000
,
0100
0000
0010
0000
0001
0000
1000
0000
0100
0000
0000
0010
0000
0000
0001
0000
,
0010
0000
1000
0000
0010
0000
0001
0000
0100
0000
0000
0010
0000
0000
1000
0000
,
0100
0000
0010
0000
1000
0000
0010
0000
0001
0000
0000
0100
0000
0000
1000
0000
,
0100
0000
0001
0000
0010
0000
0100
0000
1000
0000
0000
0001
0000
0000
0010
0000
,
0001
0000
1100
0000
0001
0100
1000
0000
,
1000
0000
0101
0000
1000
0100
0001
0000
,
0001
0000
1100
0000
0001
0100
1000
0000
,
1000
0000
0101
0000
1000
0200
0000
0300
,
1001
0000
0000
0000
0010
0000
0000
0010
1000
0000
0000
1000
0010
0000
0000
0010
,
1000
0000
0000
1000
0100
0000
0000
0100
1000
0000
0000
1000
0100
0000
0000
0100
,
0010
0000
0001
0000
0100
1000
0100
0000
,
0001
0010
0100
0000
1000
0100
0010
0000
,
1001
0000
0000
0000
0010
0000
0000
0010
0001
0000
0000
0001
0010
0000
0000
0010
,
0001
0000
0000
0001
1000
0000
0000
1000
0001
0000
0000
0001
1000
0000
0000
1000
,
0001
0010
0100
0010
0001
1000
0100
0010
,
0001
0000
1000
0000
0010
1000
0010
0000
,
1001
0000
0000
0000
0100
0000
0000
0100
0001
0000
0000
0001
0100
0000
0000
0100
,
0010
0000
0000
0010
1000
0000
0000
1000
0010
0000
0000
0010
1000
0000
0000
1000
,
0100
0000
1000
0000
0010
1000
0100
0000
,
0001
0100
1000
0000
0010
0001
0010
0000
,
1100
0000
0000
0000
0010
0000
0000
0010
0001
0000
0000
0001
0010
0000
0000
0010
,
0100
0000
0000
0100
0010
0000
0000
0010
0100
0000
0000
0100
0010
0000
0000
0010
,
0001
0100
0010
1000
0100
0010
0001
0100
,
0010
1000
0100
0010
0100
1000
0010
0001
,
0200
0000
0000
0300
;

//---------------dance-single - ----------------
#NOTES:
     dance-single:
     :
     Easy:
     3:
     0.271603,0.299442,0.000000,0.102769,0.000000,185.000000,185.000000,0.000000,10.000000,0.000000,0.000000,0.271603,0.299442,0.000000,0.102769,0.000000,185.000000,185.000000,0.000000,10.000000,0.000000,0.000000:
0000
0000
0000
0000
,
0000
0000
0000
0000
,
0000
0000
0000
0000
,
0000
0000
0000
0000
,
1000
0100
0000
1000
,
0100
0001
0000
0000
,
0001
0100
0000
0001
,
0100
1000
0000
0000
,
0010
0100
0000
0010
,
0100
1000
0000
0000
,
0100
0010
0000
0100
,
0010
0001
0000
1000
,
0001
0001
0001
0001
,
0001
0001
0001
0001
,
0010
0010
0010
0010
,
0010
0010
0010
0010
,
1000
1000
1000
1000
,
1000
1000
1000
1000
,
0100
0100
0100
0100
,
0100
0100
0100
0100
,
0000
0010
1000
1000
,
0010
0100
0001
0001
,
0100
0000
0000
0000
,
0001
1000
0001
0000
,
0000
1000
0100
0100
,
1000
0001
0010
0010
,
0002
0000
0000
0000
,
2003
0000
3020
0000
,
0030
0000
0001
0001
,
0001
0000
0100
0100
,
0100
0000
0010
0010
,
0010
0000
1000
1000
,
1000
0001
0010
0001
,
0000
1000
0100
1000
,
0000
0010
1000
0010
,
0000
0100
0001
0100
,
0001
0001
0010
0100
,
0010
0010
0001
1000
,
0100
0100
1000
0010
,
1000
1000
0100
0010
,
0001
0001
0010
1000
,
0010
0010
0001
0100
,
0010
0010
1000
0100
,
1000
1000
0001
0010
,
0001
0001
2000
3000
,
1000
1000
0002
0003
,
0001
0001
2000
3000
,
1000
1000
0001
0000
,
0000
0001
1000
1000
,
0001
0100
0010
0010
,
0100
0000
0000
0000
,
0010
1000
0100
0010
,
0000
0001
0010
0010
,
0001
1000
0100
0100
,
1000
0000
0000
0000
,
0000
0000
0000
0000
,
0000
0010
0001
0001
,
0010
0001
0100
0100
,
0001
0000
0000
0000
,
1000
0100
0001
0100
,
0000
1000
0001
0001
,
1000
0010
1000
1000
,
0020
0000
0000
0000
,
0230
0000
0302
0000
,
0023
0000
0000
0030
;

//---------------dance-single - ----------------
#NOTES:
     dance-single:
     :
     Medium:
     5:
     0.368499,0.526175,0.328859,0.205537,0.000000,251.000000,219.000000,32.000000,20.000000,0.000000,0.000000,0.368499,0.526175,0.328859,0.205537,0.000000,251.000000,219.000000,32.000000,20.000000,0.000000,0.000000:
0000
0000
0000
0000
,
0000
0000
0000
0000
,
0000
0000
0000
0000
,
0000
0000
0000
0000
,
2000
0001
0010
0100
,
0010
0001
0100
3010
,
1000
0000
0010
0000
0100
0001
0100
0000
,
0001
0000
0010
0000
0100
1000
0000
0000
,
0002
1000
0100
0010
,
0100
1000
0010
0103
,
0001
0000
1000
0000
0010
1000
0010
0000
,
1000
0000
0100
0000
0010
0001
0000
0000
,
0101
0101
0101
0101
,
1001
0101
1001
0000
,
1100
1100
1100
1100
,
1001
1100
1001
0000
,
0110
0110
0110
0110
,
0101
0110
0101
0000
,
1010
1010
1010
1010
,
0110
1010
0110
0000
,
0000
0010
0010
0010
,
0200
0010
0010
0310
,
0200
0000
0000
0300
,
0010
0000
1000
0000
0001
0100
0010
0000
,
0100
0001
0001
0001
,
2000
0001
0001
3001
,
2000
0000
0000
0000
,
3020
0000
0230
0000
,
0301
0001
1001
0000
,
0010
0010
1100
0000
,
1000
1000
1010
0000
,
0100
0100
0011
0000
,
0001
0010
0100
1000
0000
0000
0000
0000
,
1000
0001
0100
0010
0000
0000
0000
0000
,
1000
0010
1000
0010
0000
0000
0000
0000
,
0100
0001
0100
0001
0000
0000
0000
0000
,
0010
0001
1000
0100
0000
0000
0000
0000
,
0010
1000
0001
0100
0000
0000
0000
0000
,
0001
0010
0001
0010
0000
0000
0000
0000
,
0100
1000
0100
1000
0000
0000
0000
0000
,
0001
0010
0100
1000
0000
0000
0000
0000
,
0010
0100
0001
1000
0000
0000
0000
0000
,
0001
1000
0001
1000
0000
0000
0000
0000
,
0010
0100
0010
0100
0000
0000
0000
0000
,
0001
0000
0010
0000
0001
0010
0001
0000
,
0010
0000
0100
0000
0010
0100
0010
0000
,
0100
0000
1000
0000
0100
1000
0100
0000
,
1000
0000
0001
0000
2000
0002
0000
3003
,
0100
0001
0001
0001
,
0200
0001
0001
0301
,
0200
0000
0000
0300
,
0010
0000
1000
0000
0001
1000
0010
0000
,
0100
1000
1000
1000
,
0020
1000
1000
1030
,
0020
0000
0000
0030
,
0100
0000
0001
0000
1000
0010
1000
0000
,
0001
0010
0010
0010
,
0002
0010
0010
0013
,
0002
0000
0000
0003
,
1000
0000
0010
0000
0100
0001
0010
0000
,
0100
1000
1000
1000
,
0200
1000
1000
1300
,
0200
0000
0000
0000
,
0320
0000
0032
0000
,
1003
0000
0000
0000
;

//---------------dance-single - ----------------
#NOTES:
     dance-single:
     :
     Beginner:
     2:
     0.133599,0.295974,0.010277,0.010277,0.000000,91.000000,90.000000,1.000000,1.000000,0.000000,0.000000,0.133599,0.295974,0.010277,0.010277,0.000000,91.000000,90.000000,1.000000,1.000000,0.000000,0.000000:
// measure 0
0000
0000
0000
0000
,  // measure 1
0000
0000
0000
0000
,  // measure 2
0000
0000
0000
0000
,  // measure 3
0000
0000
0000
0000
,  // measure 4
0000
0010
0000
0010
,  // measure 5
0000
0010
0010
0010
,  // measure 6
0010
0000
0000
0000
,  // measure 7
0000
0000
0000
0000
,  // measure 8
0000
1000
0000
1000
,  // measure 9
0000
1000
1000
1000
,  // measure 10
1000
0000
0000
0000
,  // measure 11
0000
0000
0000
0000
,  // measure 12
0001
0001
0001
0001
,  // measure 13
0001
0001
0001
0000
,  // measure 14
0100
0100
0100
0100
,  // measure 15
0100
0100
0100
0000
,  // measure 16
1000
1000
1000
1000
,  // measure 17
1000
1000
1000
0000
,  // measure 18
0010
0010
0010
0010
,  // measure 19
0010
0010
0010
0010
,  // measure 20
0010
0000
0000
0000
,  // measure 21
0001
0000
0000
0000
,  // measure 22
1000
0000
0000
0000
,  // measure 23
0100
0000
0100
0000
,  // measure 24
0010
0000
0000
0000
,  // measure 25
0001
0000
0000
0000
,  // measure 26
0100
0000
0000
0000
,  // measure 27
0000
0000
0000
0000
,  // measure 28
0100
0000
0000
0000
,  // measure 29
0001
0000
0000
0000
,  // measure 30
1000
0000
0000
0000
,  // measure 31
0100
0000
0000
0000
,  // measure 32
0001
0000
0000
0000
,  // measure 33
0001
0000
0000
0000
,  // measure 34
0001
0000
0000
0000
,  // measure 35
0001
0000
0000
0000
,  // measure 36
1000
0000
0000
0000
,  // measure 37
1000
0000
0000
0000
,  // measure 38
1000
0000
0000
0000
,  // measure 39
1000
0000
0000
0000
,  // measure 40
0010
0000
0000
0000
,  // measure 41
0010
0000
0000
0000
,  // measure 42
0010
0000
0000
0000
,  // measure 43
0010
0000
0000
0000
,  // measure 44
1000
0000
0000
0000
,  // measure 45
0001
0000
0000
0000
,  // measure 46
0100
0000
0000
0000
,  // measure 47
1000
0000
0002
0003
,  // measure 48
0001
0000
0000
0000
,  // measure 49
0010
0000
0000
0000
,  // measure 50
0100
0000
0000
0000
,  // measure 51
1000
0000
1000
0000
,  // measure 52
0001
0000
0000
0000
,  // measure 53
0010
0000
0000
0000
,  // measure 54
0100
0000
0000
0000
,  // measure 55
1001
0000
0000
0000
,  // measure 56
1000
0000
0000
0000
,  // measure 57
0100
0000
0000
0000
,  // measure 58
0010
0000
0000
0000
,  // measure 59
0001
0000
0001
0000
,  // measure 60
1000
0000
0000
0000
,  // measure 61
0100
0000
0000
0000
,  // measure 62
0010
0000
0000
0000
,  // measure 63
0001
0000
1000
0000
,  // measure 64
0010
0000
0000
0000
;

//---------------dance-single - ----------------
#NOTES:
     dance-single:
     :
     Challenge:
     9:
     0.648910,0.632155,0.256921,0.092492,0.267198,442.000000,417.000000,25.000000,9.000000,0.000000,0.000000,0.648910,0.632155,0.256921,0.092492,0.267198,442.000000,417.000000,25.000000,9.000000,0.000000,0.000000:
0000
0000
0000
0000
,
0000
0000
0000
0000
,
0000
0000
0000
0000
,
0000
0000
0000
0000
,
1000
0100
0010
0000
0010
0100
1000
0000
,
1000
0100
0010
0100
1000
0100
0010
0100
,
1000
0100
0001
0000
1000
0000
0001
0000
,
0001
0100
1000
0000
0020
0200
0000
0330
,
0001
0010
0100
0000
0100
0010
0001
0000
,
0001
0010
0100
0010
0001
0010
0100
0010
,
0001
0010
1000
0000
0001
0000
1000
0000
,
1000
0010
0001
0000
2000
0002
0000
3003
,
1000
0000
0000
0100
1000
0000
0000
0010
1000
0000
0000
0100
1000
0000
0000
0010
,
1000
0000
0000
0010
1000
0000
0000
0010
1000
0000
0000
0100
1000
0000
0000
0000
,
0010
0000
0000
0100
0010
0000
0000
0001
0010
0000
0000
0100
0010
0000
0000
0001
,
0010
0000
0000
0001
0010
0000
0000
0001
0010
0000
0000
0100
0010
0000
0000
0000
,
0001
0000
0000
1000
0001
0000
0000
0010
0001
0000
0000
1000
0001
0000
0000
0010
,
0001
0000
0000
0010
0001
0000
0000
0010
0001
0000
0000
1000
0001
0000
0000
0000
,
0100
0000
0000
0010
0100
0000
0000
0001
0100
0000
0000
0010
0100
0000
0000
0001
,
0100
0000
0000
0001
0100
0000
0000
0001
0100
0000
0000
0010
0100
0000
0000
0000
,
0101
0100
1000
0100
0001
0000
0101
0000
,
1100
0100
0001
0100
1000
0000
1100
0000
,
0010
1000
0100
0000
0001
0100
1000
0010
,
0100
0000
0001
1000
0001
0000
0110
0000
,
0011
0010
1000
0010
0001
0000
0011
0000
,
1010
0010
0001
0010
1000
0000
1010
0000
,
1000
0100
0010
0001
0010
1000
0010
0001
,
0100
0010
1000
0001
0100
1000
0100
0001
,
1000
0000
0000
0000
0010
0000
0000
0000
0100
0000
0001
0010
0001
0000
1000
0000
,
0010
0000
0000
0000
0100
0000
0000
0000
0010
0000
0100
0001
0100
0000
0010
0000
,
1000
0000
0000
0000
0010
0000
0000
0000
1000
0000
0100
1000
0100
0000
1000
0000
,
0001
0000
0000
0000
0010
0000
0000
0000
0100
0000
0010
0001
0010
0000
0001
0000
,
1000
0000
0010
0000
0100
0000
0010
0000
1000
0000
0000
0001
0000
0000
0010
0000
,
0100
0000
0010
0000
0001
0000
1000
0000
0100
0000
0000
0010
0000
0000
0100
0000
,
1000
0000
0010
0000
0100
0000
1000
0000
0100
0000
0000
0001
0000
0000
0010
0000
,
0100
0000
0010
0000
0001
0000
1000
0000
0001
0000
0000
0010
0000
0000
1000
0000
,
0010
0000
0001
0000
0100
0000
0010
0000
1000
0000
0001
1000
0000
0001
1000
0000
,
0010
0000
1000
0000
0100
0000
0010
0000
0100
0000
1000
0010
0000
1000
0010
0000
,
0100
0000
0001
0000
0010
0000
0100
0000
0010
0000
0001
0100
0000
0001
0100
0000
,
0001
0000
1000
0000
0010
0000
0100
0000
0010
0000
1000
0001
0000
0001
1000
0000
,
0010
0000
1000
0000
0100
0000
0001
0000
0100
0000
1000
0100
0000
1000
0100
0000
,
0010
0000
0001
0000
0100
0000
0010
0000
0100
0000
0010
0001
0000
0010
0001
0000
,
0010
0000
0100
0000
0010
0000
1000
0000
0001
0000
0100
0001
0000
0100
0001
0000
,
1000
0000
0001
0000
0010
0000
0100
0000
0010
0000
0001
1000
0000
1000
0001
0000
,
1000
0000
0101
0000
1000
0100
0001
0000
,
0001
0000
1100
0000
0001
0100
1000
0000
,
1000
0000
0011
0000
1000
0010
0001
0000
,
0001
0000
1010
0000
0020
0200
0000
0330
,
1100
0100
0001
0100
1000
0000
1100
0000
,
0101
0100
1000
0100
0001
0000
0101
0000
,
0010
1000
0100
0000
0001
0100
1000
0010
,
0100
0000
0001
0010
0100
0000
1001
0000
,
0011
0010
1000
0010
0001
0000
0011
0000
,
1010
0010
0001
0010
1000
0000
1010
0000
,
0010
1000
0001
0100
0001
0010
0100
1000
,
0001
0000
1010
0000
0001
0010
1000
0000
,
0001
0100
0010
0100
0001
0010
0100
0010
,
0001
0100
0010
0100
0001
0010
0100
0010
,
0001
0100
1000
0100
0001
0000
1001
0001
,
1000
0000
1010
0010
0200
0000
0320
0000
,
1030
0100
0010
0100
1000
0010
0100
0010
,
1000
0100
0010
0100
1000
0010
0100
0010
,
1000
0100
0010
0001
1000
0010
0100
0001
,
0010
0100
0010
0001
1000
0100
0001
0010
,
2000
0000
0000
3000
;
