#TITLE:HyperioxX;
#SUBTITLE:;
#ARTIST:ParagonX9;
#TITLETRANSLIT:;
#SUBTITLETRANSLIT:;
#ARTISTTRANSLIT:;
#GENRE:Hardcore;
#CREDIT:;
#BANNER:hyperioxx-bn.png;
#BACKGROUND:hyperioxx-bg.png;
#LYRICSPATH:;
#CDTITLE:;
#MUSIC:HyperioxX.ogg;
#OFFSET:-0.020000;
#SAMPLESTART:37.299999;
#SAMPLELENGTH:12.000000;
#SELECTABLE:YES;
#BPMS:0.000000=180.001007
;
#STOPS:
;
#BGCHANGES:;
#KEYSOUNDS:;
#ATTACKS:;

//---------------dance-single - ----------------
#NOTES:
     dance-single:
     :
     Hard:
     9:
     0.619624,0.661172,0.161016,0.301905,0.080508,431.000000,415.000000,16.000000,30.000000,0.000000,0.000000,0.619624,0.661172,0.161016,0.301905,0.080508,431.000000,415.000000,16.000000,30.000000,0.000000,0.000000:
0000
0000
0000
0000
,
0000
0000
0000
0000
,
0000
0000
0000
0000
,
0200
0000
0000
0000
0001
0000
1300
0001
,
1000
0100
0010
0000
1000
0100
0001
0000
,
1000
0100
0010
0100
1000
0100
0010
0000
,
0001
0010
0100
0000
0001
0100
1000
0000
,
0001
0010
0100
0010
0001
0010
0100
0000
,
0010
1000
0100
0000
0010
1000
0001
0000
,
0010
1000
0100
1000
0010
1000
0100
0000
,
0100
1000
0001
0000
0100
0001
0010
0000
,
0100
0000
0010
0000
1000
0000
0001
0000
0000
0000
1000
0000
0001
1000
0001
0000
,
2000
0000
0100
0000
0000
0100
3100
1000
,
0010
0100
0001
0020
0000
0001
0031
1000
,
0002
0000
0010
0000
0000
0010
0013
0001
,
0100
0010
1000
0200
0000
0310
0010
0100
,
0020
0000
0001
0000
0000
0001
0031
1000
,
0010
0100
0001
0020
0000
0130
0100
1000
,
0200
0000
0010
0000
0000
0010
0310
0100
,
1000
0000
0001
0000
0100
0000
2000
0000
0000
0000
3100
0000
0001
1000
0001
0000
,
0001
1000
0001
0100
0000
0100
0100
0010
,
0100
0001
0100
0010
0000
0010
1000
0100
,
1000
0010
1000
0000
0000
1000
1000
0100
,
1000
0001
1000
0100
0000
0100
0100
0010
,
0100
1000
0100
0010
0000
0010
0001
1000
,
0001
0010
0001
0100
0000
0010
0100
0001
,
0100
0010
0100
0000
0000
1000
0100
0010
,
0002
0000
0000
0000
0000
0000
0000
0000
0103
0010
1000
0000
0010
0000
0100
0000
,
0001
1000
1200
0000
0000
1000
1300
0001
,
0100
0010
0100
0002
0000
0013
0001
0100
,
0001
0010
0012
0000
0000
0010
0013
0001
,
1000
0010
1000
0200
0000
1300
0001
0010
,
0001
0000
0021
0000
0000
0130
0001
1000
,
0010
1000
0001
0020
0000
0031
0100
0010
,
1000
0000
1002
0000
0000
0103
0010
1000
,
0010
0100
0002
2000
0000
3003
0010
0010
,
1100
0000
0100
0001
0000
0000
0100
0000
,
0001
0001
0100
1000
0000
0000
0100
0000
,
1010
0000
0010
0100
0000
0000
0020
0000
,
0000
0000
0000
0030
,
2000
0000
0100
0000
0000
0010
0000
3100
,
0002
0000
0010
0000
0000
1000
0000
0013
,
0020
0000
0001
0000
0000
1000
0000
0031
,
0200
0000
1000
0000
0000
0010
0000
1300
,
0020
0000
1000
0000
0000
1000
0000
0031
,
0200
0000
0001
0000
0000
0001
0000
1300
,
0002
0000
1000
0000
0000
0100
0000
0013
,
2000
0000
0001
0000
0000
0010
0000
3100
,
0001
0100
0101
0000
0001
0100
0000
0100
,
0001
1000
1010
0000
0010
0100
0000
0100
,
0010
0001
0011
0000
0010
1000
0000
1000
,
0100
0010
0110
0000
0100
1000
0000
1000
,
0001
0100
0110
0000
0010
1000
0000
0100
,
1000
0010
0110
0000
0010
0100
0000
0001
,
1000
0001
0101
0000
0001
1000
0000
0010
,
0200
0000
0000
0000
0000
0000
0000
0000
0310
0100
0010
0000
1000
0000
0001
0000
,
1000
0000
0100
0000
1000
0000
0000
0000
0001
0000
0010
0001
0000
0000
0010
0000
,
0001
0000
0100
0000
0001
0000
0000
0000
1000
0000
0010
1000
0000
0000
0010
0000
,
1000
0000
0100
0000
0010
0000
0000
0000
0001
0000
1000
0001
0000
0000
1000
0000
,
0001
0000
0010
0000
0100
0000
0000
0000
1000
0000
0001
1000
0000
0000
0001
0000
,
0100
0010
0100
0010
0100
0000
0000
0000
0001
0000
1000
0000
0000
0000
0001
0000
,
1000
0001
1000
0001
1000
0000
0000
0000
0010
0000
0100
0000
0000
0000
0001
0000
,
0010
0001
0010
0001
0010
0000
0000
0000
0001
0000
0100
0000
0000
0000
0010
0000
,
1000
0100
1000
0100
1000
0000
0000
0000
1001
0000
0000
0000
0110
0000
0000
0000
,
0100
0001
0100
0010
0100
1000
0100
0001
,
0010
1000
0010
0100
0010
0001
0010
0100
,
1000
0010
1000
0100
1000
0001
1000
0100
,
0010
0001
1000
0100
1000
0010
0100
0010
,
1010
0000
1000
0001
0000
0000
0000
0000
,
0001
0001
1000
0010
0000
0000
0000
0000
,
0001
0100
0010
1000
0100
0010
0001
1000
,
0010
0010
0010
1000
1000
1000
0001
0000
,
0002
0000
0000
0000
,
0003
0000
0000
0000
;

//---------------dance-single - ----------------
#NOTES:
     dance-single:
     :
     Medium:
     5:
     0.383851,0.514245,0.221397,0.241524,0.000000,267.000000,245.000000,22.000000,24.000000,0.000000,0.000000,0.383851,0.514245,0.221397,0.241524,0.000000,267.000000,245.000000,22.000000,24.000000,0.000000,0.000000:
0000
0000
0000
0000
,
0000
0000
0000
0000
,
0000
0000
0000
0000
,
0102
0000
0000
0000
1000
0000
1003
1000
,
0010
0000
1000
0000
0001
0001
0001
0000
,
0100
0000
0001
0000
1000
1000
1000
0000
,
0001
0000
1000
0000
0100
0100
0100
0000
,
1000
0000
0001
0000
0010
0010
0010
0000
,
0001
0100
0010
0000
0100
0010
0100
0000
,
1000
0010
0100
0000
0010
0100
0010
0000
,
1000
0001
0010
0000
0001
1000
0001
0000
,
1000
0100
0010
0001
0000
0001
1000
0001
,
2000
3002
0003
0000
,
0001
0010
0001
0000
,
0200
0320
0030
0000
,
1000
0100
1000
0000
,
0002
0023
0030
0000
,
0001
0100
1000
0000
,
2000
3020
0030
0000
,
1000
0100
0001
0100
,
2000
0000
3002
0000
0003
0100
0001
0100
,
0001
1000
0001
0000
,
0200
0000
0320
0000
0030
0010
1000
0010
,
1000
0100
1000
0000
,
0002
0000
0203
0000
0300
0010
1000
0010
,
1000
0001
1000
0001
,
0200
0000
0302
0000
0003
1000
0001
1000
,
0001
0000
0000
0000
0100
0100
0010
0000
,
2100
0000
3100
0000
0000
1000
0100
1000
,
0100
0100
0000
0000
,
0201
0000
0301
0000
0000
0100
0001
0100
,
0001
0000
1000
0010
0000
0000
0000
0000
,
0201
0000
0310
0000
0000
0100
0010
0100
,
0010
0000
1000
0001
0000
0000
0000
0000
,
0120
0000
1030
0000
0000
0010
0100
0010
,
0100
0000
0010
1000
0000
0000
0001
0001
,
0100
0000
0001
0100
0000
0000
0000
0000
,
0001
0100
0001
1000
0000
0000
0000
0000
,
0100
0000
1000
0100
0000
0000
0020
0000
,
0000
0000
0000
0000
,
0130
0000
0000
0000
0000
0100
0000
0001
,
0000
0000
0000
0000
0000
0010
0000
1000
,
0000
0000
0000
0000
0000
1000
0000
0100
,
0000
0000
0000
0000
0000
0001
0000
0010
,
0000
0000
0000
0000
0000
1000
0000
0100
,
0000
0000
0000
0000
0000
0010
0000
1000
,
0000
0000
0000
0000
0000
0001
0000
0010
,
0000
0000
0000
0000
0000
0100
0000
0001
,
1000
0000
0100
0000
0000
0001
0000
1000
,
0000
0000
0100
0000
0000
0001
0000
1000
,
0000
0000
0010
0000
0000
1000
0000
0001
,
0000
0000
0010
0000
0000
0001
0000
0100
,
0000
0000
0001
0000
0000
0100
0000
0001
,
0000
0000
0001
0000
0000
1000
0000
0010
,
0000
0000
0010
0000
0000
1000
0000
0010
,
0100
0000
0000
0000
0001
1000
0100
0000
,
0000
0000
1000
0000
0000
1100
0000
0011
,
0000
0000
1000
0000
0000
0110
0000
0101
,
0000
0000
0010
0000
0000
0101
0000
1001
,
0000
0000
0100
0000
0000
0011
0000
1010
,
0000
0000
0001
0000
0000
0101
0000
1010
,
0000
0000
1000
0000
0000
1010
0000
1100
,
0000
0000
0010
0000
0000
1100
0000
0101
,
0000
0010
1100
1001
,
0001
0000
1000
0000
0001
0100
0001
0000
,
1000
0000
0010
0000
0100
0010
1000
0000
,
0010
0000
0100
0000
0010
0100
0010
0100
,
2000
0000
0000
0000
,
3001
0000
0010
0100
0000
0000
0000
0000
,
0001
1000
0100
1000
0000
0000
0000
0000
,
0010
0000
0000
0100
0000
0000
0000
0000
,
0001
0000
0000
0100
0000
0000
1010
0000
,
0200
0000
0000
0000
,
0300
0000
0000
0000
;

//---------------dance-single - ----------------
#NOTES:
     dance-single:
     :
     Easy:
     2:
     0.161016,0.253600,0.010064,0.110699,0.000000,112.000000,111.000000,1.000000,11.000000,0.000000,0.000000,0.161016,0.253600,0.010064,0.110699,0.000000,112.000000,111.000000,1.000000,11.000000,0.000000,0.000000:
0000
0000
0000
0000
,
0000
0000
0000
0000
,
0000
0000
0000
0000
,
2000
0000
0100
3100
,
1000
0000
0000
1000
,
0000
0001
0000
1000
,
0000
0000
0000
0100
,
0000
0001
0000
0010
,
0000
0000
0000
0100
,
0000
0010
0000
1000
,
0000
0000
0000
0010
,
0001
1000
0001
0000
,
0100
0000
0000
0000
,
0000
0000
0000
0000
,
0001
0000
0000
0000
,
0000
0000
0000
0000
,
1000
0000
0000
0000
,
0000
0000
0000
0000
,
0010
0000
0000
0000
,
0000
0000
0000
0000
,
1000
0100
0000
0000
,
1000
0010
0000
0000
,
0001
0100
0000
0000
,
0001
0010
0000
0000
,
0001
1000
0000
0000
,
1000
0001
0000
0000
,
0100
0010
0000
0000
,
0110
0000
0000
0000
,
0010
1000
0000
0000
,
0010
0100
0000
0000
,
0010
0001
0000
0000
,
0001
0000
0100
0000
,
0010
1000
0000
0000
,
0010
0000
0100
0000
,
0010
0001
0000
0000
,
0010
0001
0200
0000
,
0320
0000
0000
0030
0000
0000
0000
0000
,
0010
0010
0000
0000
,
2000
0000
0000
3000
0000
0000
0020
0000
,
0000
0000
0000
0030
,
0010
0000
0000
0000
,
0000
0000
0000
0000
,
0001
0000
0000
0000
,
0000
0000
0000
0000
,
1000
0000
0000
0000
,
0000
0000
0000
0000
,
0100
0000
0000
0000
,
0100
0000
0000
0000
,
0001
0100
0000
0001
,
0000
0100
0000
0000
,
1000
0100
0000
1000
,
0000
0100
0000
0000
,
0010
1000
0000
0010
,
0000
1000
0000
0000
,
0001
0010
0000
0001
,
0020
0000
0001
0031
,
0100
0001
0000
0100
,
0000
0010
0000
0000
,
0010
1000
0000
0010
,
0000
0100
0000
0000
,
0001
0100
0000
0010
,
0000
1000
0000
0000
,
1000
0010
0000
0100
,
0000
0001
2000
3200
,
0310
0000
0000
0000
,
0001
0000
0000
0000
,
0100
0000
0000
0000
,
2000
0000
0000
0000
,
3020
0000
0000
0030
0000
0000
0000
0000
,
0100
0010
0000
0000
,
2000
0000
0000
3000
0000
0000
0000
0000
,
0001
0000
0000
1000
0000
0000
0001
0000
,
0100
0000
0000
0000
;

//---------------dance-single - ----------------
#NOTES:
     dance-single:
     :
     Beginner:
     1:
     0.096322,0.181143,0.020127,0.000000,0.000000,67.000000,65.000000,2.000000,0.000000,0.000000,0.000000,0.096322,0.181143,0.020127,0.000000,0.000000,67.000000,65.000000,2.000000,0.000000,0.000000,0.000000:
0000
0000
0000
0000
,
0000
0000
0000
0000
,
0000
0000
0000
0000
,
0100
0000
0001
0000
,
1000
0000
0000
0000
,
0000
0000
0000
0000
,
0001
0000
0000
0000
,
0000
0000
0000
0000
,
0100
0000
0000
0000
,
0000
0000
0000
0000
,
0010
0000
0000
0000
,
0100
0000
0100
0000
,
0100
0000
0000
0000
,
0010
0000
0000
0000
,
0100
0000
0000
0000
,
0001
0000
0000
0000
,
0010
0000
0000
0000
,
1000
0000
0000
0000
,
0010
0000
0000
0000
,
0100
0000
0000
0000
,
0001
0000
0000
0100
,
0000
0000
0000
0000
,
0010
0000
0000
1000
,
0000
0000
0000
0000
,
1000
0000
0000
0001
,
0000
0000
0000
0000
,
0100
0000
0000
0000
,
0010
0000
1000
0000
,
0001
0000
0000
0100
,
0000
0000
0000
0000
,
0001
0000
0000
1000
,
0000
0000
0000
0000
,
0100
0000
0000
0010
,
0000
0000
0000
0000
,
1000
0000
0000
0100
,
0000
0000
0000
0000
,
1000
0000
0000
0000
,
1000
0000
0000
0000
,
0010
0000
0000
0000
,
0000
0000
0000
0000
,
0100
0000
0000
0000
,
0000
0000
0000
0000
,
0010
0000
0000
0000
,
0000
0000
0000
0000
,
1000
0000
0000
0000
,
0000
0000
0000
0000
,
0001
0000
0000
0000
,
0000
0000
0000
0000
,
0000
0100
0000
0000
,
0000
0010
0000
0000
,
0000
1000
0000
0000
,
0000
0100
0000
0000
,
0000
1000
0000
0000
,
0000
0001
0000
0000
,
0000
0100
0000
0000
,
0110
0000
0010
0000
,
0000
1000
0000
0000
,
0000
0100
0000
0000
,
0000
0010
0000
0000
,
0000
0001
0000
0000
,
0000
0001
0000
0000
,
0000
0100
0000
0000
,
0000
0010
0000
0000
,
0000
1000
0000
0000
,
0001
0000
0000
0000
,
0100
0000
0000
0000
,
0001
0000
0000
0000
,
0000
0000
0000
0000
,
0100
0000
0000
0000
,
0010
0000
0000
0000
,
0010
0000
0000
0000
,
0100
0000
0000
0000
,
1001
0000
0000
0000
;

//---------------dance-single - ----------------
#NOTES:
     dance-single:
     :
     Challenge:
     10:
     0.846772,0.955026,0.271715,0.291842,0.543429,589.000000,562.000000,27.000000,29.000000,0.000000,0.000000,0.846772,0.955026,0.271715,0.291842,0.543429,589.000000,562.000000,27.000000,29.000000,0.000000,0.000000:
// measure 0
0000
0000
0000
0000
,  // measure 1
0000
0000
0000
0000
,  // measure 2
0000
0000
0000
0000
,  // measure 3
2002
0000
0003
0000
0010
0000
3001
0100
,  // measure 4
1000
0100
0001
0010
0100
0010
0001
1000
,  // measure 5
0000
0001
0010
0100
0010
0001
0100
0001
,  // measure 6
1000
0100
0010
0001
1000
0010
1000
0100
,  // measure 7
0000
0001
0100
1000
0010
0100
0001
0010
,  // measure 8
0100
0001
0100
1000
0010
0100
0001
0010
,  // measure 9
0000
0001
0100
1000
0100
0001
0010
0100
,  // measure 10
1000
0001
0100
0001
0010
0100
1000
0001
,  // measure 11
0100
0000
0001
0000
0001
0000
0200
0000
0000
0000
0310
0000
1000
0001
1000
0000
,  // measure 12
0020
0000
0100
0000
0000
1000
1030
0100
,  // measure 13
2000
0010
0100
3002
0000
0010
0100
1003
,  // measure 14
0020
0000
0001
0000
0000
0100
0130
1000
,  // measure 15
0200
0001
0310
0200
0000
0010
0301
0100
,  // measure 16
0002
0000
0100
0000
0000
0010
0013
1000
,  // measure 17
0020
0100
0031
2000
0000
3100
1000
0001
,  // measure 18
0200
0000
0001
0000
0000
0010
0310
0001
,  // measure 19
2000
0000
0010
0000
3100
0000
0001
0000
0000
0000
1000
0000
0010
0100
0001
0000
,  // measure 20
0011
0000
1001
0000
0010
1000
1000
0001
,  // measure 21
0010
0100
0001
0200
0000
1300
0010
0100
,  // measure 22
0110
0000
1010
0000
0010
0001
0001
0010
,  // measure 23
1000
0100
0010
0021
0000
0130
1000
0001
,  // measure 24
1001
0000
1100
0000
0100
1000
1000
0010
,  // measure 25
0100
0001
0010
2000
0000
3010
0001
1000
,  // measure 26
1010
0000
0101
0000
0010
0001
0001
1000
,  // measure 27
2002
0000
0000
0000
0000
0000
3003
0000
0010
0100
0010
0000
0100
0000
0100
0000
,  // measure 28
0101
0001
0010
0000
0001
0100
0100
1000
,  // measure 29
0010
0100
0001
0021
0000
0130
1000
0001
,  // measure 30
0011
0001
0010
0000
1000
0100
0100
1000
,  // measure 31
0010
0100
0001
0120
0000
1030
0100
0010
,  // measure 32
0110
0100
1000
0000
0010
0100
0100
1000
,  // measure 33
0001
0100
0010
0210
0000
1300
0001
0100
,  // measure 34
0101
0001
1000
0000
0100
0001
0001
1000
,  // measure 35
0020
0100
0100
0200
0000
0330
0001
0001
,  // measure 36
1000
0100
0000
0100
0010
0000
0001
0000
1000
0001
0000
1000
0001
0000
0100
0000
,  // measure 37
0010
0100
0010
0100
0010
0000
1000
0000
0001
1000
0000
0001
1000
0000
0010
0000
,  // measure 38
0100
0001
0000
0001
0010
0000
0100
0000
0020
0000
0000
0000
0100
0000
0000
0000
,  // measure 39
0000
0000
0000
0000
,  // measure 40
1030
0001
1000
0001
1000
0000
0000
0000
0000
0000
0010
0100
0010
0100
0010
0000
,  // measure 41
0001
1000
0001
1000
0001
0000
0000
0000
0000
0000
0100
0010
0100
0010
0100
0000
,  // measure 42
1000
0010
1000
0010
1000
0000
0000
0000
0000
0000
0010
0100
0010
0100
0010
0000
,  // measure 43
0001
0100
0001
0100
0001
0000
0000
0000
0000
0000
1000
0001
1000
0001
1000
0000
,  // measure 44
0010
0100
0010
0100
0010
0000
0000
0000
0000
0000
1000
0100
1000
0100
1000
0000
,  // measure 45
0100
0010
0100
0010
0100
0000
0000
0000
0000
0000
0001
0010
0001
0010
0001
0000
,  // measure 46
1000
0010
1000
0010
1000
0000
0000
0000
0000
0000
0001
1000
0001
1000
0001
0000
,  // measure 47
0010
0100
0010
0100
0010
0000
0000
0000
0000
0000
0110
0000
0000
0000
1000
0000
,  // measure 48
0010
1000
0100
0010
0001
0000
1000
0000
0001
0000
0100
0000
0010
0000
0100
0000
,  // measure 49
0001
0010
0100
1000
0010
0000
1000
0000
0010
0000
0100
0000
0000
0000
0100
0000
,  // measure 50
0010
1000
0001
0100
0010
0000
1000
0000
0100
0000
0010
0000
0001
0000
0010
0000
,  // measure 51
0100
1000
0010
0100
0001
0000
0010
0000
0100
0000
1000
0000
0000
0000
1000
0000
,  // measure 52
0010
0100
0001
0010
0001
0000
1000
0000
0100
0000
1000
0000
0010
0000
1000
0000
,  // measure 53
0001
0100
0010
1000
0100
0000
0001
0000
0100
0000
1000
0000
0000
0000
1000
0000
,  // measure 54
0010
0100
0001
1000
0001
0000
0010
0000
0100
0000
1000
0000
0001
0000
1000
0000
,  // measure 55
0220
0000
0000
0000
0000
0000
0330
0000
1000
0001
0100
0000
0010
0000
0010
0000
,  // measure 56
1000
0100
1000
0100
1000
0000
0010
0000
0100
0000
0001
0010
0100
0000
1000
0010
,  // measure 57
0100
0010
0100
0010
0100
0000
0001
0000
0010
0000
0001
0100
0010
0000
0100
0010
,  // measure 58
0100
0001
0100
0001
0100
0000
0010
0000
1000
0000
0100
1000
0001
0000
0010
0001
,  // measure 59
0010
0001
0100
0001
0010
0000
0100
0000
1000
0000
0001
0010
0001
0000
0100
0010
,  // measure 60
1000
0001
0100
0001
1000
0000
0010
0000
0100
0000
0001
0010
0100
0000
1000
0100
,  // measure 61
1000
0001
1000
0001
1000
0000
0010
0000
0100
0000
0010
1000
0001
0000
0100
0001
,  // measure 62
1000
0100
0010
0001
0010
0000
0001
0000
1000
0000
0100
0010
0001
0000
1000
0010
,  // measure 63
0100
0010
1000
0100
0010
0000
0001
0000
1001
0000
0000
0000
0110
0000
0000
0000
,  // measure 64
0100
0000
0001
0000
1000
0010
0000
0100
0010
0000
1000
0010
0000
0010
1000
0000
,  // measure 65
0001
0000
0100
0000
0010
1000
0000
0001
1000
0000
0010
0100
0000
0100
0010
0000
,  // measure 66
0100
0000
0010
0000
1000
0100
0000
0010
0100
0000
1000
0001
0000
0010
0100
0000
,  // measure 67
0010
0001
1000
0010
1000
0100
0010
0001
,  // measure 68
0101
0000
1000
0110
0000
0000
0010
0000
,  // measure 69
0100
0001
1000
0010
0000
0100
0110
0000
,  // measure 70
0100
1000
0010
1000
0100
0010
0001
1000
0100
0010
0100
1000
0010
1000
0001
0100
,  // measure 71
0001
0001
1000
1000
0010
0010
0110
0000
,  // measure 72
2002
0000
0000
0000
,  // measure 73
3003
0000
0000
0000
;
