#TITLE:Heads Will Roll (A-Trak Mix);
#SUBTITLE:;
#ARTIST:Yeah Yeah Yeahs;
#TITLETRANSLIT:;
#SUBTITLETRANSLIT:;
#ARTISTTRANSLIT:;
#GENRE:;
#CREDIT:;
#BANNER:headswillrollatrak-bn.png;
#BACKGROUND:headswillrollatrak-bg.png;
#LYRICSPATH:;
#CDTITLE:;
#MUSIC:Heads Will Roll (A-Trak Remix).mp3;
#OFFSET:-0.020;
#SAMPLESTART:57.220001;
#SAMPLELENGTH:12.500000;
#SELECTABLE:YES;
#BPMS:0.000000=132.000000
;
#STOPS:
;
#BGCHANGES:;
#KEYSOUNDS:;
#ATTACKS:;

//---------------dance-single - ----------------
#NOTES:
     dance-single:
     :
     Hard:
     8:
     0.463646,0.452770,0.146350,0.172176,0.370179,377.000000,360.000000,17.000000,20.000000,0.000000,0.000000,0.463646,0.452770,0.146350,0.172176,0.370179,377.000000,360.000000,17.000000,20.000000,0.000000,0.000000:
0100
0000
0000
0000
0010
0000
0000
0000
0100
0000
0000
0100
0000
0000
0100
0000
,
0000
0000
0001
0000
0000
0100
0000
0000
0001
0000
0000
0010
0000
0000
0100
0000
,
1000
0000
0000
0000
0010
0000
0000
0000
1000
0000
0000
1000
0000
0000
1000
0000
,
0000
0000
0010
0000
0000
0100
0000
0000
0010
0000
0000
1000
0000
0000
0001
0000
,
0100
0000
0000
0000
0010
0000
0000
0000
0100
0000
0000
0100
0000
0000
0100
0000
,
0000
0000
0001
0000
0000
0010
0000
0000
0100
0000
0000
1000
0000
0000
0001
0000
,
2000
0000
0000
0000
3200
0000
0000
0000
0310
0001
0010
0000
0001
0000
0100
0000
,
0000
0000
0010
0000
0000
0100
0000
0000
0001
0000
0000
1000
0010
0000
1000
0000
,
0002
0000
0023
0000
0130
0010
0001
0100
,
0000
0000
0010
0000
0000
1000
0000
0000
0001
0000
0000
0001
0010
0000
0001
0000
,
0200
0000
0000
0000
0320
0000
0000
0000
1030
0100
1000
0000
0000
0000
0010
0001
,
0010
0000
0000
0000
1000
0001
1000
0000
0000
0000
0100
0010
0100
0000
0000
0000
,
1100
0000
0000
0000
1001
0000
0000
0000
0001
0100
0001
0000
0000
0000
0010
0000
,
0000
0000
1000
0000
0000
1000
0000
0000
1000
0000
0000
0000
1001
0000
0000
0000
,
0010
0000
1000
0000
0001
0000
0000
0000
0100
0001
0100
0000
0010
0000
1000
0000
,
0000
0000
1000
0000
0000
0100
0000
0000
0010
0000
0000
0001
1000
0000
0001
0000
,
0100
0000
1000
0000
0100
0000
0000
0000
0001
0010
0001
0000
1000
0000
0010
0000
,
0000
0000
0010
0000
0000
0100
0000
0000
0001
0000
0000
0100
0010
0000
0100
0000
,
0010
0000
0000
0000
1100
0000
0000
0000
0010
1000
0010
0000
0000
0000
1000
0100
,
1000
0000
0000
0000
0001
0010
0001
0000
0000
0000
0001
1000
0001
0000
0000
0000
,
0100
0000
0011
0000
0100
1000
0010
0100
,
0000
0000
0010
0000
0000
0001
0000
0000
0010
0000
1000
0000
0001
0000
0100
0000
,
0001
0010
0001
0000
1000
0100
1000
0000
,
0001
0010
0001
0000
1000
0100
1000
0000
,
0001
0010
0001
0000
0000
1000
0000
0001
,
1000
0000
0000
0100
0000
0000
1000
0000
0001
0000
0000
0010
0000
0000
0100
0000
,
0001
0000
0000
0100
0000
0000
1000
0000
0010
0000
0000
0100
0000
0000
1000
0000
,
0100
0000
0000
0001
0000
0000
1000
0000
0010
0000
0000
0100
0000
0000
0010
0000
,
1000
0000
0000
0100
0000
0000
0001
0000
0100
0000
0000
0000
1100
0000
0000
0000
,
0101
1100
0101
1100
,
2000
0000
0000
0000
3020
0000
0000
0000
0130
0000
0000
0001
0000
0000
0010
0000
,
0000
0000
1000
0000
0000
0010
0000
0000
0001
0000
0000
0100
0000
0000
0010
0000
,
0200
0000
0000
0000
0302
0000
0000
0000
0013
0000
0000
0100
0000
0000
0001
0000
,
0000
0000
0100
0000
0000
1000
0000
0000
0010
0000
0000
0100
0000
0000
0010
0000
,
1000
0000
0100
0000
0001
0000
0000
0000
0100
1000
0100
1000
0100
0000
0001
0000
,
0000
0000
0100
0000
0000
1000
0000
0000
0100
0000
0000
0001
0000
0000
1000
0000
,
0010
0000
0100
0000
0010
0000
0000
0000
1000
0100
1000
0100
1000
0000
0010
0000
,
0100
0000
0001
0000
0000
0001
0000
0000
1000
0000
0000
1000
0000
0000
0010
0000
,
1000
0000
0000
0000
1000
0000
0000
0000
1000
0000
0000
1000
0000
0000
1000
0000
,
0000
0000
1000
0000
0000
1000
0000
0000
1000
0000
0000
1000
0000
0000
1000
0000
,
0001
0000
0000
0000
0001
0000
0000
0000
0001
0000
0000
0001
0000
0000
0001
0000
,
0000
0000
0001
0000
0000
0001
0000
0000
0001
0000
0000
0001
0000
0000
0001
0000
,
0100
0000
0000
0000
0110
0000
0000
0000
0010
0000
0000
1000
0000
0000
0001
0000
,
0000
0000
0100
0000
0000
0001
0000
0000
0010
0000
0000
1000
0000
0000
0010
0000
,
0001
0000
0000
0000
1001
0000
0000
0000
1000
0000
0000
0010
0000
0000
0100
0000
,
0000
0000
1000
0000
0000
0100
0000
0000
0001
0000
0000
0010
0000
0000
1000
0000
,
0020
0000
0000
0000
0032
0000
0000
0000
0103
0000
0000
0010
0000
0000
0100
0000
,
0000
0000
0010
0000
0000
1000
0000
0000
0001
0000
0000
1000
0000
0000
0100
0000
,
0002
0000
0000
0000
0203
0000
0000
0000
1300
0000
0000
0010
0000
0000
0100
0000
,
0000
0000
0010
0000
0000
1000
0000
0000
0100
0000
0000
0001
0000
0000
0100
0000
,
2000
0000
0000
0000
3002
0000
0000
0000
0103
0000
0000
0010
0000
0000
0001
0000
,
0000
0000
0010
0000
0000
1000
0000
0000
0001
0000
0000
0100
0000
0000
0010
0000
,
0200
0000
0000
0000
0302
0000
0000
0000
0013
0000
0000
0100
0000
0000
1000
0000
,
0000
0000
0010
0000
0000
0100
0000
0000
0010
0000
0000
1000
0000
0000
0001
0000
,
1000
0000
0110
0000
1000
0100
0001
0200
,
0000
0000
1300
0000
0001
0100
0000
0001
0100
0000
0000
0100
0010
0000
0100
0000
,
0001
0000
0110
0000
0001
0010
1000
0020
,
0000
0000
0031
0000
1000
0100
0000
1000
0100
0000
0000
1000
0001
0000
1000
0000
,
0010
0000
0110
0000
1000
0100
0001
0100
,
1000
0000
0001
0100
1000
0100
0001
0100
,
0110
0000
0000
0000
1001
0000
0000
0000
1000
0100
1000
0100
0000
0000
0010
0000
,
0000
0000
0100
0000
0000
1000
0000
0000
0010
0000
0000
0100
0010
0000
0100
0000
;

//---------------dance-single - ----------------
#NOTES:
     dance-single:
     :
     Medium:
     6:
     0.350502,0.319602,0.000000,0.172176,0.210916,285.000000,285.000000,0.000000,20.000000,0.000000,0.000000,0.350502,0.319602,0.000000,0.172176,0.210916,285.000000,285.000000,0.000000,20.000000,0.000000,0.000000:
1000
0000
0000
0000
0100
0000
0000
0000
1000
0000
0000
0001
0000
0000
1000
0000
,
0000
0000
0001
0000
0000
0100
0000
0000
0001
0000
0000
0010
0000
0000
0001
0000
,
1000
0000
0000
0000
0001
0000
0000
0000
0100
0000
0000
0001
0000
0000
0100
0000
,
0000
0000
0010
0000
0000
1000
0000
0000
0010
0000
0000
0100
0000
0000
0010
0000
,
1000
0000
0000
0000
0001
0000
0000
0000
0100
0000
0000
0001
0000
0000
0100
0000
,
0000
0000
0001
0000
0000
1000
0000
0000
0001
0000
0000
0100
0000
0000
0001
0000
,
1000
0000
0010
0000
0100
0010
0000
0000
,
0001
0001
0001
1000
,
0001
0000
0001
0000
0100
0010
0000
0000
,
0000
0010
0010
0010
,
1000
0000
0001
0000
1000
0001
0000
0001
,
0100
0000
0100
0001
0000
0001
1000
0000
,
0010
0000
0100
0000
0010
1000
0000
1000
,
0000
0010
0000
0010
0000
0000
0200
0000
,
0301
0000
0001
0000
0100
0001
0100
0001
,
0000
1000
0000
0010
0000
1000
0010
0000
,
1000
0000
0100
0000
1000
0001
1000
0001
,
0000
0100
0000
0001
0000
0100
0001
0000
,
0010
0000
0100
0000
0010
0100
0000
0010
,
0000
0000
0001
1000
0000
0010
0000
0000
,
0001
0000
1000
0000
0001
0100
0001
0100
,
0000
0010
0000
0100
0000
0010
0100
0000
,
0010
0000
0000
0010
0000
0000
0000
0000
0000
0100
0000
0000
0100
0000
0000
0000
,
0001
0000
0000
0001
0000
0000
0000
0000
0000
0010
0000
0000
0010
0000
0000
0000
,
0100
0000
0000
0100
0000
0000
0000
0000
0000
1000
0000
0000
1000
0000
0000
0000
,
0000
0002
0000
0023
0000
0230
0000
0320
,
0000
0032
0000
0023
0000
2030
0000
3020
,
0000
0032
0000
0023
0000
0230
0000
0320
,
0000
0032
0000
0023
0000
0000
0031
0000
,
0001
0001
0001
0001
,
1000
0000
0000
0000
0100
0000
0000
0000
1000
0000
0000
0010
0000
0000
1000
0000
,
0000
0000
0001
0000
0000
0100
0000
0000
0001
0000
0000
0010
0000
0000
0001
0000
,
0100
0000
0000
0000
0010
0000
0000
0000
0100
0000
0000
0001
0000
0000
0100
0000
,
0000
0000
0010
0000
0000
0100
0000
0000
0010
0000
0000
1000
0000
0000
0010
0000
,
1000
0000
0000
0000
0001
0000
0000
0000
0100
0000
0000
0010
0000
0000
0100
0000
,
0000
0000
0001
0000
0000
1000
0000
0000
0010
0000
0000
0100
0000
0000
0001
0000
,
1000
0010
2000
0000
,
3000
0000
0001
0000
0000
0001
0000
0000
0010
0000
0000
0010
0000
0000
0010
0000
,
0001
0000
0000
0000
0001
0000
0000
0000
0001
0000
0000
0001
0000
0000
0001
0000
,
0000
0000
0001
0000
0000
0001
0000
0000
0001
0000
0000
0001
0000
0000
0001
0000
,
1000
0000
0000
0000
1000
0000
0000
0000
1000
0000
0000
1000
0000
0000
1000
0000
,
0000
0000
1000
0000
0000
1000
0000
0000
1000
0000
0000
1000
0000
0000
1000
0000
,
0010
0000
0000
0000
1000
0000
0000
0000
0001
0000
0000
0001
0000
0000
0001
0000
,
0000
0000
0100
0000
0000
0010
0000
0000
0100
0000
0000
0010
0000
0000
0100
0000
,
0001
0000
0000
0000
1000
0000
0000
0000
0010
0000
0000
0010
0000
0000
0010
0000
,
0000
0000
1000
0000
0000
0001
0000
0000
1000
0000
0000
0001
0000
0000
1000
0000
,
0010
0000
1000
0000
0002
0000
0000
0103
,
0000
0000
0001
0000
0000
0001
0000
0000
0010
0000
0000
0010
0000
0000
0100
0000
,
1000
0000
0010
0000
2000
0000
0000
3100
,
0000
0000
1000
0000
0000
1000
0000
0000
0010
0000
0000
0010
0000
0000
0100
0000
,
0001
0000
0000
0000
0001
0000
0000
0000
1000
0000
0000
1000
0000
0000
1000
0000
,
0000
0000
0010
0000
0000
0010
0000
0000
0100
0000
0000
0100
0000
0000
0001
0000
,
1000
0000
0000
0000
1000
0000
0000
0000
0001
0000
0000
0001
0000
0000
0001
0000
,
0000
0000
0100
0000
0000
0100
0000
0000
0010
0000
0000
0010
0000
0000
1000
0000
,
0001
0000
0010
0000
0200
0000
0000
0310
,
0000
0001
0000
1000
0000
0001
1000
0000
,
0010
0000
1000
0000
0200
0000
0000
1300
,
0000
0010
0000
0100
0000
0010
1000
0000
,
0010
0000
1000
0000
0001
0100
0000
0100
,
0001
0000
1000
0010
0000
0010
1000
0000
,
0001
0000
0010
0000
0100
0010
0100
0010
,
0000
0000
0001
0000
0000
0001
0000
0000
0001
0000
0000
0000
1000
0000
0010
0000
;

//---------------dance-single - ----------------
#NOTES:
     dance-single:
     :
     Easy:
     3:
     0.232438,0.239217,0.000000,0.163567,0.000000,189.000000,189.000000,0.000000,19.000000,0.000000,0.000000,0.232438,0.239217,0.000000,0.163567,0.000000,189.000000,189.000000,0.000000,19.000000,0.000000,0.000000:
1000
0100
0010
0000
,
0000
0000
0010
0010
,
0001
0100
0010
0000
,
0000
0000
1000
1000
,
0010
1000
0001
0000
,
0000
0000
0100
0100
,
0010
0000
2000
0000
,
3000
0000
0000
0001
,
0100
0010
0200
0000
,
0300
0000
0000
0001
,
1000
0100
0020
0030
,
0000
2000
3000
0000
,
0001
0100
0020
0000
,
0030
0000
0000
1000
,
0010
1000
0200
0000
,
1300
0010
0010
1000
,
0001
0100
0020
0000
,
0130
0001
0001
0100
,
0001
1000
0020
0030
,
0000
0200
0300
0001
,
1000
0010
0010
1000
,
0001
0000
0000
0100
,
0010
1000
0010
1000
,
0001
0100
0001
0100
,
0010
1000
0010
1000
,
0010
0100
0010
0100
,
0010
0100
0010
0100
,
0010
0100
0010
0100
,
0010
0100
0010
1000
,
1000
1000
1000
1000
,
1000
0010
0200
0000
,
0301
0010
0010
0001
,
0100
0010
0200
0000
,
0301
1000
1000
0001
,
1000
0100
0020
0000
,
0130
1000
0001
0010
,
0100
0010
0002
0000
,
1003
0100
0010
0001
,
1000
1000
1000
0000
,
0000
1000
1000
1000
,
0001
0001
0001
0000
,
0000
0001
0001
0001
,
0100
0010
1000
0000
,
0000
0010
0100
0001
,
1000
0100
0001
0000
,
0000
0100
1000
0001
,
0010
0010
0002
0000
,
1003
0100
0100
1000
,
0010
0010
2000
0000
,
3010
0100
0100
0010
,
1000
0001
0200
0000
,
0301
0010
0100
0010
,
0001
0001
2000
0000
,
3010
1000
0001
0100
,
0010
0010
0010
0000
,
0000
1000
0001
0100
,
0001
0001
0001
0000
,
0000
0001
1000
0100
,
1000
1000
2000
3000
,
0000
0020
0030
0000
,
0100
0001
0010
0000
,
0000
0001
0001
0100
;

//---------------dance-single - ----------------
#NOTES:
     dance-single:
     :
     Beginner:
     1:
     0.089778,0.159478,0.043044,0.000000,0.000000,73.000000,68.000000,5.000000,0.000000,0.000000,0.000000,0.089778,0.159478,0.043044,0.000000,0.000000,73.000000,68.000000,5.000000,0.000000,0.000000,0.000000:
1000
0000
0000
0000
,
0000
0000
0000
0000
,
1000
0000
0010
0000
,
0000
0000
0000
0000
,
0001
0000
0100
0000
,
0000
0000
0110
0000
,
0010
0000
0000
0000
,
0000
0000
0000
0000
,
0110
0000
0100
0000
,
0000
0000
0000
0000
,
1001
0000
0000
0001
,
0000
0100
0000
0000
,
1001
0000
1000
0000
,
0000
0000
0000
0010
,
0000
0000
0100
0000
,
0000
0001
0000
0001
,
0000
0000
1000
0000
,
0000
0010
0000
0010
,
0000
0000
0100
0000
,
0000
0010
0000
1000
,
0000
0000
0001
0000
,
0000
0000
0100
0000
,
0010
0000
0000
0000
,
0010
0000
0000
0000
,
0010
0000
0000
0000
,
0100
0000
0000
0000
,
0001
0000
0000
0000
,
1000
0000
0000
0000
,
0010
0000
0000
0000
,
0110
0000
0000
0000
,
0100
0000
0000
0000
,
0000
0000
0000
0000
,
0010
0000
0000
0000
,
0000
0000
0000
0000
,
1000
0000
0000
0000
,
1000
0000
0000
0000
,
1000
0000
0000
0000
,
0000
0000
0000
0000
,
0001
0000
0001
0000
,
0000
0000
0001
0000
,
1000
0000
1000
0000
,
0000
0000
1000
0000
,
0010
0000
0010
0000
,
0000
0000
0010
0000
,
0100
0000
0100
0000
,
0000
0000
0100
0000
,
0100
0000
0001
0000
,
0000
0000
0000
0000
,
0100
0000
0010
0000
,
0000
0000
0000
0000
,
0010
0000
1000
0000
,
0000
0000
0000
0000
,
1000
0000
0001
0000
,
0000
0000
0100
0000
,
0100
0000
0000
0000
,
0000
0000
0000
0000
,
0010
0000
0000
0000
,
0000
0000
0000
0000
,
1000
0000
0000
0001
,
0000
0100
0000
0010
,
0000
0000
0100
0000
,
0000
0000
0000
0001
;
