#TITLE:Getaway;
#SUBTITLE:;
#ARTIST:Koko;
#TITLETRANSLIT:;
#SUBTITLETRANSLIT:;
#ARTISTTRANSLIT:;
#GENRE:Hardcore;
#CREDIT:;
#BANNER:getaway-bn.png;
#BACKGROUND:Getaway-bg.png;
#LYRICSPATH:;
#CDTITLE:;
#MUSIC:Getaway.ogg;
#OFFSET:-0.040000;
#SAMPLESTART:86.100006;
#SAMPLELENGTH:9.700000;
#SELECTABLE:YES;
#BPMS:0.000000=169.990005
;
#STOPS:204.000000=0.177000,
204.500000=0.177000,
205.000000=0.177000,
205.500000=0.177000,
206.000000=0.177000,
206.500000=0.177000,
207.000000=0.177000,
207.500000=0.177000
;
#BGCHANGES:;
#KEYSOUNDS:;
#ATTACKS:;

//---------------dance-single - ----------------
#NOTES:
     dance-single:
     :
     Hard:
     8:
     0.518403,0.693820,0.224884,0.245329,0.061332,355.000000,333.000000,22.000000,24.000000,0.000000,0.000000,0.518403,0.693820,0.224884,0.245329,0.061332,355.000000,333.000000,22.000000,24.000000,0.000000,0.000000:
0000
0000
0000
0000
,
0000
0000
0000
0000
,
0000
0000
0000
0000
,
0000
0000
0000
0000
,
0000
0000
0000
0000
,
0000
0000
0000
0000
0000
0000
0001
0000
0010
0000
0000
0200
0000
0000
2000
0000
,
0000
0000
0000
3300
,
1000
0010
0000
1000
0010
0000
1000
0010
,
0000
0201
0000
0301
0010
0100
0010
0001
,
1000
0100
0010
0100
1000
0000
1100
0000
,
0000
0021
0000
0031
0100
0010
0100
0001
,
1000
0010
0100
0010
1000
0000
1010
0000
,
0000
1002
0000
1003
0100
0001
0100
1000
,
0001
0010
1000
0010
0001
0000
1001
0000
,
0000
0120
0000
0130
0001
0010
0100
1000
,
0010
0010
1000
0001
0100
0010
1000
0100
,
0010
0000
0000
0001
1000
0010
0100
0010
,
1000
0100
0000
1000
0000
1000
0010
0001
,
0010
0100
0000
0000
0000
0000
0100
1000
,
0100
0010
0000
0000
0000
0001
0001
0001
,
0001
0000
0000
0100
0010
1000
0100
0010
,
0001
1000
0000
0001
0000
0001
0100
0001
,
0100
0010
0000
0000
0000
0000
0010
1000
,
0010
0100
0000
0000
0000
0000
0001
1000
,
2002
0000
3003
0000
0010
0100
0001
1000
,
0010
0000
0000
0100
1000
0100
0001
1000
,
0010
1001
1010
0100
,
0011
0100
1010
0100
,
0011
0000
1000
0001
0200
0000
0020
0000
,
0000
0000
0000
0330
,
1000
0000
0000
0100
0000
0000
0002
0000
0000
0000
0200
0000
0000
0000
0000
0000
,
0000
0000
0000
0000
0000
0000
0303
1000
,
0001
0000
0000
0100
0000
0000
0010
0000
0000
0000
0100
0000
1000
0000
0100
0000
,
0001
0010
0100
1000
0010
0100
0001
1000
,
0100
0000
0000
0020
0000
0000
0002
0000
0000
0000
0000
0000
0000
0000
0000
0000
,
0000
0000
0033
0000
0100
0001
0000
0100
,
0001
0000
0100
0001
0000
1001
0000
0000
,
0010
1000
0010
0200
0000
0000
0300
0010
,
0100
0010
1000
0001
0200
0000
0000
0000
,
0000
1300
0010
1000
0000
0001
0100
0001
,
1000
0000
0010
0000
0100
0000
0001
0000
1000
0000
0000
0000
0000
0000
0100
0001
,
0100
0010
1000
0100
0010
0001
0000
0000
,
0000
0000
0010
1000
0010
0001
0000
0000
,
0000
0000
0100
0010
0100
0000
0001
0000
0100
0000
1000
0000
0000
0000
0000
0000
,
0010
0010
0010
0010
0010
0000
1100
1000
,
0001
0010
0100
0001
0100
0010
0000
0000
,
0000
0000
1000
0100
1000
0010
0000
0000
,
0000
0000
0001
0100
0001
0010
0100
1000
,
0100
0100
0100
0100
0200
0000
0000
0000
,
1300
0001
0100
0010
1000
0000
0000
0010
,
0100
0001
1000
0010
1000
0000
0000
0000
,
1100
0010
0101
0010
1100
0010
0101
0010
,
1000
0100
0010
0000
0100
0010
1000
0001
,
0010
0000
0100
0000
1000
0000
0000
0000
1000
0000
0000
0001
0000
0000
2000
0000
,
0000
3010
0100
0001
1000
0000
0100
1000
,
0010
0000
0100
0000
0010
0000
0000
0000
0010
0000
0000
1000
0000
0000
0020
0000
,
0000
0130
0001
1000
0010
0000
0100
0001
,
0100
0000
0010
0000
0100
0000
0001
0000
1000
0000
0000
0001
0000
0000
0100
0000
,
0020
0000
0001
0000
,
1030
1001
0110
1001
,
0010
1000
0100
0001
0100
1000
0010
0100
,
0001
0000
0010
0000
0100
0000
1000
0000
0001
0000
0000
0100
0000
0000
0002
0000
,
0000
1003
0100
0001
0100
1000
0010
0100
,
0001
0000
1000
0000
0010
0000
0100
0000
0010
0000
0000
0100
0000
0000
0020
0000
,
0000
1030
0100
0001
0100
1000
0100
0001
,
0100
0000
1000
0000
0010
0000
0100
0000
0001
0000
0000
2000
0000
0000
0002
0000
,
0000
0000
0000
3003
,
0010
0100
0000
0010
0100
0000
0010
0100
;

//---------------dance-single - ----------------
#NOTES:
     dance-single:
     :
     Beginner:
     2:
     0.128505,0.311644,0.081776,0.173774,0.000000,88.000000,80.000000,8.000000,17.000000,0.000000,0.000000,0.128505,0.311644,0.081776,0.173774,0.000000,88.000000,80.000000,8.000000,17.000000,0.000000,0.000000:
0000
0000
0000
0000
,
0000
0000
0000
0000
,
0000
0000
0000
0000
,
0000
0000
0000
0000
,
0000
0000
0000
0000
,
0000
0000
0010
0000
,
0000
0000
0000
0000
,
1000
0000
0000
0001
,
0001
0000
0000
0000
,
0100
0000
0001
0001
,
0000
0010
0000
0000
,
0000
0000
1000
1000
,
0000
0100
0000
0000
,
0000
0000
0010
0010
,
0000
1000
0000
0000
,
0002
0000
0003
0001
,
0001
0000
0000
1000
,
0000
0000
0000
0220
,
0330
0000
0000
0220
,
0330
0000
0000
1000
,
1000
0000
0000
0000
,
0001
0000
0000
2002
,
3003
0000
0000
2002
,
3003
0000
0000
0010
,
0010
0000
0100
0000
,
1000
0000
0001
0000
,
0100
0000
0010
0010
,
0010
0010
0010
0010
,
0010
0010
0010
0000
,
0000
0000
0000
0000
,
1000
0000
0000
0000
,
0000
0000
0000
0000
,
0100
0000
0000
0000
,
0000
0000
0000
0000
,
0001
0000
0000
0000
,
0000
0000
0010
0000
,
0000
0100
0100
0000
,
0000
0000
0000
0000
,
0001
0001
0001
0000
,
0000
1000
0000
0000
,
0000
0010
0010
0000
,
0000
0000
1000
0000
,
0000
2002
3003
0000
,
0000
2002
3003
0000
,
0000
0100
0100
0100
,
0000
0000
0001
0000
,
0000
0220
0330
0000
,
0000
0220
0330
0000
,
0000
1000
1000
0000
,
0001
0000
0100
0000
,
0010
0000
1000
0000
,
0000
0000
0000
0000
,
0000
0000
0000
0000
,
0000
0000
0001
0000
,
0000
0000
0000
0000
,
0000
0000
0100
0000
,
0000
0000
0000
0000
,
0000
0000
1000
0000
,
0000
0000
0000
0000
,
0001
0001
0001
0001
,
0001
0000
0000
0000
,
0000
0000
1000
0000
,
0000
0000
0000
0000
,
0000
0000
0010
0000
,
0000
0000
0000
0000
,
0000
0000
0001
0000
,
0000
0000
0000
0000
,
1000
0000
0000
0001
;

//---------------dance-single - ----------------
#NOTES:
     dance-single:
     :
     Medium:
     6:
     0.351930,0.659129,0.183996,0.275995,0.051110,241.000000,223.000000,18.000000,27.000000,0.000000,0.000000,0.351930,0.659129,0.183996,0.275995,0.051110,241.000000,223.000000,18.000000,27.000000,0.000000,0.000000:
0000
0000
0000
0000
,
0000
0000
0000
0000
,
0000
0000
0000
0000
,
0000
0000
0000
0000
,
0000
0000
0000
0000
,
0000
0000
0000
0000
0000
0000
0000
0000
0010
0000
0000
0010
0000
0000
0020
0000
,
0000
0000
0000
0030
,
1000
0001
0000
1000
0001
0000
1000
0001
,
0000
0200
0000
0310
1000
0000
0001
0000
,
0100
0001
0100
0010
0100
0000
0001
0000
,
0000
0020
0000
0130
0010
0000
0001
0000
,
1000
0010
1000
0100
1000
0000
0001
0000
,
0000
2000
0000
3010
1000
0000
0001
0000
,
0010
0100
0010
0001
0010
0000
0001
0000
,
0000
0002
0000
0103
0001
0000
1000
0000
,
0001
1000
0001
1000
0001
0000
0100
0000
,
0010
0000
0000
1000
0100
0000
0010
0000
,
0001
0000
0000
0000
0000
0000
0100
0010
,
0100
0010
0000
0000
0000
0000
1000
0001
,
1000
0001
0000
0000
0000
0000
1100
0000
,
0011
0000
0100
0001
,
1000
0010
0000
0000
0000
0000
0010
1000
,
0010
1000
0000
0000
0000
0000
0001
0100
,
0001
0100
0000
0000
0000
0000
0101
0000
,
2020
0000
3030
0000
0001
1000
0010
0100
,
0010
0000
0000
0000
1000
0001
0100
0010
,
0100
0000
0020
1000
,
0230
0001
0320
1000
,
0230
0001
0320
0200
,
0000
0000
0000
0330
,
0001
0000
0000
0001
0000
0000
0002
0000
0000
0000
2000
0000
0000
0000
0000
0000
,
0000
0000
0000
3003
,
0100
0000
0000
0100
0000
0000
0200
0000
0000
0000
0000
0000
0000
0000
0000
0000
,
0000
0000
0000
0300
,
1000
0000
0000
1000
0000
0000
2000
0000
0000
0000
0000
0000
0000
0000
0000
0000
,
0000
0000
3000
0000
0010
0100
0000
0010
,
0100
0000
0010
0100
0000
1001
0000
0000
,
0010
1000
0001
0100
0002
0000
0000
0000
,
1003
0100
0010
0001
1000
0000
0000
0000
,
0000
0000
0010
0100
0001
0000
0000
0000
,
0000
0010
1000
0000
,
0100
1000
0100
0000
0010
0001
0000
0000
,
0000
0000
1000
0100
1000
0100
0000
0000
,
0000
0000
0010
0001
0010
0001
0000
0000
,
0000
1010
1001
0000
,
0001
0010
0001
0000
1000
0010
0000
0000
,
0000
0000
0001
0100
0001
0100
0000
0000
,
0000
0000
0010
1000
0010
1000
0000
0000
,
0000
1001
0220
0330
,
1000
0100
0010
0001
1000
0000
0000
0000
,
0001
0010
0100
1000
0001
0000
0000
0000
,
1001
0010
1001
0100
1001
0010
1001
0100
,
1001
0000
0000
0000
,
0000
0000
0000
0000
0000
0000
0000
0000
0100
0000
0000
0001
0000
0000
0010
0000
,
0000
0000
0000
0000
,
0000
0000
0000
0000
0000
0000
1000
0000
0100
0000
0000
0010
0000
0000
0001
0000
,
0000
0000
0000
0000
,
0000
0000
0000
0000
0000
0000
0001
0000
1000
0000
0000
0020
0000
0000
0200
0000
,
0000
0330
1001
0000
,
0110
0000
1100
0000
0011
0000
0001
1000
,
0200
0000
0000
0000
,
0000
0000
0000
0000
0000
0000
0000
0000
0310
0000
0000
1000
0000
0000
0002
0000
,
0000
0200
0000
0000
0000
0000
0000
0000
,
0303
0000
0000
0000
0000
0000
0010
0000
1000
0000
0000
0100
0000
0000
0010
0000
,
0000
0001
1000
0010
0100
0001
1000
0010
,
0100
0000
0000
0000
0000
0000
0001
0000
0100
0000
0000
0002
0000
0000
2000
0000
,
0000
0000
0000
3003
,
0001
1000
0000
0010
0100
0000
0001
1000
;

//---------------dance-single - ----------------
#NOTES:
     dance-single:
     :
     Easy:
     4:
     0.265773,0.589747,0.286217,0.306661,0.000000,182.000000,154.000000,28.000000,30.000000,0.000000,0.000000,0.265773,0.589747,0.286217,0.306661,0.000000,182.000000,154.000000,28.000000,30.000000,0.000000,0.000000:
0000
0000
0000
0000
,
0000
0000
0000
0000
,
0000
0000
0000
0000
,
0000
0000
0000
0000
,
0000
0000
0000
0000
,
0000
0000
0220
0000
,
0000
0000
0000
0330
,
1000
0010
0000
1000
0010
0000
1000
0010
,
0000
2000
0000
0000
3001
0000
1000
0000
,
0010
0100
0101
0101
,
0000
0002
0000
0000
1003
0000
0001
0000
,
0010
0100
1100
1100
,
0000
0020
0000
0000
0130
0000
0001
0000
,
1000
0010
1010
1010
,
0000
0200
0000
0000
0310
0000
1000
0000
,
0001
0100
0010
1000
0001
0000
1000
0000
,
0010
0000
1000
0100
,
0001
0000
0000
0000
0000
0000
0100
1000
,
0100
0000
0000
0000
0000
0000
0100
0001
,
0100
0000
0000
0010
,
0010
0000
1000
0001
,
0100
0000
0000
0000
0000
0000
0001
0010
,
0001
0000
0000
0000
0000
0000
0001
0100
,
0001
0000
0000
0001
,
1000
0000
0010
1000
,
0100
0000
0010
0001
,
0100
0000
1001
1001
,
1001
1001
1001
1001
,
1001
1001
0020
0000
,
0000
0000
0000
0030
,
2200
0000
3300
0000
,
0000
0000
0000
0000
,
0202
0000
0303
0000
,
0000
0000
0000
0000
,
0220
0000
0330
0000
,
0000
0000
0000
0000
1000
0001
0000
1000
,
0001
0000
1000
0001
0000
0000
0000
0000
,
0010
1000
0020
0000
,
0130
0001
1000
0000
,
0000
0110
0000
0000
,
0000
0001
0010
0000
,
0100
1000
0010
0000
,
0000
0000
1000
0100
1000
0000
0000
0000
,
0000
0000
1000
0010
1000
0000
0000
0000
,
0000
0001
1000
0010
,
1000
0100
0010
0000
,
0000
0000
0010
1000
0010
0000
0000
0000
,
0000
0000
0010
0001
0010
0000
0000
0000
,
0000
0001
0020
0000
,
0130
1000
0001
0000
,
0100
0001
1000
0000
,
0010
0010
0010
0010
0010
0010
0010
0010
,
0010
0000
0000
0000
,
0000
0000
2200
0000
,
3300
0000
0000
0000
,
0000
0000
0022
0000
,
0033
0000
0000
0000
,
0000
0000
2002
0000
,
3003
0000
0010
0000
,
0110
0110
0110
0000
,
0002
2000
0000
0000
,
0000
3003
2020
0000
,
3030
0200
0000
0000
0000
0000
0000
0000
,
0000
0300
0022
0000
,
0033
1000
0100
0010
,
0001
0000
0202
0000
,
0000
0000
0000
0303
,
1000
0001
0000
1000
0001
0000
1000
0001
;

//---------------dance-double - ----------------
#NOTES:
     dance-double:
     :
     Hard:
     8:
     0.524244,0.693820,0.265773,0.214662,0.061332,359.000000,333.000000,26.000000,21.000000,0.000000,0.000000,0.524244,0.693820,0.265773,0.214662,0.061332,359.000000,333.000000,26.000000,21.000000,0.000000,0.000000:
00000000
00000000
00000000
00000000
,
00000000
00000000
00000000
00000000
,
00000000
00000000
00000000
00000000
,
00000000
00000000
00000000
00000000
,
00000000
00000000
00000000
00000000
,
00000000
00000000
00000000
00000000
00000000
00000000
00100000
00000000
00001000
00000000
00000000
00010000
00000000
00000000
00000200
00000000
,
00000000
00000000
00000000
00000000
,
00001300
00000010
00000000
00000001
00000010
00000000
00001000
00000010
,
00000000
00000101
00000000
00000001
00000010
00000100
00001000
00000100
,
00000010
00000001
00000100
00001000
00020000
00000000
02030000
00000000
,
03000000
10100000
00000000
10000000
01000000
00100000
00010000
00100000
,
01000000
10000000
00100000
00010000
00002000
00000000
00003020
00000000
,
00000030
00001001
00000000
00000100
00000010
00001000
00000001
00001000
,
00000010
00000100
00001000
00010000
02000000
00000000
23000000
00000000
,
30000000
10010000
00000000
10000000
00010000
01000000
00100000
00010000
,
00001000
00000010
00000001
00000100
00000010
00001000
00000001
00000100
,
00000020
00000000
00000030
00001000
00000100
00000010
00000001
00000100
,
00001000
00010000
00000000
01000000
00000000
10000000
00010000
00100000
,
01000000
10000000
00000000
00000000
00000000
00000000
10000000
01000000
,
00100000
00010000
00000000
00000000
01000000
01000000
01000000
01000000
,
01000000
00000000
00000000
00100000
00010000
00001000
00000010
00000001
,
00000100
00000010
00000000
00001000
00000000
00000001
00000100
00001000
,
00010000
01000000
00000000
00000000
00000000
00000000
10000000
00100000
,
01000000
00010000
00000000
00000000
00000000
00000000
10000000
00010000
,
02200000
00000000
03300000
00000000
00100000
01000000
00010000
10000000
,
02200000
00000000
03300000
01000000
00100000
00010000
00001000
00000010
,
00000002
00000003
00000101
00000010
,
00001100
00000010
00011000
00100000
,
01010000
00100000
11000000
00020000
,
00000000
00000000
00000000
00030000
,
01000000
00000000
00000000
00100000
00000000
00000000
00010000
00000000
00000000
00000000
00002000
00000000
00000000
00000000
00000000
00000000
,
00000000
00003020
00000000
00000000
00000000
00000032
00000000
00000103
,
00001000
00000000
00000000
00010000
00000000
00000000
01000000
00000000
00000000
00000000
10000000
00000000
00010000
00000000
01000000
00000000
,
00100000
10000000
00010000
01000000
00100000
10000000
00010000
10000000
,
01000000
00000000
00000000
00010000
00000000
00000000
00002000
00000000
00000000
00000000
00000000
00000000
00000000
00000000
00000000
00000000
,
00000000
00000000
00003000
00000000
00010000
00000100
00000000
00010000
,
00001000
00000000
00010000
00100000
00000000
20000000
00000000
30000000
,
00010000
01000000
00100000
10000000
02000000
00000000
03000000
00100000
,
00010000
10000000
00010000
00100000
11000000
00000000
00000000
00000000
,
00000000
00000000
00000000
00000000
00100000
00000000
00001000
00100000
00000000
00000000
00000000
00000000
00000000
00000000
00000000
00000000
,
00000000
01000000
10000000
00100000
00010000
00000000
00001000
00000010
,
00000001
00000100
00000010
00001000
00000100
00000010
00000000
00000000
,
00000000
00000000
00000001
00000100
00001000
00000100
00000000
00000000
,
00000000
00000001
00000010
00001000
00000010
00000001
00000000
00000000
,
00000000
00000001
00000001
00000001
00000001
00000000
00001001
00000010
,
00000100
00001000
00010000
01000000
10000000
00010000
00000000
00000000
,
00000000
00010000
10000000
00100000
01000000
00000000
00000000
00000000
,
00000000
00100000
00010000
00001000
00000010
00000001
00000000
00000000
,
00000001
00001000
00000010
00000100
00000110
00000000
00000000
00000000
,
00000100
00000010
00001000
00000001
00001001
00000000
00000000
00000001
,
00000100
00001000
00010000
01000000
10000000
00000000
00000000
00000000
,
11000000
00100000
01010000
00100000
00011000
00000100
00001010
00000100
,
00000011
00000000
00000100
00000010
00001000
00000001
00000000
00001000
,
00000001
00000000
00000100
00000000
00001000
00000000
00010000
00000000
01000000
00000000
00000000
10000000
00000000
00000000
01000000
00000000
,
00000000
10000000
00100000
01000000
00010000
10000000
00000000
01000000
,
00010000
00000000
00001000
00000000
00000010
00000000
00000001
00000000
00001000
00000000
00000000
00000010
00000000
00000000
00001000
00000000
,
00000001
00000100
00000010
00001000
00000100
00000010
00000000
00000001
,
00000100
00000000
00001000
00000000
00010000
00000000
01000000
00000000
10000000
00000000
00000000
00010000
00000000
00000000
20000000
00000000
,
01000000
00000000
00100000
00000000
,
31000000
00000000
00000000
00000000
00010000
00000000
00000000
00000000
00001000
00000000
00000000
00000010
00000001
00000000
00001000
00000000
,
00000010
00000100
00000001
00000010
00000001
00001000
00000010
00000100
,
00000010
00000000
00001000
00000000
00000010
00000000
00000000
00000000
00001100
00000000
00000000
00000010
00000000
00000000
00000101
00000000
,
00000000
00000100
00001000
00000000
00010000
01000000
00000000
01000000
,
10000000
00000000
01000000
00000000
10000000
00000000
00000000
00000000
10100000
00000000
00000000
01000000
00000000
00000000
00110000
00000000
,
00000000
10000000
00010000
01000000
00100000
10000000
01000000
00010000
,
00001000
00000000
00000010
00000000
00000001
00000000
00000000
00000000
00001001
00000000
00000000
00000010
00000000
00000000
00001001
00000000
,
00000010
00000100
00000000
00001000
00010000
01000000
00000000
10000000
,
01000000
00010000
00000000
00001000
00000100
00000000
00000001
00001000
;

//---------------dance-double - ----------------
#NOTES:
     dance-double:
     :
     Medium:
     6:
     0.357771,0.520365,0.102220,0.255551,0.051110,245.000000,235.000000,10.000000,25.000000,0.000000,0.000000,0.357771,0.520365,0.102220,0.255551,0.051110,245.000000,235.000000,10.000000,25.000000,0.000000,0.000000:
00000000
00000000
00000000
00000000
,
00000000
00000000
00000000
00000000
,
00000000
00000000
00000000
00000000
,
00000000
00000000
00000000
00000000
,
00000000
00000000
00000000
00000000
,
00000000
00000000
00000000
00000000
00000000
00000000
01000000
00000000
00010000
00000000
00000000
10000000
00000000
00000000
00020000
00000000
,
00000000
00000000
00000000
00000000
00000000
00000000
00000000
00030000
,
10000000
01000000
00000000
10000000
01000000
00000000
10000000
01000000
,
00000000
00020000
00000000
00031000
00000100
00000000
00000001
00000000
,
00001000
00000010
00000101
00001010
,
00000000
00000002
00000000
00000103
00001000
00000000
00010000
00000000
,
01000000
10000000
11000000
00110000
,
00000000
20000000
00000000
31000000
00010000
00000000
00001000
00000000
,
00000100
00000001
00000101
00001010
,
00000000
00000020
00000000
00000130
00001000
00000000
00010000
00000000
,
01000000
00000000
10000000
00000000
10100000
00000000
01010000
00010000
,
10000000
00000000
00000000
01000000
10000000
01000000
00100000
01000000
,
10000000
01000000
00000000
00000000
00000000
00000000
10000000
00100000
,
00010000
00000000
00000000
00000000
00000000
00000000
00001000
00000010
,
00000001
00000000
00000000
00000000
00000000
00000001
00001000
00000001
,
00001000
00000000
00000000
00000010
00000100
00000010
00001000
00000010
,
00000100
00000010
00000000
00000000
00000000
00000000
00000100
00001000
,
00010000
00000000
00000000
00000000
00000000
00000000
00010000
01000000
,
10000000
00000000
00000000
00200000
,
01300000
00000000
00000000
00000000
00100000
10000000
00100000
10000000
,
00100000
00000000
00000000
00000000
01000000
00010000
01000000
00010000
,
01000000
00000000
00100000
10000000
,
01000000
00010000
00001000
00000010
,
00000001
00000100
00000010
00002000
,
00000000
00000000
00000000
00003000
,
00000010
00000000
00000000
00000100
00000000
00000000
00000010
00000000
00000000
00000000
00000200
00000000
00000000
00000000
00000000
00000000
,
00000000
00002300
00000000
00000000
00000000
00023000
00000000
00030000
,
01000000
00000000
00000000
10000000
00000000
00000000
01000000
00000000
00000000
00000000
00000000
00000000
00000000
00000000
00000000
00000000
,
00000000
00000000
00000000
00000000
00000000
00000000
00000000
10000000
,
00010000
00000000
00000000
00100000
00000000
00000000
00020000
00000000
00000000
00000000
00000000
00000000
00000000
00000000
00000000
00000000
,
00000000
00000000
00030000
00000000
00100000
00010000
00000000
00100000
,
00010000
00000000
00100000
00010000
00000000
02000000
00000000
00000000
,
03001000
00010000
00001000
00010000
00000200
00000000
00000300
00000000
,
00001000
00000010
00001000
00000010
00000200
00000000
00000300
00000000
,
00000000
00000001
00001000
00000000
,
00000000
00000010
00000100
00000001
00001000
00000000
00000000
00001000
,
00000001
00000100
00000010
00000000
00000100
00000000
00000000
00000000
,
00000000
00000000
00000001
00000100
00001000
00000000
00000000
00000000
,
00000000
00000000
00010000
01000000
10000000
00000000
00000000
00000000
,
00000000
00100000
01000000
00100000
01000000
00000000
10010000
00000000
,
10000000
01000000
00100000
00010000
00100000
01000000
00000000
00000000
,
00000000
00000000
10000000
00100000
00010000
00000000
00000000
00000000
,
00000000
00000000
00001000
00000010
00000001
00000000
00000000
00000000
,
00000000
00000000
00000100
00000010
00001000
00000000
00000000
00000000
,
00000001
00000100
00000001
00000100
00000001
00000000
00000000
00000000
,
00001000
00000010
00001000
00000010
00001000
00000000
00000000
00000000
,
00000002
00000000
00000203
00000000
00002300
00000000
00023000
00000000
02030000
00000000
23000000
00000000
30200000
00000000
02300000
03000000
,
10010000
00000000
00000000
00000000
,
00000000
00000000
00000000
00000000
00000000
00000000
00000000
00000000
10000000
00000000
00000000
00100000
00000000
00000000
01000000
00000000
,
00000000
00000000
00000000
00000000
,
00000000
00000000
00000000
00000000
00000000
00000000
00000000
00000000
00000010
00000000
00000000
00000100
00000000
00000000
00000001
00000000
,
00000000
00000000
00000000
00000000
,
00000000
00000000
00000000
00000000
00000000
00000000
00000000
00000000
01000000
00000000
00000000
00010000
00000000
00000000
20000000
00000000
,
00100000
00000000
00100000
00000000
,
00100000
00100000
00100000
30100000
,
01000000
00020000
00000000
10030000
00100000
01000000
00010000
00000000
,
00010000
00000000
10000000
00000000
00000000
00000000
10000000
00000000
00100000
00000000
00000000
01000000
00000000
00000000
00100000
00000000
,
00000000
01000000
00001000
00000000
00001000
00010000
00000000
00010000
,
00000100
00000000
00001000
00000000
00000000
00000000
00001000
00000000
00000001
00000000
00000000
00000010
00000000
00000000
00000001
00000000
,
00000000
00000100
00000000
00001000
00000000
00010000
00000000
01000000
,
00000000
00000000
10000000
00000000
00000000
00000000
00100000
00000000
01000000
00000000
00000000
00010000
00000000
00000000
20000000
00000000
,
00000000
00000000
00000000
30000000
,
00100000
01000000
00000000
00100000
01000000
00000000
00100000
01000000
;

//---------------dance-double - ----------------
#NOTES:
     dance-double:
     :
     Easy:
     4:
     0.229265,0.346271,0.061332,0.102220,0.000000,157.000000,151.000000,6.000000,10.000000,0.000000,0.000000,0.229265,0.346271,0.061332,0.102220,0.000000,157.000000,151.000000,6.000000,10.000000,0.000000,0.000000:
// measure 0
00000000
00000000
00000000
00000000
,  // measure 1
00000000
00000000
00000000
00000000
,  // measure 2
00000000
00000000
00000000
00000000
,  // measure 3
00000000
00000000
00000000
00000000
,  // measure 4
00000000
00000000
00000000
00000000
,  // measure 5
00000000
00000000
00000000
01000000
00200000
00000000
00000000
20300000
,  // measure 6
00000000
00000000
00000000
30000000
,  // measure 7
00010000
00000000
00000000
10000000
00000000
00000000
00010000
00000000
,  // measure 8
00000000
10000000
00000000
00100000
10000000
00000000
01000000
00000000
,  // measure 9
00010000
00001000
00000010
00000001
,  // measure 10
00000000
00001000
00000000
00000100
00001000
00000000
00000001
00000000
,  // measure 11
00000100
00001000
00010000
01000000
,  // measure 12
00000000
10000000
00000000
00100000
10000000
00000000
00100000
00000000
,  // measure 13
00010000
00001000
00000010
00000001
,  // measure 14
00000000
00000100
00000000
00000010
00000100
00000000
00001000
00000000
,  // measure 15
00010000
01000000
10000000
00010000
,  // measure 16
01000000
00000000
00100000
10000000
,  // measure 17
00010000
00000000
00000000
01000000
,  // measure 18
00010000
00000000
00000000
00010000
,  // measure 19
01000000
00000000
00000000
00000000
00000000
00100000
10000000
00100000
,  // measure 20
10000000
00000000
01000000
00010000
,  // measure 21
00001000
00000000
00000000
00000100
,  // measure 22
00000001
00000000
00000000
00000001
,  // measure 23
00000100
00000000
00000000
00000010
,  // measure 24
00001000
00000000
00001000
00000001
,  // measure 25
00000100
00000000
00000100
00000001
,  // measure 26
00001000
00000000
00000001
00000100
,  // measure 27
00001000
00010000
01000000
10000000
,  // measure 28
00100000
01000000
00010000
20000000
,  // measure 29
00000000
00000000
00000000
30000000
,  // measure 30
00200000
00000000
00000000
00000000
00000000
02300000
00000000
00000000
,  // measure 31
00000000
00000000
00000000
00000000
,  // measure 32
03002000
00000000
00000000
00000000
00003000
00010000
00000000
00001000
,  // measure 33
00000000
00010000
00000000
00001000
00000000
00010000
00000000
00000000
,  // measure 34
00000020
00000000
00000000
00000200
00000000
00000000
00000000
00000000
,  // measure 35
00000000
00000000
00000000
00000330
00000001
00000000
00000000
00001000
,  // measure 36
00000000
00000000
00000001
00000000
00000000
00000200
00000000
00000000
,  // measure 37
00000310
00001000
00000010
00000000
,  // measure 38
00000100
00000001
00000100
00000000
,  // measure 39
00000000
00001000
00010000
01000000
,  // measure 40
00000000
10000000
00010000
00000000
,  // measure 41
00010000
10000000
01000000
00000000
,  // measure 42
00000000
01000000
00100000
00000000
,  // measure 43
00000000
00100000
01000000
00000000
,  // measure 44
00000000
10000000
00010000
00000000
,  // measure 45
01000000
00001000
00010000
00000000
,  // measure 46
00000000
00001000
00010000
00000000
,  // measure 47
00000000
00010000
00000100
00000000
,  // measure 48
00000000
00001000
00000001
00000000
,  // measure 49
00000001
00000100
00000010
00000000
,  // measure 50
00000010
00000100
00000001
00000000
,  // measure 51
00000000
00000000
00000000
00000000
,  // measure 52
00000000
00000000
00000000
00000000
,  // measure 53
00000000
00000000
00000000
00000000
00010000
00000000
00000000
00011000
,  // measure 54
00000000
00000000
00000000
00000000
,  // measure 55
00000000
00000000
00000000
00000000
01000000
00000000
00000000
01100000
,  // measure 56
00000000
00000000
00000000
00000000
,  // measure 57
00000000
00000000
00000000
00000000
00001000
00000000
00000000
00011000
,  // measure 58
00000000
00010000
00000000
00000000
,  // measure 59
00001000
00001000
00001000
00010000
,  // measure 60
00000100
00000020
00000000
00000000
,  // measure 61
00000000
00000000
00000000
00000000
00000031
00000000
00000000
00001001
,  // measure 62
00000000
00000000
00000000
00000000
,  // measure 63
00000000
00000000
00000000
00000000
00000100
00000000
00000000
00010100
,  // measure 64
00000000
00010000
00000000
00001000
00000000
00010000
00000000
00001000
,  // measure 65
00000000
00010000
00000000
00000000
00001000
00000000
00000000
00101000
,  // measure 66
00000000
00000000
00000000
00000000
,  // measure 67
00100000
00000000
00000000
01000000
00000000
00000000
10000000
00000000
;
