#TITLE:Get Lucky;
#SUBTITLE:;
#ARTIST:Daft Punk feat. Pharrell Williams;
#TITLETRANSLIT:;
#SUBTITLETRANSLIT:;
#ARTISTTRANSLIT:;
#GENRE:;
#CREDIT:;
#BANNER:getlucky-bn.png;
#BACKGROUND:getlucky-bg.png;
#LYRICSPATH:;
#CDTITLE:;
#MUSIC:Get Lucky.ogg;
#OFFSET:-0.020000;
#SAMPLESTART:74.600014;
#SAMPLELENGTH:12.000000;
#SELECTABLE:YES;
#BPMS:0.000000=116.059998
;
#STOPS:
;
#BGCHANGES:;
#KEYSOUNDS:;
#ATTACKS:;

//---------------dance-single - ----------------
#NOTES:
     dance-single:
     :
     Beginner:
     1:
     0.074797,0.110756,0.000000,0.000000,0.000000,52.000000,52.000000,0.000000,0.000000,0.000000,0.000000,0.074797,0.110756,0.000000,0.000000,0.000000,52.000000,52.000000,0.000000,0.000000,0.000000,0.000000:
// measure 0
0000
0000
0000
0000
,  // measure 1
0000
0000
0000
0000
,  // measure 2
0000
0000
0000
0000
,  // measure 3
0000
0100
0000
0000
,  // measure 4
1000
0000
0000
0000
,  // measure 5
0000
0000
0010
0000
,  // measure 6
0000
0000
0000
0000
,  // measure 7
0000
0000
0001
0000
,  // measure 8
0000
0000
0000
0000
,  // measure 9
0010
0000
0010
0000
,  // measure 10
0000
0000
0000
0000
,  // measure 11
0000
0000
0000
0001
,  // measure 12
0001
0000
0000
0010
,  // measure 13
0000
0000
0000
0100
,  // measure 14
0000
0000
0000
1000
,  // measure 15
0000
0000
0000
0000
,  // measure 16
1000
0000
0000
0100
,  // measure 17
0000
0000
0000
0010
,  // measure 18
0000
0000
0000
0001
,  // measure 19
0000
0000
0000
0000
,  // measure 20
0000
1000
1000
0000
,  // measure 21
0000
0001
0001
0000
,  // measure 22
0000
1000
1000
0000
,  // measure 23
0000
0001
0001
0000
,  // measure 24
0000
0100
0000
0000
,  // measure 25
0000
0100
0000
0000
,  // measure 26
0000
0100
0000
0000
,  // measure 27
0000
0100
0000
0000
,  // measure 28
0001
0000
0000
0000
,  // measure 29
1000
0000
0000
0000
,  // measure 30
0010
0000
0000
0000
,  // measure 31
0100
0000
0000
0000
,  // measure 32
0010
0000
0000
1000
,  // measure 33
0000
0000
0000
0001
,  // measure 34
0000
0000
0000
0100
,  // measure 35
0000
0000
0000
0000
,  // measure 36
0000
0001
0001
0000
,  // measure 37
0000
0010
0010
0000
,  // measure 38
0000
0001
0001
0000
,  // measure 39
0000
0010
0010
0000
,  // measure 40
0000
0100
0100
0000
,  // measure 41
0000
1000
1000
0000
,  // measure 42
0000
0100
0100
0000
,  // measure 43
0000
1000
1000
0000
,  // measure 44
0001
0000
0000
0000
;

//---------------dance-single - ----------------
#NOTES:
     dance-single:
     :
     Easy:
     2:
     0.133771,0.177210,0.020138,0.120825,0.000000,93.000000,91.000000,2.000000,12.000000,0.000000,0.000000,0.133771,0.177210,0.020138,0.120825,0.000000,93.000000,91.000000,2.000000,12.000000,0.000000,0.000000:
0000
0000
0000
0000
,
0000
0000
0000
0000
,
0000
0000
0000
0000
,
0000
0100
0010
1000
,
0001
0000
0000
0000
,
0000
0000
0010
0100
,
0001
0000
0000
0000
,
0000
0000
0100
0010
,
1000
0000
0000
0000
,
1001
0000
0001
0100
,
1000
0000
0000
0000
,
0000
0000
0000
0010
,
0200
0000
0000
0001
,
0302
0000
0000
1000
,
2003
0000
0000
0010
,
3020
0000
0000
0000
,
0230
0000
0000
0010
,
0320
0000
0000
1000
,
2030
0000
0000
0001
,
3002
0000
0000
1003
,
0000
0100
0001
0100
,
0000
0001
0010
0001
,
0000
1000
0010
1000
,
0000
0001
0000
1000
,
0001
0000
0000
0000
,
0100
0000
0000
0000
,
0010
0000
0000
0000
,
1000
0000
0000
1000
,
0010
0000
0000
0100
,
0001
0000
0010
0100
,
1000
0000
0010
0010
,
0100
0000
0001
0001
,
0020
0000
0000
1000
,
2030
0000
0000
0001
,
3002
0000
0000
0010
,
0023
0000
0000
0031
,
0000
0010
1000
0010
,
0000
1000
0100
1000
,
0000
0001
1000
0010
,
0000
0100
0001
0010
,
0001
0100
0010
0100
,
0000
0001
0010
0001
,
0000
1000
0100
1000
,
0000
0001
1000
0001
,
1001
0000
0000
0000
;

//---------------dance-single - ----------------
#NOTES:
     dance-single:
     :
     Medium:
     4:
     0.220075,0.268836,0.130894,0.151032,0.000000,153.000000,140.000000,13.000000,15.000000,0.000000,0.000000,0.220075,0.268836,0.130894,0.151032,0.000000,153.000000,140.000000,13.000000,15.000000,0.000000,0.000000:
0000
0000
0000
0000
,
0000
0000
0000
0000
,
0000
0000
0000
0000
,
0000
0000
0001
0000
0010
0001
0010
0001
,
0000
0000
0000
0000
0000
0000
0000
0001
,
1000
0000
0000
0000
1000
0000
0010
1000
,
0010
1000
0000
0000
0000
0000
0000
0100
,
0010
0000
0000
0000
0001
0000
0100
0001
,
0100
0001
0000
0000
0000
0000
0000
0001
,
0010
0000
0000
0000
0100
0000
1000
0100
,
1000
0100
0000
0000
0000
0000
0000
0000
,
0000
1001
0000
0000
0000
0010
0100
0010
,
0200
0000
0000
0000
0000
0301
0000
0101
,
0000
0000
0000
0000
0000
0010
0000
1010
,
0000
0000
0000
0000
0000
1000
0000
1100
,
0000
0000
0000
0000
0000
0000
0000
0001
,
2000
0000
0000
0000
0000
3010
0000
0110
,
0000
0000
0000
0000
0000
0010
0000
0011
,
0000
0000
0000
0000
0000
1000
0010
2000
,
0000
0000
0000
3001
,
0000
0100
0001
0000
1000
0000
0010
0000
,
0000
0010
1000
0000
0001
0000
0100
0000
,
0000
0100
0010
0000
1000
0000
0001
0000
,
0000
0001
0100
0010
1000
0000
0001
0000
,
2002
0000
0000
3003
,
2020
0000
0000
3030
,
0220
0000
0000
0330
,
0202
0000
0000
0000
0303
0000
0001
1000
,
0001
0000
0010
0000
0100
1000
0100
0000
,
1000
0000
0010
0000
0100
0001
0100
0001
,
0100
0000
0001
0000
1000
0010
0100
0000
,
0001
0000
0010
0000
0100
0010
0001
0010
,
0002
0000
0000
0000
0000
1003
0000
1001
,
0000
0000
0000
0000
0000
0010
0000
1010
,
0000
0000
0000
0000
0000
0010
0100
0020
,
0000
0000
0000
0000
0000
0000
1030
0001
,
1000
0010
1000
0000
0010
0000
0001
0000
,
0000
0010
0100
0000
0001
0000
0010
0000
,
0000
0001
0100
0000
1000
0000
0001
0000
,
0000
0100
0010
0000
1000
0000
0100
0000
,
0000
1000
0100
0010
0001
0000
1000
0000
,
0000
0001
0010
0100
1000
0000
0001
0000
,
0000
0100
0010
1000
0001
0000
0100
0000
,
0000
0010
0100
0001
1000
0000
0010
0000
,
0220
0000
0330
0000
;

//---------------dance-single - ----------------
#NOTES:
     dance-single:
     :
     Hard:
     7:
     0.369668,0.403254,0.080550,0.060413,0.050344,257.000000,249.000000,8.000000,6.000000,0.000000,0.000000,0.369668,0.403254,0.080550,0.060413,0.050344,257.000000,249.000000,8.000000,6.000000,0.000000,0.000000:
0000
0000
0000
0000
,
0000
0000
0000
0000
,
0000
0000
0000
0000
,
0000
0000
0000
0000
,
0100
0000
0001
0000
0000
0100
0000
0000
0010
0000
0000
0000
0100
0000
0010
0000
,
1000
0000
0001
0000
0000
1000
0000
0000
0001
0000
0000
0000
1000
0000
0010
0000
,
1000
0000
0100
0000
0000
1000
0000
0000
0100
0000
0000
0000
1000
0000
0100
0000
,
0010
0000
0100
0000
0000
0001
0000
0000
0100
0000
0000
0000
1000
0000
0001
0000
,
1000
0000
0100
0000
0000
0010
0000
0000
0100
0000
0000
0000
1000
0000
0010
0000
,
1000
0000
0001
0000
0000
0010
0000
0000
0001
0000
0000
0000
1000
0000
0001
0000
,
0010
0000
0001
0000
0000
0100
0000
0000
0010
0000
0000
0000
1000
0000
0100
0000
,
1000
0000
0010
0000
0000
0100
0000
0000
0001
0000
1000
0000
0001
0000
0100
0000
,
0001
0000
0100
0000
1000
0010
1000
0010
,
0100
0000
0001
0000
0010
0001
0010
0001
,
0100
0000
0010
0000
0100
0010
0100
0010
,
1000
0000
0000
0000
0001
0000
0000
0000
1000
0000
0000
0001
1000
0000
0100
0000
,
1000
0000
0010
0000
0100
1000
0100
1000
,
0010
0000
0100
0000
0001
0100
0001
0100
,
0010
0000
1000
0000
0001
1000
0001
1000
,
0010
0000
0100
0000
0001
0100
0010
0100
,
0001
0010
0100
0010
0001
0000
1001
0000
,
1000
0010
0100
0010
1000
0000
1001
0000
,
1000
0001
0010
0100
1000
0000
1001
0000
,
0001
1000
0100
0010
0001
1000
0001
1000
,
0020
1000
0000
0031
,
0200
0001
0000
1300
,
0020
1000
0000
0031
,
0200
0000
0301
0000
0100
0001
1000
0001
,
0010
0000
0100
0000
0010
0000
0001
0000
1000
0000
0010
0000
1000
0000
0000
0010
,
1000
0010
0100
0001
1000
0010
1000
0010
,
0100
0001
0010
0100
1000
0001
1000
1000
,
0010
0100
0010
1000
0001
0100
0010
0010
,
0100
0000
0001
0000
0010
0100
1000
0001
,
0010
0000
0001
0000
1000
0100
0010
0100
,
1000
0000
0010
0000
0100
0001
0010
0100
,
1000
0000
0010
0000
0100
0001
1000
0010
,
1000
0100
0010
0100
1000
0000
0011
0000
,
0001
0100
0010
0100
0001
0000
1010
0000
,
0010
1000
0001
0100
0001
0000
0110
0000
,
0010
1000
0100
0010
0100
0000
1001
0000
,
0010
0100
1000
0010
0100
0001
0010
0000
,
0001
0100
0010
1000
0100
0010
0100
0000
,
1000
0010
0100
0001
0010
0100
0010
0001
,
1000
0100
0010
0100
0001
0100
1000
0001
,
2002
0000
3003
0000
;

//---------------dance-double - ----------------
#NOTES:
     dance-double:
     :
     Easy:
     3:
     0.211444,0.215220,0.140963,0.070481,0.000000,147.000000,133.000000,14.000000,7.000000,0.000000,0.000000,0.211444,0.215220,0.140963,0.070481,0.000000,147.000000,133.000000,14.000000,7.000000,0.000000,0.000000:
00000000
00000000
00000000
00000000
,
00000000
00000000
00100000
00001000
,
00011000
00000000
00000000
00000000
,
00000100
00000000
00001000
00000010
,
00001010
00000000
00000000
00000000
,
00000001
00000000
00001000
00000100
,
00010100
00000000
00000000
00000000
,
00002000
00003000
00100000
00010000
,
01010000
00000000
00000000
00000000
,
00100000
00000000
00000000
00000000
,
01000000
10000000
01000000
00010000
,
00001000
00000010
00000100
00000010
,
00010000
00001000
01000000
00010000
,
00100000
00001000
00010000
00000010
,
00000100
00001000
00000100
00000001
,
00001000
00000010
00010000
00001000
,
01000000
10000000
01000000
00010000
,
00100000
00001000
00100000
00101000
,
00000000
00001000
00001000
00011000
,
00000000
00010000
00010000
00010100
,
00000000
00000010
00000010
00000110
,
00000000
00000001
00001000
00000100
,
00000200
00010000
00000000
00010300
,
00002000
01000000
00000000
01003000
,
00200000
10000000
00000000
10300000
,
00020000
00100000
00000000
00130000
,
00001000
00010000
00001000
00011000
,
00010000
00000100
00001000
00000010
,
00000100
00000001
00001000
00000010
,
00010000
00001000
00010000
00001000
,
00100000
00010000
00110000
00000000
,
01000000
10000000
11000000
00000000
,
00010000
00100000
00110000
00000000
,
00001000
00010000
00011000
00000000
,
00000100
00000100
00001000
00000010
,
00010000
00010000
00001000
00010000
,
00001000
00001000
01000000
00100000
,
10000000
10000000
00010000
00100000
,
00010000
00010000
00100000
00001000
,
00010000
00010000
00000010
00000100
,
00000001
00000001
00001000
00000100
,
00010000
00010000
00001000
00001000
,
00022000
00000000
00000000
00033000
;

//---------------dance-double - ----------------
#NOTES:
     dance-double:
     :
     Medium:
     5:
     0.279049,0.301308,0.070481,0.181238,0.000000,194.000000,187.000000,7.000000,18.000000,0.000000,0.000000,0.279049,0.301308,0.070481,0.181238,0.000000,194.000000,187.000000,7.000000,18.000000,0.000000,0.000000:
00000000
00000000
00000000
00000000
,
00000000
00000000
00000000
00000000
,
00000000
00000000
00000000
00000000
01000000
10000000
01000000
10000000
,
00100000
00000000
00100000
00000000
01000000
00000000
01000000
00001000
,
01000000
00001000
01000000
00000000
00001000
00000000
00010000
00000000
,
00000010
00000000
00000100
00000000
00000001
00001000
00000001
00001000
,
00000001
00000000
00000100
00000000
00001000
00000000
00000010
00010000
,
00000010
00010000
00001000
00010000
,
00011000
00000000
00100000
00000000
,
00010000
01000000
10000000
01000000
,
00020000
00000000
00100000
00000000
00130000
00001000
00100000
00002000
,
00000000
00000000
00010000
00000000
00013000
00000010
00010000
00000020
,
00000000
00000000
00000100
00000000
00000130
00000001
00000100
00000002
,
00000000
00001003
00000100
00010000
,
00002000
00000000
00100000
00000000
00103000
00010000
00100000
00020000
,
00000000
00000000
01000000
00000000
01030000
00100000
01000000
00200000
,
00000000
00000000
10000000
00000000
10300000
01000000
10000000
02000000
,
00000000
03100000
00001000
00010000
,
00000100
00000000
00000100
00000000
00000100
00001000
00000010
00000000
,
00000010
00000000
00000010
00000000
00000010
00000100
00000001
00000000
,
00000001
00000000
00000001
00000000
00000001
00001000
00000100
00000000
,
00000100
00000000
00000100
00000000
00000100
00010000
00001000
00010000
,
00002000
00100000
00000000
00103000
,
00020000
01000000
00000000
01030000
,
00200000
01000000
00000000
01300000
,
00002000
00000000
00010000
00000000
00000000
00000000
00013000
00001000
,
00010000
00000000
00000010
00001000
00000010
00000000
00000100
00000000
,
00000001
00000010
00000100
00001000
00000100
00000000
00000100
00000000
,
00010000
00001000
00011000
00101000
,
00100000
01000000
11000000
10100000
,
00200000
00000000
00000000
00000000
00300000
00010000
00100000
00002000
,
00000000
00000000
00000000
00000000
00003000
00010000
00001000
00000200
,
00000000
00000000
00000000
00000300
00000000
00000010
00001000
00000002
,
00000000
00000000
00001003
00001100
,
00010000
00001000
00100000
00001000
00010000
00000000
00010000
00000000
,
00001000
01000000
00100000
01000000
00001000
00000000
00001000
00000000
,
01000000
00010000
10000000
00010000
01000000
00000000
01000000
00000000
,
00010000
00100000
00001000
00100000
00010000
00000000
00010000
00000000
,
00100000
00001000
00010000
00000100
00001000
00000000
00001000
00000000
,
00000010
00000100
00000001
00001000
00000100
00000000
00000100
00000000
,
00000100
00010000
00001000
00100000
00010000
00000000
00010000
00000000
,
01000000
00010000
10000000
00100000
10000000
00000000
10000000
00000000
,
20020000
00000000
00000000
30030000
;

//---------------dance-double - ----------------
#NOTES:
     dance-double:
     :
     Hard:
     8:
     0.425765,0.430440,0.140963,0.140963,0.377579,296.000000,282.000000,14.000000,14.000000,0.000000,0.000000,0.425765,0.430440,0.140963,0.140963,0.377579,296.000000,282.000000,14.000000,14.000000,0.000000,0.000000:
00000000
00000000
00000000
00000000
,
00000000
00000000
00000000
00000000
,
01000000
00000000
10000000
00000000
00000000
00100000
00000000
00000000
01000000
00000000
00000000
00010000
00000000
00000000
00100000
00000000
,
00001000
00000000
00100000
00000000
00000000
00010000
00000000
00000000
01000000
00000000
00000000
00100000
00000000
00000000
01000000
00000000
,
00001000
00000000
00010000
00000000
00000000
00001000
00000000
00000000
00000100
00000000
00000000
00001000
00000000
00000000
00010000
00000000
,
00000010
00000000
00000100
00000000
00000000
00000001
00000000
00000000
00001000
00000000
00000000
00000100
00000000
00000000
00001000
00000000
,
00000010
00000000
00010000
00000000
00000000
00000010
00000000
00000000
00000100
00000000
00000000
00010000
00000000
00000000
00001000
00000000
,
01000000
00000000
00010000
00000000
00000000
10000000
00000000
00000000
01000000
00000000
00000000
00100000
00000000
00000000
01000000
00000000
,
10000000
00000000
00010000
00000000
00000000
00100000
00000000
00000000
01000000
00000000
00000000
00100000
00000000
00000000
00001000
00000000
,
00010000
00000000
00000100
00000000
00000000
00000010
00000000
00000000
00000100
00000000
00000000
00001000
00000000
00000000
00000001
00000000
,
00000200
00000000
00001300
00010000
01000000
10000000
00100000
20000000
,
00000000
30100000
00010000
00000000
00001000
00000010
00000001
00000020
,
00000000
00001030
00010000
00000000
01000000
10000000
01000000
00020000
,
00000000
00000000
01030000
00000000
00000000
10000000
00000000
00000000
00010000
00000000
00000000
10000000
00000000
00000000
01000000
00000000
,
00020000
00000000
00031000
00000100
00000001
00000010
00001000
00000020
,
00000000
00001030
00010000
00000000
00100000
10000000
00100000
00020000
,
00000000
00031000
00000100
00000000
00000001
00000100
00001000
00000200
,
00000000
00000000
00000301
00000000
00000000
00001000
00000000
00000000
00000100
00000000
00000000
00001000
00000000
00000000
00000001
00000000
,
00001000
00000000
00000100
00001000
00000000
00001000
00000100
00000000
00010000
00000000
00001000
00000000
00011000
00000000
00000000
00000000
,
00001000
00000000
00100000
00010000
00000000
00010000
00100000
00000000
00010000
00000000
01000000
00000000
11000000
00000000
00000000
00000000
,
01000000
00000000
00001000
00010000
00000000
00010000
00001000
00000000
00010000
00000000
00000100
00000000
00010100
00000000
00000000
00000000
,
00000100
00000000
00001000
00000001
00000000
00000001
00000000
00001000
00000000
00001000
00000010
00000000
00010000
00000000
00010000
00000000
,
00010020
00000100
00000000
00000130
,
00020100
00001000
00000000
00031000
,
02001000
00100000
00000000
03100000
,
20100000
00000000
00010000
00000000
30010000
10000000
00100000
01000000
,
00010000
00100000
00010000
00100000
00010000
00000000
00100000
00000000
00001000
00000000
00010000
00000000
00000010
00000000
00000000
00001000
,
00000100
00000000
00001000
00000010
00000000
00000010
00000100
00000000
00000001
00000000
00000001
00000000
00001000
00000000
00001000
00000000
,
00000100
00010000
00000100
00010000
00000100
00000000
00000000
00000000
00010000
00000000
00001000
00000000
01000000
00000000
01000000
00000000
,
00010000
00100000
00010000
00100000
00010000
00000000
10000000
00000000
01000000
00000000
00100000
00000000
01000000
00000000
01000000
00000000
,
10000000
00000000
00010000
00100000
00000000
00100000
00000000
01000000
00000000
01000000
00100000
00000000
00001000
00000000
00001000
00000000
,
00000000
00000000
00010000
00000100
00000000
00000100
00000000
00001000
00000000
00001000
00000010
00000000
00000100
00000000
00000100
00000000
,
00000000
00000000
00000001
00001000
00000000
00001000
00000000
00000100
00000000
00000100
00010000
00000000
00001000
00000000
00001000
00000000
,
00000000
00000000
01000000
00100000
00000000
00100000
00000000
10000000
00000000
10000000
00010000
00000000
00100000
00000000
00100000
00000000
,
00001000
00000000
00010000
00000100
00000000
00010000
00000100
00000000
00001000
00000000
00000010
00000000
00001010
00000000
00000000
00000000
,
00000001
00000000
00000100
00000010
00000000
00000100
00000010
00000000
00001000
00000000
00000100
00000000
00010100
00000000
00000000
00000000
,
00010000
00000000
00001000
01000000
00000000
00001000
01000000
00000000
00100000
00000000
00010000
00000000
00110000
00000000
00000000
00000000
,
00100000
00000000
10000000
01000000
00000000
01000000
00000000
00100000
00000000
00100000
00010000
00000000
00100000
00000000
00100000
00000000
,
00001000
00000000
00010000
00000010
00000000
00010000
00000010
00000000
00000100
00000000
00001000
00000000
00001100
00000000
00000000
00000000
,
00000100
00000000
00000001
00000010
00000000
00000001
00000010
00000000
00000100
00000000
00010000
00000000
00010100
00000000
00000000
00000000
,
00001000
00000000
00100000
00010000
00000000
00100000
00010000
00000000
01000000
00000000
10000000
00000000
11000000
00000000
00000000
00000000
,
01000000
00000000
00010000
00100000
00000000
00100000
00000000
00001000
00000000
00001000
00010000
00000000
00000100
00000000
00000010
00000000
,
00000220
00000000
00000000
00000330
;
