#VERSION:0.83;
#TITLE:Get ‘Em;
#SUBTITLE:;
#ARTIST:Wolfgang Gartner feat. Eve;
#TITLETRANSLIT:;
#SUBTITLETRANSLIT:;
#ARTISTTRANSLIT:;
#GENRE:House;
#ORIGIN:;
#CREDIT:;
#BANNER:getem-bn.png;
#BACKGROUND:getem-bg.png;
#PREVIEWVID:;
#JACKET:;
#CDIMAGE:;
#DISCIMAGE:;
#LYRICSPATH:;
#CDTITLE:;
#MUSIC:Get 'Em.ogg;
#OFFSET:-0.020000;
#SAMPLESTART:38.099998;
#SAMPLELENGTH:12.000000;
#SELECTABLE:YES;
#BPMS:0.000=126.000;
#STOPS:;
#DELAYS:;
#WARPS:;
#TIMESIGNATURES:0.000=4=4;
#TICKCOUNTS:0.000=4;
#COMBOS:0.000=1;
#SPEEDS:0.000=1.000=0.000=0;
#SCROLLS:0.000=1.000;
#FAKES:;
#LABELS:0.000=Song Start;
#BGCHANGES:;
#KEYSOUNDS:;
#ATTACKS:
;

//---------------dance-single - ----------------
#NOTEDATA:;
#CHARTNAME:;
#STEPSTYPE:dance-single;
#DESCRIPTION:;
#CHARTSTYLE:;
#DIFFICULTY:Hard;
#METER:7;
#RADARVALUES:0.389089,0.413388,0.053827,0.096888,0.075357,253.000000,248.000000,5.000000,9.000000,0.000000,0.000000,0.000000,0.000000,0.000000,0.389089,0.413388,0.053827,0.096888,0.075357,253.000000,248.000000,5.000000,9.000000,0.000000,0.000000,0.000000,0.000000,0.000000;
#CREDIT:;
#NOTES:
0000
0000
0000
0000
,
0000
0000
0000
0000
,
0000
0000
0000
0000
,
0010
0100
0010
0100
0010
0100
0010
0000
,
1000
0000
0100
0000
0001
0010
0001
0000
,
0100
0001
0100
0000
0100
0001
0100
0001
,
0001
0000
0010
0000
1000
0100
1000
0000
,
0010
1000
0010
0000
0010
1000
0010
0100
,
0100
0000
0001
0000
0010
1000
0010
0000
,
0001
0100
0001
0000
0100
1000
0100
0010
,
0010
0000
0001
0000
0100
0001
0100
0000
,
0001
0010
0001
0000
1000
0010
1000
0100
,
0100
0000
1000
0000
0001
0100
0001
0000
,
0001
0000
0000
0010
0000
0000
0001
0000
1000
0000
0001
0000
1000
0000
0010
0000
,
0010
0000
1000
0000
0100
0001
0100
0000
,
1000
0000
0000
0010
0000
0000
1000
0000
0001
0000
1000
0000
0001
0000
0010
0000
,
0010
0000
0100
0000
0110
0110
0110
0000
,
0001
0000
0000
1000
0000
0000
0001
0000
1000
0000
1000
0000
1000
0000
0000
0000
,
0002
0000
0000
0000
,
0103
0000
0000
0001
0100
0000
0000
0001
0100
0000
0000
0001
0100
0000
0000
0000
,
0010
0000
0000
0100
0000
0000
0010
0000
0001
0000
0000
0000
1000
0000
0000
0000
,
0020
1000
1000
1030
,
0100
0001
0100
1000
0100
0001
0100
0000
,
0200
0001
0001
0301
,
1000
0000
0000
0001
0000
0000
1000
0000
0100
0000
1000
0000
0010
0000
0000
0000
,
0002
0010
0010
0013
,
0001
0010
0100
1000
0100
0010
0001
0000
,
1000
0100
1000
0010
1000
0001
1000
0010
,
0010
0000
0000
0110
,
0000
0000
0000
0000
0000
0001
0001
0000
,
1000
0000
0000
0010
0100
0000
0010
0000
0100
0000
0000
0000
0001
0000
0000
0000
,
0010
0000
0000
0100
0000
0000
0010
0000
1000
0000
1000
0000
1000
0000
0000
0000
,
0001
0000
0010
0000
1000
0010
0001
0000
,
1000
0000
0001
0000
0010
1000
0010
0001
,
1000
0000
0100
0000
0001
0100
1000
0000
,
0001
0000
1000
0010
0001
0010
1000
0000
,
0010
0100
1000
0000
0010
0100
0001
0000
,
0001
0010
0100
0000
0100
1000
0010
1000
,
2200
0000
0000
3300
,
1000
0000
0000
0001
0000
0000
1000
0001
1000
0000
0000
0000
1000
0000
0001
0000
,
0100
0000
0000
0001
0000
0000
0100
0000
0010
0000
0000
0000
1000
0000
0000
0000
,
0020
0001
0001
0031
,
1000
0100
0001
0100
1000
0100
0001
0000
,
0020
0000
1000
0000
1000
1000
1030
0000
,
0001
0000
0000
0100
0000
0000
0001
0000
0010
0000
0000
0000
0001
0000
0000
0000
,
0020
0001
0001
0031
,
1000
0100
0010
1000
0010
0001
0100
0000
,
0010
0100
0010
1000
0100
0010
0100
0100
,
1000
0000
0000
0000
;

//---------------dance-single - ----------------
#NOTEDATA:;
#CHARTNAME:;
#STEPSTYPE:dance-single;
#DESCRIPTION:;
#CHARTSTYLE:;
#DIFFICULTY:Challenge;
#METER:8;
#RADARVALUES:0.472136,0.490898,0.086122,0.010765,0.236837,307.000000,299.000000,8.000000,1.000000,0.000000,0.000000,0.000000,0.000000,0.000000,0.472136,0.490898,0.086122,0.010765,0.236837,307.000000,299.000000,8.000000,1.000000,0.000000,0.000000,0.000000,0.000000,0.000000;
#CREDIT:;
#NOTES:
0000
0000
0000
0000
,
0000
0000
0000
0000
,
0000
0000
0000
0000
,
0001
0010
0001
0010
0001
0010
0100
0010
,
1000
0000
0000
0010
0001
0000
0000
0000
0001
0000
0010
0000
0100
0000
0000
0000
,
0010
0001
0010
0000
0010
1000
0010
0001
,
0100
0000
0000
0001
0100
0000
0000
0000
0010
0000
1000
0000
0100
0000
0000
0000
,
1000
0010
1000
0000
1000
0100
1000
0010
,
0100
0000
0000
0010
0100
0000
0000
0000
0001
0000
0100
0000
1000
0000
0000
0000
,
0100
0001
0100
0000
0100
1000
0100
0001
,
0010
0000
0000
0001
0010
0000
0000
0000
0001
0000
1000
0000
0100
0000
0000
0000
,
0010
0001
0010
0000
0010
0100
0010
0001
,
1000
0000
0000
0100
0010
0000
0001
0000
0100
0000
0100
0000
0100
0000
0000
0000
,
1000
0000
0000
0010
0000
0000
0100
0000
0001
0000
1000
0000
1010
0000
0000
0000
,
0001
0000
0000
0010
0100
0000
0001
0000
0100
0000
0100
0000
0100
0000
0000
0000
,
0001
0000
0000
1000
0000
0000
0100
0000
0010
0000
0001
0000
1100
0000
0000
0000
,
0010
0000
0000
1000
0001
0000
0010
0000
1000
0000
1000
0000
1010
0000
0000
0000
,
0010
0000
0000
0001
0000
0000
0100
0000
0001
0000
0001
0000
0101
0000
0000
0000
,
0020
0000
0000
0000
,
0130
0000
0000
0001
1000
0000
0000
0010
0100
0000
0000
0001
1000
0000
0010
0000
,
0100
0000
0000
0001
0000
0000
0100
0000
0001
0000
1000
0000
0001
0000
0000
0000
,
0010
0000
0000
1000
0000
0000
0010
0000
1000
0000
0100
0000
1000
0000
0000
0000
,
1000
0100
1000
0000
0100
0000
1000
0000
0100
0000
0100
0000
0100
0000
0000
0000
,
0010
0001
0010
0000
0001
0000
0010
0000
0001
0000
0001
0000
0001
0000
0000
0000
,
0100
0000
0000
0010
0000
0000
0100
0000
0010
0000
1000
0000
0010
0000
0000
0000
,
1000
0000
0000
0001
0000
0000
0100
0000
0001
0000
1000
0000
0001
0000
0000
0000
,
1000
0100
1000
0000
0001
0000
0100
0000
0001
0000
1000
0000
0100
0000
0000
0000
,
0001
0010
0001
0000
1000
0000
0010
0000
1000
0000
0001
0000
0010
0000
0100
0000
,
0011
0000
0000
1100
,
0000
0000
0000
0000
0000
0110
0110
0000
,
0010
0000
0000
0001
0010
0000
0001
0000
1000
0000
0100
0000
1000
0000
0000
0000
,
0010
0000
0000
0100
0000
0000
1000
0000
0010
0000
0010
0000
0010
0000
0000
0000
,
0001
0000
0000
1000
0001
0000
0000
0100
0001
0000
0000
1000
0001
0000
0000
0000
,
1000
0010
0100
1000
0100
0001
1000
0100
,
1000
0000
0000
0010
1000
0000
0000
0001
1000
0000
0000
0100
1000
0000
0000
0000
,
0001
0010
0100
0001
0100
1000
0001
0010
,
0100
0000
0000
0010
0100
0000
0000
0001
0100
0000
0000
1000
0100
0000
0000
0000
,
0001
0010
0100
1000
0100
0001
0100
0000
,
1000
0001
1000
0001
1000
0000
0010
0000
0100
0000
0010
0000
0100
0000
0000
0000
,
0001
0000
0000
0010
0000
0000
0000
0001
1000
0000
0000
0000
0010
0000
0010
0000
,
0010
0000
0000
1000
0000
0000
0100
0000
1000
0000
0010
0000
0100
0000
0000
0000
,
0100
0000
0000
0001
0000
0000
0010
0000
0001
0000
0100
0000
0010
0000
0000
0000
,
0100
0010
0100
0000
0001
0000
1000
0000
0001
0000
0001
0000
0001
0000
0000
0000
,
0010
0100
0010
0000
1000
0000
0001
0000
1000
0000
1000
0000
1000
0000
0000
0000
,
0001
0000
0000
0010
0000
0000
0100
0000
0010
0000
0001
0000
1000
0000
0000
0000
,
1000
0000
0000
0010
0000
0000
0100
0000
0010
0000
1000
0000
0001
0000
0000
0000
,
0010
0001
0010
0000
0001
0000
1000
0000
0100
0000
0010
0000
0001
0000
0000
0000
,
0100
1000
0100
0000
1000
0000
0001
0000
0010
0000
0100
0000
1000
0000
0010
0000
,
0010
0000
0000
0000
;

//---------------dance-single - ----------------
#NOTEDATA:;
#CHARTNAME:;
#STEPSTYPE:dance-single;
#DESCRIPTION:;
#CHARTSTYLE:;
#DIFFICULTY:Medium;
#METER:6;
#RADARVALUES:0.362945,0.413388,0.161480,0.107653,0.000000,236.000000,221.000000,15.000000,10.000000,0.000000,0.000000,0.000000,0.000000,0.000000,0.362945,0.413388,0.161480,0.107653,0.000000,236.000000,221.000000,15.000000,10.000000,0.000000,0.000000,0.000000,0.000000,0.000000;
#CREDIT:;
#NOTES:
0000
0000
0000
0000
,
0000
0000
0000
0000
,
0000
0000
0000
0000
,
1001
0011
1100
1010
,
0010
0000
1000
0000
0001
0001
0001
0000
,
1000
0001
1000
1010
,
0001
0000
0010
0000
0100
0100
0100
0000
,
0010
0001
0100
0101
,
0010
0000
1000
0000
0001
0001
0001
0000
,
0010
1000
0010
0110
,
0100
0000
0001
0000
1000
1000
1000
0000
,
0010
1000
0001
0110
,
0001
0000
0010
0000
0001
1000
0100
0000
,
2002
0000
3003
0000
0010
0100
0001
0000
,
0010
0000
0001
0000
1000
0100
0010
0000
,
2200
0000
3300
0000
0010
0100
0001
0000
,
1000
0000
0001
0000
0010
0010
0010
0000
,
2000
0000
3020
0000
0001
0001
0031
0000
,
0200
0000
0000
0300
,
0110
1001
1100
0011
,
0001
0000
1000
0000
0010
0001
0010
0000
,
0001
0000
1000
0000
0010
1000
0010
0000
,
1000
0100
0010
0001
0010
0100
1000
0000
,
0001
0010
0100
1000
0100
0010
0001
0000
,
0100
0000
0001
0000
1000
0001
1000
0000
,
0100
0000
1000
0000
0001
1000
0001
0000
,
0100
0010
1000
0001
1000
0010
0100
0000
,
0010
0100
0001
1000
0001
0100
0010
0000
,
2000
0000
0000
3002
,
0000
0000
0000
0000
0000
0010
0013
0000
,
0001
0000
1000
0000
0100
0010
0001
0000
,
1000
0000
0000
0010
0010
0010
0010
0000
,
0100
1000
0100
0001
,
0010
0001
0010
0001
0010
0000
0001
0000
,
0100
0010
0001
0010
,
1000
0100
1000
0100
1000
0000
0010
0000
,
1000
0100
0010
1000
,
0010
0001
0010
0001
0010
0000
0001
0000
,
1000
0010
0100
0001
0100
0010
2000
0000
,
0000
0000
0000
3000
,
0001
0000
0010
0000
0100
1000
0100
0000
,
1000
0000
0100
0000
0010
0001
0010
0000
,
0001
0100
0010
0100
0001
0100
0010
0000
,
1000
0010
0100
0010
1000
0010
0100
0000
,
1000
0000
0010
0000
0100
0010
0001
0000
,
0001
0000
0100
0000
0010
0100
1000
0000
,
0001
0100
0010
1000
0010
0100
0001
0000
,
1000
0010
0100
0001
0100
0010
1000
0000
,
1001
0000
0000
0000
;

//---------------dance-single - ----------------
#NOTEDATA:;
#CHARTNAME:;
#STEPSTYPE:dance-single;
#DESCRIPTION:;
#CHARTSTYLE:;
#DIFFICULTY:Easy;
#METER:2;
#RADARVALUES:0.143025,0.206694,0.010765,0.075357,0.000000,93.000000,92.000000,1.000000,7.000000,0.000000,0.000000,0.000000,0.000000,0.000000,0.143025,0.206694,0.010765,0.075357,0.000000,93.000000,92.000000,1.000000,7.000000,0.000000,0.000000,0.000000,0.000000,0.000000;
#CREDIT:;
#NOTES:
0000
0000
0000
0000
,
0000
0000
0000
0000
,
0000
0000
0000
0000
,
0001
0001
0001
0001
,
0010
0000
0001
0100
,
1000
0000
0000
0000
,
1000
0000
0100
0010
,
0001
0000
0000
0000
,
0001
0000
1000
0010
,
0001
0000
0000
0000
,
0100
0000
0010
1000
,
0100
0000
0000
0000
,
1000
0000
0001
0100
,
2000
0000
0000
3000
,
0001
0000
0100
0001
,
0020
0000
0000
0030
,
0001
0000
0000
1000
,
0020
0000
0000
0000
,
0230
0000
0000
0000
,
0000
0000
0000
0300
,
0001
0000
1000
1000
,
0001
0000
1000
1000
,
0010
0000
0100
0000
,
0010
0000
0100
0000
,
0001
0000
0010
0010
,
0001
0000
0010
0010
,
0001
0000
0100
0000
,
0001
0000
0100
0000
,
0010
0000
0000
1000
,
0000
0000
0000
0001
,
0010
0000
0001
1000
,
0002
0000
0000
0003
,
0000
0000
0000
0000
,
1000
0100
0010
0000
,
0000
0000
0000
0000
,
0001
0100
0010
0000
,
0000
0000
0000
0000
,
1000
0001
0010
0000
,
2002
0000
0000
0000
,
0000
0000
3003
0000
,
0100
0000
1000
1000
,
0100
0000
1000
1000
,
0001
0000
0010
0000
,
0001
0000
0010
0000
,
0001
0000
0010
0100
,
0001
0000
0010
0100
,
0001
0010
0100
0000
,
1000
0100
0010
0000
,
1000
0000
0000
0000
;

//---------------dance-single - ----------------
#NOTEDATA:;
#CHARTNAME:;
#STEPSTYPE:dance-single;
#DESCRIPTION:;
#CHARTSTYLE:;
#DIFFICULTY:Beginner;
#METER:1;
#RADARVALUES:0.083047,0.155020,0.000000,0.053827,0.000000,54.000000,54.000000,0.000000,5.000000,0.000000,0.000000,0.000000,0.000000,0.000000,0.083047,0.155020,0.000000,0.053827,0.000000,54.000000,54.000000,0.000000,5.000000,0.000000,0.000000,0.000000,0.000000,0.000000;
#CREDIT:;
#NOTES:
0000
0000
0000
0000
,
0000
0000
0000
0000
,
0000
0000
0000
0000
,
0001
0001
0001
0001
,
0001
0000
0000
0000
,
0010
0000
0000
0000
,
0100
0000
0000
0000
,
0010
0000
0000
0000
,
1000
0000
0000
0000
,
0100
0000
0000
0000
,
0010
0000
0000
0000
,
0100
0000
0000
0000
,
1000
0000
0000
0000
,
0002
0000
0003
0000
,
0100
0000
0000
0000
,
0020
0000
0030
0000
,
0000
0000
0000
0100
,
0100
0000
0000
0000
,
0002
0000
0000
0000
,
0000
0000
0000
0003
,
0001
0000
0000
0000
,
0001
0000
0000
0000
,
1000
0000
1000
0000
,
1000
0000
1000
0000
,
0010
0000
0000
0000
,
0010
0000
0000
0000
,
0100
0000
0100
0000
,
0100
0000
0100
0000
,
0010
0000
0000
0100
,
0000
0000
0000
1000
,
1000
0000
0000
0000
,
0020
0000
0030
0000
,
0010
0000
0000
0000
,
1000
0000
0000
0000
,
0000
0000
0000
0000
,
0001
0000
0000
0000
,
0000
0000
0000
0000
,
0100
0000
0000
0000
,
0020
0000
0000
0000
,
0000
0000
0000
0030
,
0010
0000
0000
0000
,
0010
0000
0000
0000
,
1000
0000
1000
0000
,
1000
0000
1000
0000
,
0001
0000
0000
0000
,
0001
0000
0000
0000
,
0100
0000
0100
0000
,
0100
0000
0100
0000
,
0001
0000
0000
0000
;

//---------------dance-double - ----------------
#NOTEDATA:;
#CHARTNAME:;
#STEPSTYPE:dance-double;
#DESCRIPTION:;
#CHARTSTYLE:;
#DIFFICULTY:Challenge;
#METER:8;
#RADARVALUES:0.475211,0.542571,0.096888,0.086122,0.290663,309.000000,300.000000,9.000000,8.000000,0.000000,0.000000,0.000000,0.000000,0.000000,0.475211,0.542571,0.096888,0.086122,0.290663,309.000000,300.000000,9.000000,8.000000,0.000000,0.000000,0.000000,0.000000,0.000000;
#CREDIT:;
#NOTES:
// measure 0
00000000
00000000
00000000
00000000
,  // measure 1
00000000
00000000
00000000
00000000
,  // measure 2
00000000
00000000
00000000
00000000
,  // measure 3
00010000
00001000
00010000
00001000
00010000
00001000
00010000
00001000
,  // measure 4
00100000
00000000
00000000
01000000
10000000
00000000
00000000
00000000
01000000
00000000
00010000
00000000
00001000
00000000
00000000
00000000
,  // measure 5
00000010
00000001
00000010
00000001
00000010
00000000
00000000
00000000
00000011
00000000
00000000
00000010
00000001
00000000
00000000
00000000
,  // measure 6
00001000
00000000
00000000
00000010
00000100
00000000
00000000
00000000
00001000
00000000
00010000
00000000
01000000
00000000
00000000
00000000
,  // measure 7
10000000
00100000
10000000
00000000
00100000
00000000
10000000
00000000
00100000
10000000
00100000
00000000
00000000
10010000
00000000
00000000
,  // measure 8
10000000
00000000
00000000
00100000
01000000
00000000
00000000
00000000
00100000
00000000
00010000
00000000
00001000
00000000
00000000
00000000
,  // measure 9
00000100
00000001
00000100
00000001
00000100
00000000
00000000
00000000
00000101
00000000
00000001
00000000
00000100
00000000
00000000
00000000
,  // measure 10
00000010
00000100
00001000
00010000
01000000
00010000
01000000
10000000
,  // measure 11
00100000
00000000
01000000
00010000
01000000
00000000
00100000
00000000
10000000
00000000
01000000
00000000
10000000
00000000
00000000
00000000
,  // measure 12
01000000
00000000
00000000
00010000
00001000
00000000
00000000
00000000
00000100
00000000
00000001
00000000
00000100
00000000
00000000
00000000
,  // measure 13
00000001
00000010
00000001
00000100
00000001
00000010
00000001
00000000
,  // measure 14
00000100
00000000
00000000
00001000
00010000
00000000
00000000
00000000
01000000
00000000
10000000
00000000
01000000
00000000
00000000
00000000
,  // measure 15
10000000
00000000
00100000
00000000
10000000
00000000
01000000
00000000
10000000
00000000
00000000
00000000
00010000
10000000
00000000
00000000
,  // measure 16
10010000
00000000
00000000
00100000
01000000
00000000
00000000
00000000
00100000
00000000
00010000
00000000
00001000
00010000
00000000
00000000
,  // measure 17
00001000
00000000
00000000
00001000
00000000
00000000
00000100
00000000
00000001
00000000
00000001
00000000
00001000
00000001
00000000
00000000
,  // measure 18
00000001
00001000
00010000
10000000
,  // measure 19
10000000
00000000
00000000
10000000
00010000
00000000
00000000
00010000
10000000
00000000
00000000
10000000
00010000
00000000
00000000
00000000
,  // measure 20
01000000
00000000
00000000
01000000
00000000
00000000
00100000
00000000
01000000
00000000
01000000
00000000
00100000
00000000
00000000
00000000
,  // measure 21
00010000
00000000
00000000
00001000
00000000
00000000
00010000
00000000
00001000
00000000
00000010
00000000
00000001
00000000
00000000
00000000
,  // measure 22
00000100
00000010
00000100
00000000
00000010
00000100
00000010
00000000
00000100
00000000
00001000
00000000
00010000
00000000
00000000
00000000
,  // measure 23
00001000
00010000
00001000
00000000
00100000
00000000
00010000
00000000
00100000
00000000
00010000
00000000
00100000
00000000
00000000
00000000
,  // measure 24
01000000
00000000
00000000
10000000
00000000
00000000
01000000
10000000
01000000
00000000
10000000
00000000
01000000
00000000
00000000
00000000
,  // measure 25
00010000
00000000
00000000
00001000
00000000
00000000
00000100
00000000
00000001
00000000
00000100
00000000
00000001
00000000
00000000
00000000
,  // measure 26
00000010
00000001
00000010
00000001
00000010
00000000
00000001
00000010
00000001
00000000
00000010
00000000
00000001
00000000
00000000
00000000
,  // measure 27
00000100
00000100
00001000
00010000
01000000
01000000
10000000
00010000
,  // measure 28
10010000
00000000
00000000
00001001
,  // measure 29
00000000
00000000
00000000
00000000
00000000
10000000
00100000
00000000
,  // measure 30
01000000
00010000
10000000
00100000
00010000
00001000
00000010
00000000
,  // measure 31
00000001
00001000
00000001
00000000
00000100
00000000
00000010
00000100
00000010
00000100
00000010
00000000
00001000
00000000
00000000
00000000
,  // measure 32
00000020
00000230
00002300
00013000
,  // measure 33
01000000
00000000
00000000
10000000
00000000
00000000
01000000
00000000
10000000
00000000
01000000
00000000
10000000
00000000
00000000
00000000
,  // measure 34
00200000
00320000
00032000
00003010
,  // measure 35
00000001
00000000
00000000
00000100
00000000
00000000
00000001
00000000
00000100
00000000
00000001
00000000
00000100
00000000
00000000
00000000
,  // measure 36
00001000
00000000
00000000
00010000
00000000
00000000
01000000
00000000
10000000
00000000
00000000
00000000
00010000
00000000
00000000
00000000
,  // measure 37
10000000
00000000
00000000
00100000
00000000
00000000
10000000
00000000
00100000
00000000
00010000
00000000
00001000
00000000
00000000
00000000
,  // measure 38
00022000
00000000
00000000
00033000
,  // measure 39
00011000
00000000
00000000
00010000
00001000
00000000
00000000
00001000
00010000
00000000
00000000
00000000
00000010
00000000
00000010
00000000
,  // measure 40
00001000
00000000
00000000
00000100
00000000
00000000
00000010
00000000
00000001
00000000
00000100
00000000
00000010
00000000
00000000
00000000
,  // measure 41
00000100
00000000
00000000
00001000
00000000
00000000
00010000
00000000
01000000
00000000
01000000
00000000
10000000
00000000
00000000
00000000
,  // measure 42
00100000
01000000
00100000
00000000
10000000
00010000
10000000
00000000
00100000
00000000
01000000
00000000
00100000
00000000
00000000
00000000
,  // measure 43
00010000
00001000
00010000
00000000
00001000
00000000
00000100
00000000
00000001
00000000
00000010
00000000
00000100
00000000
00000000
00000000
,  // measure 44
00001000
00000000
00000000
00000010
00000000
00000000
00000100
00000001
00000100
00000000
00000010
00000000
00001000
00000000
00000000
00000000
,  // measure 45
00000010
00000000
00000000
00000100
00000000
00000000
00001000
00000000
00010000
00000000
01000000
00000000
10000000
00000000
00000000
00000000
,  // measure 46
00010000
00100000
00010000
00100000
00010000
00000000
10000000
01000000
10000000
00000000
00010000
00000000
00100000
00000000
00000000
00000000
,  // measure 47
01000000
10000000
01000000
00000000
00010000
00000000
00001000
00000000
00000010
00000000
00000001
00000000
00001001
00000000
00000100
00000000
,  // measure 48
00000010
00000000
00000000
00000000
;
