#TITLE:Fuaraya;
#SUBTITLE:;
#ARTIST:pulstate;
#TITLETRANSLIT:;
#SUBTITLETRANSLIT:;
#ARTISTTRANSLIT:;
#GENRE:Trance;
#CREDIT:;
#BANNER:fuaraya-bn.png;
#BACKGROUND:fuaraya-bg.png;
#LYRICSPATH:;
#CDTITLE:;
#MUSIC:Fuaraya.ogg;
#OFFSET:-0.010000;
#SAMPLESTART:67.500000;
#SAMPLELENGTH:12.000000;
#SELECTABLE:YES;
#BPMS:0.000000=128.000000
;
#STOPS:
;
#BGCHANGES:;
#KEYSOUNDS:;
#ATTACKS:;

//---------------dance-single - ----------------
#NOTES:
     dance-single:
     :
     Hard:
     9:
     0.552430,0.518259,0.129565,0.099665,0.921902,388.000000,375.000000,13.000000,10.000000,0.000000,0.000000,0.552430,0.518259,0.129565,0.099665,0.921902,388.000000,375.000000,13.000000,10.000000,0.000000,0.000000:
// measure 0
0000
0000
0000
0000
,  // measure 1
0000
0000
0000
0000
,  // measure 2
0000
0000
0000
0000
,  // measure 3
0200
0000
0302
0000
,  // measure 4
1003
0010
0001
0000
0110
0000
1000
0000
,  // measure 5
0100
0010
0000
1000
0100
0001
0000
0100
,  // measure 6
1000
0010
0000
0100
0001
0010
0000
0001
,  // measure 7
1000
0000
0010
0100
0010
1000
0000
0001
,  // measure 8
1000
0100
0000
0010
0000
0000
1000
0000
1000
0100
0000
0010
0000
0000
0001
0000
,  // measure 9
0001
0010
0000
0100
0000
0000
0001
0010
0000
0010
0000
0100
0000
1000
0000
0000
,  // measure 10
0010
1000
0000
0001
0000
0000
0010
1000
0000
1000
0000
0001
0000
0000
0100
0000
,  // measure 11
0100
0001
0000
0010
0000
0000
0100
0001
0000
0001
0000
0010
0000
0001
0000
0000
,  // measure 12
0010
0100
0000
1000
0000
0000
0010
0100
0000
0100
0000
1000
0000
0000
0001
0000
,  // measure 13
0001
1000
0000
0100
0000
0000
0001
1000
0000
1000
0000
0100
0000
1000
0000
0000
,  // measure 14
0010
0100
0000
0001
0000
0000
0100
0010
0000
0010
0000
1000
0000
0000
0001
0000
,  // measure 15
0010
0100
0000
1000
0000
0000
0010
0100
0000
0001
0000
0100
0010
0000
0010
0000
,  // measure 16
1000
0100
0000
0100
0000
0000
1000
0000
0100
1000
0000
1000
0000
0000
0010
0000
,  // measure 17
0100
0001
0000
0001
0000
0000
0010
0000
0100
0001
0000
0010
0000
0001
0000
0000
,  // measure 18
1000
0001
0000
0001
0000
0000
0010
0000
1000
0001
0000
0001
0000
0000
0010
0000
,  // measure 19
0001
0010
0000
0010
0000
0000
0001
0000
0010
0100
0000
0010
0000
0100
0000
0000
,  // measure 20
0010
0001
0000
1000
0000
0000
0010
0000
0001
1000
0000
0010
0000
0000
0100
0000
,  // measure 21
0010
0001
0000
1000
0000
0000
0100
0000
0010
0100
0000
1000
0000
0010
0000
0000
,  // measure 22
0100
0001
0000
0010
0000
0000
0001
0000
0100
0010
0000
1000
0000
0000
0010
0000
,  // measure 23
1000
0100
0000
0010
0000
0000
0100
0000
1000
0100
0000
0010
0000
0100
0000
0000
,  // measure 24
1000
0020
0000
0031
0010
2010
0000
3100
,  // measure 25
0001
0201
0000
0310
0001
0021
0000
1030
,  // measure 26
0001
0021
0000
0031
0100
0210
0000
0301
,  // measure 27
0100
0102
0000
0013
1000
1020
0000
1030
,  // measure 28
0100
0000
0000
1000
0000
0000
0010
0000
0100
0001
0000
0001
0000
0001
0010
0000
,  // measure 29
0001
0000
0000
1000
0000
0000
0010
0000
1000
0100
0000
0100
0000
0100
0010
0000
,  // measure 30
0100
0000
0000
0001
0000
0000
0100
0000
1000
0001
0000
0010
0000
0010
0100
0000
,  // measure 31
1000
0000
0000
0010
0000
0000
1000
0000
0100
0010
0000
0010
0000
0010
0001
0000
,  // measure 32
0010
0001
0000
0001
0000
0000
0100
0000
0001
0010
0000
0010
0000
0010
0001
0000
,  // measure 33
1000
0100
0000
0100
0000
0000
0010
0000
0100
1000
0000
1000
0000
1000
0100
0000
,  // measure 34
1000
0010
0000
0010
0000
0000
0100
0000
0010
1000
0000
1000
0000
0000
0001
0000
,  // measure 35
0100
0010
0000
0010
0000
0000
1000
0000
0001
1000
0000
1000
0010
0000
0010
0000
,  // measure 36
0010
0100
0000
0010
0000
0000
0100
0000
0100
1000
0000
0010
0000
0000
0100
0000
,  // measure 37
0001
0010
0000
0100
0000
0000
0001
0000
0001
0010
0000
0100
0000
0000
1000
0000
,  // measure 38
0010
1000
0000
0001
0000
0000
0100
0000
0001
0010
0000
0100
0000
0000
0001
0000
,  // measure 39
0100
1000
0000
0010
0000
0000
0100
0000
0100
1000
0000
0010
0000
0000
0100
0000
,  // measure 40
0001
0100
0000
1000
0000
0000
0001
0000
0001
0100
0000
1000
0000
0000
0100
0000
,  // measure 41
0001
1000
0000
0100
0000
0000
1000
0000
1000
0001
0000
0100
0000
0000
0010
0000
,  // measure 42
0100
0001
0000
0010
0000
0000
0100
0000
0100
1000
0000
0010
0000
0000
0100
0000
,  // measure 43
0001
0010
0000
1000
0000
0000
0001
0000
0001
0010
0000
1000
0000
1000
0010
0000
,  // measure 44
0001
0100
0000
0010
0000
0000
1000
0000
0100
0010
0000
0001
0000
1000
0000
0000
,  // measure 45
1000
0010
0000
0001
0000
0000
0100
0000
0010
0001
0000
0010
0000
1000
0000
0000
,  // measure 46
0001
0100
0000
0010
0000
0000
0100
0000
0001
1000
0000
0100
0000
0010
0000
0000
,  // measure 47
0100
1000
0000
0001
0000
0000
0010
0000
1000
0010
0000
0001
0000
0001
0000
0000
,  // measure 48
0010
1000
0000
1010
0000
0000
0010
0000
1000
0010
0000
0010
0000
1001
0000
0000
,  // measure 49
0100
0001
0000
0001
0000
0000
0100
0000
0001
0100
0000
0100
0000
1001
0000
0000
,  // measure 50
0010
0100
0000
0100
0000
0000
0100
0000
0010
0100
0000
0100
0000
0110
0000
0000
,  // measure 51
0001
0010
0000
0010
0000
0000
1000
0000
0100
0010
0000
0001
0000
0100
0000
0000
,  // measure 52
1001
0000
0000
0000
;

//---------------dance-single - ----------------
#NOTES:
     dance-single:
     :
     Medium:
     5:
     0.321776,0.336868,0.099665,0.089699,0.000000,226.000000,216.000000,10.000000,9.000000,0.000000,0.000000,0.321776,0.336868,0.099665,0.089699,0.000000,226.000000,216.000000,10.000000,9.000000,0.000000,0.000000:
0000
0000
0000
0000
,
0000
0000
0000
0000
,
0000
0000
0000
0000
,
2100
0000
0001
3000
,
0010
0100
0001
0000
1000
0000
0000
0000
,
0010
1000
0000
0100
0000
0010
0000
0001
,
1000
0001
1001
0000
,
0001
0010
0022
0033
,
0010
0100
1000
0000
0001
0000
0001
0000
,
0010
0100
1000
0000
0001
0000
1000
0000
,
0100
0010
0001
0000
1000
0000
1000
0000
,
0100
0010
0001
0000
1000
0000
0001
0000
,
0100
0010
1000
0000
0001
0000
0010
0000
,
0100
0010
0001
0000
1000
0000
0010
0000
,
1000
0100
0010
0000
0001
0000
1000
0000
,
0001
0010
0100
0000
0000
0000
1000
1000
,
1000
0001
0011
0010
,
0001
0100
0101
1000
,
0010
1000
1100
0100
,
0010
0001
0011
1000
,
0002
1000
0103
0000
,
1000
0100
1000
0100
1000
0000
0001
0000
,
2000
0001
3010
0000
,
0100
0001
0100
0001
0100
0000
0010
0000
,
1000
0100
0000
0000
1000
0010
0000
0000
,
1000
0100
0000
0010
0000
0100
0000
0000
,
0001
0100
0000
0000
0001
0010
0000
0000
,
0001
0100
0000
0010
0000
0100
0000
0000
,
0001
0000
0000
1000
0100
0000
0000
0010
,
0100
0000
0000
1000
0010
0000
0000
0100
,
0001
0000
0000
0010
0001
0000
0000
0010
,
0100
0000
0000
1000
0100
0000
0000
0010
,
0100
1000
0000
0010
0100
0001
0000
0010
,
0100
1000
0000
0010
0100
0001
0000
1000
,
0001
0010
0000
0100
1000
0010
0000
0100
,
0001
0000
0010
0000
0100
0000
0010
0010
,
0010
0001
0010
0000
0001
0000
1000
0000
,
0100
1000
0100
0000
0100
0010
0100
0000
,
0100
0010
0100
0000
0100
0001
0100
0000
,
0001
1000
0001
0000
0100
0000
0010
0000
,
1000
0100
1000
0000
0010
0000
0100
0000
,
0001
0010
0001
0000
0100
0000
0010
0000
,
1000
0010
0100
0000
0001
0000
0010
0000
,
0001
0100
0010
0000
1000
0000
0100
0000
,
2000
0010
3100
0000
,
2000
0010
0100
3001
,
0020
0001
1030
0000
,
0020
0001
1000
0130
,
0001
1001
1000
0000
,
0010
0110
0100
0000
,
0010
1010
1000
0000
,
0001
0100
1000
0100
,
0001
0000
0000
0000
;

//---------------dance-single - ----------------
#NOTES:
     dance-single:
     :
     Easy:
     4:
     0.233501,0.259129,0.049833,0.089699,0.000000,164.000000,159.000000,5.000000,9.000000,0.000000,0.000000,0.233501,0.259129,0.049833,0.089699,0.000000,164.000000,159.000000,5.000000,9.000000,0.000000,0.000000:
0000
0000
0000
0000
,
0000
0000
0000
0000
,
0000
0000
0000
0000
,
0020
0000
2000
3030
,
0100
1000
0001
0000
0000
0000
0000
0000
,
0000
0100
0000
0001
0000
0010
0000
0100
,
2000
0000
3001
0000
,
1001
0000
0000
0000
0000
0001
0000
0001
,
1000
0000
0100
0000
,
0010
0000
0001
0000
,
0001
0000
0010
0000
,
0100
0000
1000
0000
,
1000
0010
0001
0000
,
0001
0100
1000
0000
,
1000
0010
0001
0000
,
0001
0000
0100
0000
0010
0000
1000
1000
,
1000
0100
0010
0000
,
1000
0100
0001
0010
,
1000
0100
0010
0000
,
2000
0001
0010
3100
,
0001
0100
0010
0000
,
0001
0100
1000
0010
,
0001
0100
0010
0000
,
0002
1000
0100
0013
,
0001
1000
0000
0000
1000
0000
0000
0000
,
0010
0100
0000
0000
0100
0000
0000
0000
,
0100
0001
0000
0000
0001
0000
0000
0000
,
1000
0010
0000
0000
0010
0000
0000
0000
,
1001
0000
0001
1000
,
0100
0000
0001
0100
,
1000
0000
0100
1000
,
0100
0000
0010
0001
,
1000
0001
0000
0010
,
1000
0001
0000
0100
,
0001
1000
0000
0010
,
0001
0000
0001
0000
0001
0000
1000
0100
,
2000
0000
3100
0001
,
0200
0000
0310
1000
,
0020
0000
1030
0001
,
2000
0000
3001
0010
,
0001
0000
0000
0000
1000
0100
0010
0000
,
0001
0000
0000
0000
0001
0010
0100
0000
,
1000
0000
0000
0000
0010
0100
0010
0000
,
0010
0000
0000
0000
0100
0001
0100
0000
,
0100
0000
0010
0010
,
1010
0000
1000
0001
,
1000
0000
0001
0001
,
0101
0000
0010
0100
,
1000
0001
1000
0001
,
0100
0001
0100
0001
,
0010
1000
0010
1000
,
0100
0010
0001
1000
,
1001
0000
0000
0000
;

//---------------dance-single - ----------------
#NOTES:
     dance-single:
     :
     Beginner:
     1:
     0.108208,0.181391,0.049833,0.000000,0.000000,76.000000,71.000000,5.000000,0.000000,0.000000,0.000000,0.108208,0.181391,0.049833,0.000000,0.000000,76.000000,71.000000,5.000000,0.000000,0.000000,0.000000:
0000
0000
0000
0000
,
0000
0000
0000
0000
,
0000
0000
0000
0000
,
1001
0000
1001
0000
,
0010
0000
0000
0000
,
0000
0000
0000
0000
,
0110
0000
0110
0000
,
1000
0000
1000
0000
,
0001
0000
0000
0000
,
0010
0000
0000
0000
,
1000
0000
0000
0000
,
0100
0000
0000
0000
,
0001
0000
0000
0000
,
0100
0000
0000
0000
,
1000
0000
0000
0000
,
0010
0000
0000
0001
,
0001
0000
1000
0000
,
0001
0000
0000
0000
,
1000
0000
0010
0000
,
1000
0000
0000
0000
,
0100
0000
0001
0000
,
0100
0000
0000
0000
,
0010
0000
0001
0000
,
0010
0000
0000
0000
,
0001
0000
0001
0000
,
0001
0000
0001
0000
,
0100
0000
0100
0000
,
0100
0000
0100
0000
,
0010
0000
0000
0000
,
1000
0000
0000
0000
,
0001
0000
0000
0000
,
0100
0000
0000
0000
,
0010
0000
0000
0000
,
1000
0000
0000
0000
,
0001
0000
0000
0000
,
0100
0100
0100
0000
,
0001
0000
0010
0000
,
0001
0000
0000
0000
,
1000
0000
0100
0000
,
1000
0000
0000
0000
,
0100
0000
0001
0000
,
0100
0000
0000
0000
,
0010
0000
1000
0000
,
0010
0000
0100
0000
,
0010
0000
0000
0000
,
1000
0000
0000
0000
,
0001
0000
0000
0000
,
0100
0000
0000
0000
,
0010
0000
0010
0000
,
1000
0000
1000
0000
,
0001
0000
0001
0000
,
0100
0000
0000
0000
,
0110
0000
0000
0000
;
