#TITLE:Frontload;
#SUBTITLE:;
#ARTIST:Freezepop;
#TITLETRANSLIT:;
#SUBTITLETRANSLIT:;
#ARTISTTRANSLIT:;
#GENRE:Pop;
#CREDIT:;
#BANNER:frontload-bn.png;
#BACKGROUND:frontload-bg.png;
#LYRICSPATH:;
#CDTITLE:;
#MUSIC:Frontload (Single Version).ogg;
#OFFSET:0.000000;
#SAMPLESTART:34.379997;
#SAMPLELENGTH:12.000000;
#SELECTABLE:YES;
#BPMS:0.000000=122.000000
;
#STOPS:
;
#BGCHANGES:;
#KEYSOUNDS:;
#ATTACKS:;

//---------------dance-single - ----------------
#NOTES:
     dance-single:
     :
     Hard:
     7:
     0.401578,0.450859,0.132955,0.180439,0.018994,296.000000,282.000000,14.000000,19.000000,0.000000,0.000000,0.401578,0.450859,0.132955,0.180439,0.018994,296.000000,282.000000,14.000000,19.000000,0.000000,0.000000:
0000
0000
0000
0000
,
0000
0000
0000
0000
,
0100
0010
0000
1000
0000
0001
0000
0010
,
0000
0001
0000
1000
0000
0100
0010
0000
,
0100
0000
1000
0000
0100
1000
0001
0000
,
0100
0000
0001
0000
0100
0001
1000
0000
,
0010
0000
1000
0000
0100
0010
0001
0000
,
0010
0000
0001
0000
1000
0001
0010
0000
,
0010
0000
0001
0000
0010
0001
1000
0000
,
0010
0000
1000
0000
0010
1000
0001
0000
,
0010
0000
0100
0000
1000
0010
0100
0000
,
0001
0000
1000
0000
0001
1000
0100
0000
,
1000
0010
0100
0000
1000
0100
0010
0000
,
0001
0100
0010
0000
0001
0010
0100
0000
,
1000
0001
0100
0000
0001
1000
0100
0000
,
1000
0100
0001
0000
0001
0100
1000
0000
,
0001
1000
0010
0000
1000
0001
0010
0000
,
0011
0000
0000
0000
1100
0000
0000
0000
1001
0000
0000
0000
0001
1000
0001
1000
,
0001
0100
0101
1000
,
0100
1000
0100
0010
0100
0000
0100
1000
,
0200
1300
2000
3001
,
0002
0000
0103
0000
0100
0001
0100
0010
,
0100
0000
0010
0000
0110
0000
1000
0001
,
0010
0000
0010
0001
0100
0000
0100
0001
,
2000
3010
0020
0130
,
0200
0000
0301
0000
0001
0010
0001
1000
,
0001
0000
1000
0000
1001
0000
0010
0100
,
0010
1000
0010
0100
0010
0000
0010
0001
,
0020
1030
2000
3001
,
0002
0000
0103
0000
0100
0001
0100
0010
,
0100
0000
1001
0000
0010
0000
0100
0001
,
1000
0000
1000
0100
0010
0000
0010
0001
,
2000
3100
0200
0310
,
0020
0000
0130
0000
1000
0010
1000
0001
,
1000
0000
0001
0000
1001
0000
0100
0010
,
1000
0000
0001
0000
0001
0100
0001
0010
,
0001
0000
0001
0100
0002
0000
1003
0000
,
2000
0000
3100
0000
0100
0010
0100
1000
,
0100
0000
1000
0000
1100
0000
0010
0001
,
0100
0000
0100
0001
1000
0000
1000
0010
,
0100
1001
0010
1001
,
0100
1001
0010
1001
,
0002
1003
2000
3001
,
1001
0000
0000
0000
0000
0000
0010
0100
0000
0010
0100
0000
0001
0000
1000
0000
,
0100
0010
0100
1000
0100
0010
0100
1000
,
0100
0010
0100
0001
0100
0010
0100
0001
,
0100
1000
0100
0001
0100
1000
0100
0001
,
0100
1000
0001
0100
,
0010
1000
0010
0100
0010
1000
0010
0100
,
0010
0001
0010
0100
0010
0001
0010
0100
,
0010
1000
0010
0001
0010
1000
0010
0001
,
0020
0000
1030
0001
2000
0000
3001
1000
,
0002
0000
0000
0003
;

//---------------dance-single - ----------------
#NOTES:
     dance-single:
     :
     Medium:
     5:
     0.325603,0.377496,0.028490,0.094968,0.000000,240.000000,237.000000,3.000000,10.000000,0.000000,0.000000,0.325603,0.377496,0.028490,0.094968,0.000000,240.000000,237.000000,3.000000,10.000000,0.000000,0.000000:
0000
0000
0000
0000
,
0000
0000
0000
0000
,
0000
0000
0000
0000
,
0001
1000
0000
0010
0000
1000
0001
1000
,
0001
0100
0001
0100
,
0010
0000
0100
0001
0000
0001
0100
0001
,
0100
0010
0100
0010
,
1000
0100
0000
0100
0000
0100
1000
0100
,
1000
0010
1000
0010
,
0100
0000
0100
0010
0000
0010
0100
0010
,
0100
0001
0100
0001
,
0010
0100
0000
1000
0000
0100
0010
0100
,
0010
0001
0010
0001
,
1000
0000
0010
0100
0000
0100
0001
0100
,
0001
0010
0100
1000
,
0001
0000
0001
0010
0000
0100
1000
0100
,
1000
0010
0100
0001
,
1000
1000
0001
0001
,
0200
2300
3200
0301
,
1000
0100
0001
0100
1000
0000
0001
0000
,
1001
0010
0000
0010
,
0000
0010
0100
0010
,
1000
0000
0100
0000
0001
0000
0000
0100
,
1000
0000
0100
1000
0100
0000
1000
0100
,
1000
0010
0000
0010
,
0000
0010
0100
0001
,
0020
2030
3020
0031
,
0001
0010
1000
0010
0001
0000
1000
0000
,
1001
0100
0000
0100
,
0000
0000
0100
0000
1000
0001
1000
0001
,
1000
0010
0000
0100
,
0001
0000
0010
0100
0010
0000
0100
1000
,
0100
1000
0100
1000
,
0100
1000
0001
1000
,
0020
0032
0023
1030
,
0001
0000
1000
0000
0001
0010
1000
0010
,
0001
0000
1000
0001
1000
0000
0010
0000
,
1000
0000
0010
0000
0100
0001
0100
0001
,
0100
0010
0110
1000
,
0001
0000
1000
0100
1000
0000
0010
0100
,
0010
0100
0010
0100
,
0001
0010
0001
0010
,
0100
1000
0100
1000
,
0010
0100
0001
1000
,
0001
0010
0001
0010
0001
0010
0001
0010
,
0001
1000
0001
1000
,
0100
1000
0100
1000
0100
1000
0100
0000
,
1000
0001
1000
0001
,
1000
0010
1000
0010
1000
0010
1000
0000
,
0001
1000
0001
1000
,
0010
0100
0001
1000
0010
0100
0001
1000
,
0010
0000
0100
0010
0100
0000
0010
0100
,
0020
0000
0000
0000
,
0030
0000
0000
0000
;

//---------------dance-single - ----------------
#NOTES:
     dance-single:
     :
     Easy:
     3:
     0.229279,0.225429,0.000000,0.037987,0.000000,169.000000,169.000000,0.000000,4.000000,0.000000,0.000000,0.229279,0.225429,0.000000,0.037987,0.000000,169.000000,169.000000,0.000000,4.000000,0.000000,0.000000:
0000
0000
0000
0000
,
0000
0000
0000
0000
,
1000
1000
0001
0001
,
2000
0000
0000
3000
,
1000
0100
1000
0001
,
1000
0100
1000
1000
,
0001
0100
0001
1000
,
0001
0100
0001
0001
,
0100
0010
0100
0001
,
0100
0010
0100
0100
,
0010
1000
0010
0100
,
0010
1000
0010
0010
,
0100
0010
0000
1000
,
0100
0010
0000
0001
,
1000
0100
0000
1000
,
0010
0001
0000
0010
,
1000
0001
0100
0010
,
1000
1000
0001
0100
,
0010
0010
0010
0000
,
1000
0100
0010
0001
,
1000
0010
0000
0010
,
0000
0010
0100
0010
,
0100
0001
0001
0000
,
1000
0001
1000
0001
,
1000
0100
0000
0100
,
0000
0100
0010
0001
,
1000
1000
1000
0000
,
0010
0100
0010
1000
,
0010
1000
0000
1000
,
0000
1000
0010
0100
,
0010
0010
0000
0000
,
0100
0001
0100
0001
,
0100
0001
0000
0001
,
0000
0001
0100
0010
,
0100
0100
0100
0001
,
1000
0000
0010
1000
,
0010
0100
0001
1000
,
0100
0000
0010
0100
,
1000
1000
1000
0000
,
0100
1000
0100
1000
,
0100
0010
0001
0000
,
0100
0010
1000
0000
,
0001
0001
0001
0001
,
0100
0010
0100
0010
,
0100
0001
1000
0000
,
0100
0001
1000
0000
,
0010
1000
0100
0000
,
0010
1000
0010
1000
,
0010
0100
0001
0000
,
0010
0100
0001
0000
,
1000
0001
0100
0100
,
0200
0300
0200
0300
,
0200
0000
0000
0300
;

//---------------dance-single - ----------------
#NOTES:
     dance-single:
     :
     Beginner:
     1:
     0.094968,0.148150,0.009497,0.009497,0.000000,70.000000,69.000000,1.000000,1.000000,0.000000,0.000000,0.094968,0.148150,0.009497,0.009497,0.000000,70.000000,69.000000,1.000000,1.000000,0.000000,0.000000:
0000
0000
0000
0000
,
0000
0000
0000
0000
,
0001
0001
0001
0001
,
0002
0000
0003
0000
,
0000
0100
0000
0100
,
0000
0000
0000
0000
,
0000
0001
0000
0001
,
0000
0000
0000
0000
,
0000
1000
0000
1000
,
0000
0000
0000
0000
,
0000
0000
0000
0000
,
0000
0010
0000
0010
,
0000
0000
0000
0000
,
0000
1000
0000
0001
,
0000
0000
0000
0000
,
0000
1000
0000
0001
,
0000
0000
0000
0000
,
0000
0000
0110
0000
,
0010
0010
0010
0000
,
0000
0000
1000
0000
,
1000
0000
0000
0000
,
0000
0000
0001
0000
,
0010
0010
0010
0000
,
0001
0000
0000
0000
,
0001
0000
0000
0000
,
0000
0000
0010
0000
,
1000
1000
1000
0000
,
0000
0000
0100
0000
,
0100
0000
0000
0000
,
0000
0000
0010
0000
,
0001
0001
0000
0000
,
0100
0000
0000
0000
,
0100
0000
0000
0000
,
0000
0000
0001
0000
,
0100
0100
0100
0000
,
0000
0000
0001
0000
,
0010
0010
0010
0000
,
0000
0000
1000
0000
,
0100
0100
0100
0000
,
1000
0000
0000
0000
,
1000
0000
0000
0000
,
0000
0000
0000
0000
,
0010
0000
0000
0000
,
0000
0000
0000
0000
,
0100
0100
0000
0000
,
0100
0000
0000
0000
,
0001
0001
0000
0000
,
0001
0000
0000
0000
,
1000
1000
0000
0000
,
1000
0000
0000
0000
,
0010
0010
0000
0000
,
0010
0000
0010
0000
,
0010
0000
0000
0000
;

//---------------dance-double - ----------------
#NOTES:
     dance-double:
     :
     Easy:
     3:
     0.221139,0.225429,0.000000,0.085471,0.000000,163.000000,163.000000,0.000000,9.000000,0.000000,0.000000,0.221139,0.225429,0.000000,0.085471,0.000000,163.000000,163.000000,0.000000,9.000000,0.000000,0.000000:
00000000
00000000
00000000
00000000
,
00000000
00000000
00000000
00000000
,
00000001
00000100
00000001
00000100
,
00000020
00000000
00001030
00000100
,
00010000
00010000
00001000
00010000
,
00001000
00001000
00100000
00001000
,
00100000
00100000
00010000
00100000
,
00010000
00010000
01000000
00010000
,
10000000
10000000
00100000
10000000
,
01000000
01000000
00100000
01000000
,
10000000
10000000
00010000
10000000
,
00100000
00100000
10000000
10000000
,
00010000
00100000
00000000
00001000
,
00010000
00000100
00000000
00001000
,
00000010
00000100
00000000
00000001
,
00000010
00000100
00000000
00010000
,
00001000
00100000
00000000
00010000
,
10000000
10000000
01000000
00100000
,
00010000
00010000
00010000
00000000
,
00001000
00010000
00001000
00010000
,
00000200
00000000
00000300
00001000
,
00000000
00000010
00000100
00000001
,
00000010
00000010
00000010
00000000
,
00000100
00001000
00000100
00010000
,
00000200
00000000
00000300
00010000
,
00000000
00001000
00100000
00010000
,
10000000
10000000
10000000
00000000
,
00100000
00001000
00100000
00010000
,
00200000
00000000
00300000
00001000
,
00000000
00010000
00000010
00001000
,
00000100
00000100
00000000
00000000
,
00000010
00000001
00000010
00000100
,
00000020
00000000
00000030
00000001
,
00000000
00001000
00000100
00000100
,
00010000
00010000
00010000
00001000
,
00010000
00000000
00100000
00100000
,
01000000
01000000
01000000
10000000
,
00010000
00000000
01000000
01000000
,
00010000
00010000
00010000
00000000
,
01000000
00001000
01000000
00010000
,
02000000
00000000
03000000
00000000
,
00001000
00010000
00001000
00000000
,
00010000
00000100
00010000
00000100
,
00010000
00001000
00010000
00001000
,
00010000
00010000
00000010
00000000
,
00000100
00000100
00000001
00000000
,
00000010
00000010
00000100
00000000
,
00000100
00000100
00001000
00000000
,
00010000
00010000
00100000
00000000
,
01000000
01000000
10000000
00000000
,
00100000
01000000
00010000
00100000
,
00002000
00003000
00020000
00030000
,
00002000
00000000
00000000
00003000
;

//---------------dance-double - ----------------
#NOTES:
     dance-double:
     :
     Hard:
     7:
     0.383941,0.450859,0.066477,0.199432,0.018994,283.000000,276.000000,7.000000,21.000000,0.000000,0.000000,0.383941,0.450859,0.066477,0.199432,0.018994,283.000000,276.000000,7.000000,21.000000,0.000000,0.000000:
// measure 0
00000000
00000000
00000000
00000000
,  // measure 1
00000000
00000000
00000000
00000000
,  // measure 2
10000000
10000000
00010000
00010000
,  // measure 3
00100000
00001000
00000000
00011000
00000000
00010000
00000100
00001000
,  // measure 4
00000010
00000100
00000001
00000000
00001000
00000000
00000100
00000000
,  // measure 5
00001000
00000000
00000010
00010000
00000000
00010000
00000010
00000100
,  // measure 6
00000001
00000000
00001000
00000000
00000010
00000000
00010000
00001000
,  // measure 7
00010000
00001000
00000000
00100000
00000000
00010000
01000000
00100000
,  // measure 8
10000000
01000000
10000000
00000000
00010000
00000000
00100000
00000000
,  // measure 9
01000000
00000000
01000000
00100000
00000000
00100000
00010000
00100000
,  // measure 10
00010000
00100000
00001000
00010000
,  // measure 11
00000010
00000100
00000000
00000001
00000000
00001000
00000100
00001000
,  // measure 12
00000010
00000100
00000010
00000000
00001000
00000000
00000001
00000000
,  // measure 13
00000010
00000000
00000001
00000010
00000000
00000100
00010000
00001000
,  // measure 14
00010000
00001000
01000000
00100000
,  // measure 15
10000000
00000000
01000000
00100000
00000000
00010000
00100000
00010000
,  // measure 16
01000000
00001000
00010000
00000100
,  // measure 17
00010000
00000000
00000000
00000000
00001000
00000000
00000000
00000000
00010000
00000000
00000000
00000000
00001000
00010000
00001000
00010000
,  // measure 18
00001000
00100000
00110000
01000000
,  // measure 19
10000000
01000000
10000000
00100000
10000000
00000000
00010000
00100000
,  // measure 20
00020000
00130000
00200000
00301000
,  // measure 21
00020000
00000000
00030100
00000000
00001000
00000010
00001000
00000001
,  // measure 22
00001000
00000000
00000001
00000000
00001001
00000000
00000000
00000010
,  // measure 23
00000100
00000000
00000010
00000100
00000010
00000000
00000100
00000010
,  // measure 24
00000200
00000301
00000002
00001003
,  // measure 25
00000200
00000000
00010300
00000000
00001000
00100000
00001000
00010000
,  // measure 26
00001000
00000000
00010000
00000000
00011000
00000000
00100000
00100000
,  // measure 27
01000000
10000000
01000000
00100000
01000000
00000000
10000000
00010000
,  // measure 28
20000000
30010000
00200000
00301000
,  // measure 29
00020000
00000000
00030010
00000000
00001000
00000010
00001000
00000001
,  // measure 30
00001000
00000000
00001001
00000000
00000000
00000000
00000000
00001000
,  // measure 31
00000100
00000000
00001000
00000100
00001000
00000000
00000100
00001000
,  // measure 32
00000200
00010300
00020000
00031000
,  // measure 33
00002000
00000000
00103000
00000000
00010000
01000000
00010000
10000000
,  // measure 34
00010000
10000000
10010000
01000000
,  // measure 35
10000000
00000000
00100000
00000000
01000000
00010000
01000000
00010000
,  // measure 36
00100000
00000000
00001000
00010000
00000200
00000000
00001300
00000000
,  // measure 37
00000020
00000000
00000130
00000000
00000001
00001000
00000100
00000010
,  // measure 38
00000100
00000000
00001000
00000000
00001100
00000000
00000000
00010000
,  // measure 39
00001000
00000000
00100000
00010000
00100000
00000000
00010000
10000000
,  // measure 40
00020000
10030000
02000000
03100000
,  // measure 41
00020000
00031000
00000020
00000130
,  // measure 42
00000001
00001000
00010000
10000000
,  // measure 43
00010000
00000000
00001000
00000000
00000001
00000000
00000100
00000010
,  // measure 44
00001000
00000100
00001000
00000010
00001000
00000100
00001000
00000010
,  // measure 45
00001000
00000100
00000010
00000001
00000100
00000010
00001000
00000000
,  // measure 46
01000000
00010000
01000000
00100000
01000000
00010000
01000000
00100000
,  // measure 47
01000000
00010000
10000000
00100000
01000000
00010000
00100000
00000000
,  // measure 48
00010000
00100000
00010000
01000000
00010000
00100000
00010000
10000000
,  // measure 49
00010000
00100000
01000000
10000000
01000000
00100000
00010000
00000000
,  // measure 50
00001000
00000000
00000100
00000000
00001000
00000000
00000010
00000000
00010000
00000100
00010000
00000100
00010000
00000000
00000000
00000000
,  // measure 51
00020000
00000000
00031000
00010000
00002000
00000000
00013000
00001000
,  // measure 52
00020000
00000000
00000000
00030000
;

//---------------dance-double - ----------------
#NOTES:
     dance-double:
     :
     Medium:
     5:
     0.312037,0.325620,0.056981,0.047484,0.000000,230.000000,224.000000,6.000000,5.000000,0.000000,0.000000,0.312037,0.325620,0.056981,0.047484,0.000000,230.000000,224.000000,6.000000,5.000000,0.000000,0.000000:
00000000
00000000
00000000
00000000
,
00000000
00000000
00000000
00000000
,
00000001
00000001
00000001
00000001
,
00000010
00000100
00000000
00001000
00000000
00000100
00001000
00000000
,
00010000
00100000
00010000
00100000
,
01000000
00000000
10000000
00100000
00000000
10000000
00100000
00000000
,
01000000
00010000
01000000
00010000
,
00100000
00010000
00000000
00100000
00000000
00010000
00100000
00000000
,
00001000
00010000
00001000
00010000
,
00000010
00000000
00001000
00000010
00000000
00001000
00000010
00000000
,
00000100
00000001
00000100
00000001
,
00000010
00000100
00000000
00000010
00000000
00000100
00000010
00000000
,
00000100
00010000
00000100
00010000
,
00001000
00000000
00100000
00010000
00000000
00100000
00010000
00000000
,
01000000
00010000
01000000
00010000
,
01000000
00000000
00100000
01000000
00000000
00100000
01000000
00000000
,
00100000
10000000
00100000
10000000
,
00010000
00010000
00200000
00302000
,
00013000
00000100
00010100
00000000
,
00000010
00000100
00000010
00000000
00001000
00000000
00000001
00001000
,
00000002
00000100
00000000
00000010
,
00000000
00000103
00000010
00001000
,
00000100
00010000
00010100
00000000
,
00001000
00000000
00010000
00001000
00010000
00000000
00001000
00010000
,
00001000
00100000
00010000
01000000
,
00100000
01000000
00010000
10000000
,
00100000
10000000
10100000
00000000
,
01000000
00010000
01000000
00000000
00010000
00000000
00100000
00001000
,
00100000
00020000
00001000
00000000
,
00000100
00000000
00031000
00000010
,
00000100
00000110
00000000
00000000
,
00000010
00000000
00001000
00000010
00001000
00000000
00000010
00001000
,
00000010
00000100
00000001
00001000
,
00000010
00010000
00001000
00100000
,
00010000
01000000
01010000
00000000
,
00100000
00000000
10000000
00000000
01000000
00100000
01000000
00000000
,
00010000
00000000
00100000
00010000
00100000
00000000
00001000
00000000
,
00010000
00000000
00000100
00000000
00001000
00000100
00001000
00000000
,
00000001
00000010
00000011
00000000
,
00000100
00000000
00001000
00000100
00001000
00000000
00000100
00001000
,
00000100
00010000
00001000
01000000
,
00100000
10000000
01000000
00010000
,
00001000
00000100
00000001
00001000
,
00000001
00001000
00000001
00000000
00001000
00000001
00001000
00000000
,
00000100
00010000
00001000
01000000
,
01000000
00001000
00010000
00000100
,
00000100
00010000
00001000
00000000
00001000
01000000
00010000
00000000
,
00010000
01000000
00001000
00000000
00001000
00010000
00000100
00000000
,
00010000
00001000
00010000
00000000
00000100
00001000
00000010
00000000
,
00000100
00000010
00010000
00000000
00001000
00010000
00001000
00000000
,
00100000
00010000
01000000
00000000
00010000
00100000
00001000
00000000
,
00010000
00000000
00001000
00010000
00001000
00000000
00010000
00001000
,
00020000
00000000
00000000
00030000
;
