#TITLE:Frontload;
#SUBTITLE:(Designer Drugs Remix);
#ARTIST:Freezepop;
#TITLETRANSLIT:;
#SUBTITLETRANSLIT:;
#ARTISTTRANSLIT:;
#GENRE:House;
#CREDIT:;
#BANNER:frontloadremix-bn.png;
#BACKGROUND:frontloadremix-bg.png;
#LYRICSPATH:;
#CDTITLE:;
#MUSIC:Frontload (Designer Drugs Remix).ogg;
#OFFSET:-0.020000;
#SAMPLESTART:28.559999;
#SAMPLELENGTH:12.000000;
#SELECTABLE:YES;
#BPMS:0.000000=130.000000
;
#STOPS:
;
#BGCHANGES:;
#KEYSOUNDS:;
#ATTACKS:;

//---------------dance-single - ----------------
#NOTES:
     dance-single:
     :
     Challenge:
     7:
     0.455374,0.504706,0.320767,0.070168,0.050120,318.000000,286.000000,32.000000,7.000000,0.000000,0.000000,0.455374,0.504706,0.320767,0.070168,0.050120,318.000000,286.000000,32.000000,7.000000,0.000000,0.000000:
// measure 0
0000
0000
0000
0000
,  // measure 1
0000
0000
0000
0000
,  // measure 2
0000
0000
0000
0000
,  // measure 3
0000
0000
0000
0000
0000
0000
0000
0010
,  // measure 4
0100
0001
0000
1100
0000
0001
0100
1000
,  // measure 5
0100
0001
1000
0000
0010
0000
1000
0000
,  // measure 6
0101
0000
1000
0100
0000
1000
0100
0001
,  // measure 7
0100
1000
0001
0000
0100
0001
0010
0100
,  // measure 8
1000
0010
0000
1100
0000
0001
0100
1000
,  // measure 9
0100
0001
1000
0100
0001
0100
1000
0000
,  // measure 10
0110
0000
1000
0001
0000
1000
0100
0001
,  // measure 11
0100
1000
0001
0010
1000
0010
0001
0000
,  // measure 12
0100
0001
0000
0110
0000
0001
0010
1000
,  // measure 13
0010
0001
1000
0010
0001
0010
1000
0000
,  // measure 14
0010
0100
0000
1001
0000
0010
0100
0010
,  // measure 15
1000
0011
1010
1001
,  // measure 16
0001
0100
0001
0010
0001
0100
0001
0000
,  // measure 17
1000
0000
0001
0000
1000
0100
1000
0100
,  // measure 18
0010
0000
0001
0010
0100
0000
1000
0000
,  // measure 19
0010
0000
0100
0000
0001
1000
0010
0100
,  // measure 20
0001
0000
1000
0000
0110
0000
0001
1000
,  // measure 21
0100
0000
1000
0001
0100
0000
0001
0100
,  // measure 22
1000
0100
0001
0000
1000
0000
1001
0000
,  // measure 23
0010
0100
0110
0000
0001
0000
0011
0000
,  // measure 24
0200
0000
1300
0001
1000
0001
0000
0100
,  // measure 25
0000
0200
0000
0000
0000
0000
0300
0100
,  // measure 26
1000
0000
0001
0100
1000
0000
0001
0010
,  // measure 27
2000
0000
0000
0000
,  // measure 28
0000
0020
0000
0000
,  // measure 29
0000
0000
3030
0000
,  // measure 30
0001
0100
0001
1000
0100
1000
0001
0000
,  // measure 31
1000
0000
0010
0000
0100
0000
0000
0000
0001
1000
0001
1000
0001
0000
0000
0000
,  // measure 32
1000
0100
1000
0001
0100
0001
1000
0000
,  // measure 33
0010
0000
0100
0000
0001
0000
0000
0000
0100
0010
0100
0010
0100
0000
0000
0000
,  // measure 34
0010
1000
0010
0100
0001
0100
0010
0000
,  // measure 35
1000
0000
0001
0000
0100
0000
0000
0000
0010
1000
0010
1000
0010
0000
0000
0000
,  // measure 36
1000
0100
1000
0001
0010
0001
1000
0010
,  // measure 37
0100
0010
0100
0010
0100
0001
1000
0010
,  // measure 38
1000
0100
0010
0100
1000
0010
0100
0000
,  // measure 39
0001
0000
1001
0000
0001
0010
0100
0010
,  // measure 40
0001
0100
0010
0100
0001
0010
0100
0000
,  // measure 41
1000
0000
1100
0000
0010
1000
0100
1000
,  // measure 42
0010
0100
0001
0100
0010
1000
0100
0000
,  // measure 43
1001
0000
0001
1000
1100
0000
1000
0001
,  // measure 44
0101
0000
0010
0000
1000
0100
0010
0000
,  // measure 45
0001
0000
0101
0000
0001
0100
1000
0000
,  // measure 46
0001
0020
0000
0001
0000
0031
0010
0001
,  // measure 47
0100
0000
0010
0000
1000
0000
0000
0000
0100
1000
0100
1000
0100
0000
0000
0000
,  // measure 48
2000
0000
3010
2000
0000
3010
0100
0001
,  // measure 49
0010
0000
0100
0000
1000
0000
0000
0000
0001
0010
0001
0010
0001
0000
0000
0000
,  // measure 50
0110
0101
0110
0101
,  // measure 51
1010
0110
1010
0110
,  // measure 52
1001
0110
0101
1010
,  // measure 53
0110
0000
0000
0000
;

//---------------dance-double - ----------------
#NOTES:
     dance-double:
     :
     Challenge:
     7:
     0.445350,0.480398,0.330791,0.270647,0.020048,311.000000,278.000000,33.000000,27.000000,0.000000,0.000000,0.445350,0.480398,0.330791,0.270647,0.020048,311.000000,278.000000,33.000000,27.000000,0.000000,0.000000:
00000000
00000000
00000000
00000000
,
00000000
00000000
00000000
00000000
,
00000000
00000000
00000000
00000000
,
00000000
00000000
00000000
00000000
00000000
00000000
00000000
00000100
,
00010000
00001000
00000000
00110000
00000000
00100000
01000000
10000000
,
00100000
02000000
00000000
00000000
00010000
00000000
03010000
00000000
,
00011000
00000000
00000100
00001000
00000000
00000010
00000100
00000002
,
00000000
00000010
00000010
00000013
,
00000010
00000100
00000000
00001100
00000000
00010000
00001000
00100000
,
00010000
02000000
00000000
00000000
03100000
01000000
00000000
01000000
,
00100000
00000000
00010000
10000000
00000000
01000000
00100000
00010000
,
00001000
00000100
00000010
00000000
00000001
00001000
00000000
00001000
,
00000001
00000010
00000000
00001001
00000000
00000100
00010000
00001000
,
01000000
00020000
00000000
00000000
00130000
01000000
00000000
01000000
,
10000000
01000000
00000000
00110000
00000000
00001000
00010000
00000010
,
00000100
00000000
00000100
00000000
00000001
00001000
00000001
00001000
,
00000002
00000023
00000230
00001300
,
00011000
00000000
01100000
00000000
10000000
01000000
10000000
00100000
,
01000000
00000000
00100000
00010000
00001000
00000000
00001010
00000000
,
00000101
00000000
00001010
00000000
00000001
00000010
00000100
00001000
,
00001100
00000000
00011000
00000000
00110000
00000000
00000000
00100000
,
02000000
00000000
13000000
00100000
02000000
00000000
03010000
00100000
,
00002000
00010000
00010000
00013000
,
00010100
00001010
00000101
00001001
,
00000110
00000000
00001000
00000100
00010000
00001000
00000000
00110000
,
00000000
02200000
00000000
00000000
00000000
00000000
03300000
10000000
,
02000000
00000000
03100000
00010000
00200000
00000000
00301000
00010000
,
00002000
00000000
00000000
00000000
,
00000000
00020000
00000000
00000000
,
00000000
00000000
00033000
00001100
,
00000010
00000100
00000001
00000100
00000010
00001000
00000100
00001000
,
00000010
00010000
00000010
00010000
00000100
00010000
00001000
01000000
,
00100000
10000000
01000000
10000000
00100000
01000000
00010000
01000000
,
00100000
10000000
00100000
10000000
01000000
00010000
00100000
00001000
,
00010000
00000010
00001000
00000010
00010000
00000100
00001000
00000100
,
00010000
00001000
00010000
00001000
00010000
00000100
00001000
00000010
,
00000100
00000001
00000010
00000001
00000100
00000010
00001000
00000010
,
00000100
00000010
00000100
00000010
00000110
00000000
00011000
00000000
,
00100000
01000000
10000000
01000000
00100000
00010000
01000000
00000000
,
00011000
00000000
00110000
00000000
01000000
00010000
00100000
00001000
,
00010000
00000000
00000010
00000100
00000010
00000000
00000100
00000000
,
00000101
00000000
00001001
00000000
00000100
00010000
00001000
00100000
,
00010000
00000000
10010000
00000000
11000000
00000000
00000000
10000000
,
00200000
00000000
01300000
00010000
00200000
00000000
00301000
00010000
,
00000020
00000000
00000130
00000000
00000100
00000100
00000101
00000000
,
00001000
00000000
00001000
00000000
00000100
00000100
00010100
00000000
,
00001000
00020000
00000000
00032000
00000000
00013000
00001000
00100000
,
00010000
00000000
02000000
00000000
00000000
00000000
03000000
00000000
00100000
01000000
00100000
01000000
00100000
00000000
00000000
00000000
,
11000000
00000000
01000000
00200000
00000000
00301000
00010000
00002000
,
00000000
00000000
00023000
00000000
00000000
00000000
00030000
00000000
00000010
00000100
00000010
00000100
00000010
00000000
00000000
00000000
,
00000100
00000001
00000100
00000001
00000100
00000010
00000100
00000010
,
00001000
00000010
00001000
00000010
00010000
00001000
00010000
00001000
,
00100000
00010000
00100000
00010000
01000000
00100000
01000000
00100000
,
02200000
03300000
00000000
00000000
;
