#TITLE:Flight;
#SUBTITLE:;
#ARTIST:Waterflame;
#TITLETRANSLIT:;
#SUBTITLETRANSLIT:;
#ARTISTTRANSLIT:;
#GENRE:Techno;
#CREDIT:;
#BANNER:flight-bn.png;
#BACKGROUND:flight-bg.png;
#LYRICSPATH:;
#CDTITLE:;
#MUSIC:Flight.ogg;
#OFFSET:-1.093000;
#SAMPLESTART:41.639999;
#SAMPLELENGTH:13.500000;
#SELECTABLE:YES;
#BPMS:0.000000=142.000000
;
#STOPS:
;
#BGCHANGES:
;
#KEYSOUNDS:;
#ATTACKS:;

//---------------dance-single - ----------------
#NOTES:
     dance-single:
     :
     Medium:
     6:
     0.357902,0.424051,0.253456,0.302197,0.000000,257.000000,231.000000,26.000000,31.000000,0.000000,0.000000,0.357902,0.424051,0.253456,0.302197,0.000000,257.000000,231.000000,26.000000,31.000000,0.000000,0.000000:
0000
0000
0000
0000
,
0000
0000
0000
0000
,
0000
0000
0000
0000
,
0000
0000
0000
0000
,
0010
1000
0010
1000
0000
0000
0000
0000
,
0001
0100
0001
0100
0000
0000
0000
0000
,
0001
0010
0001
0010
0000
0000
0000
0000
,
0100
1000
0100
1000
0000
0000
0000
0000
,
0010
0100
0001
1000
0000
0000
0000
0000
,
1000
0100
0010
0001
0000
0000
0000
0000
,
1000
0001
0100
0010
0000
0000
0000
0000
,
0001
0010
0100
1000
0000
0000
0000
0000
,
0110
0001
0001
0001
,
1000
0100
0001
0100
,
1000
1000
1000
1000
,
0001
0100
1000
0100
,
0010
0010
0010
0010
,
1001
0011
1001
1010
,
0100
0100
0100
0100
,
1001
1100
1001
0101
,
0200
0000
0310
0000
0100
0010
0100
0000
,
0002
0000
1003
0000
0001
1000
0001
0000
,
2000
0000
3100
0000
1000
0100
1000
0000
,
0020
0000
0031
0000
0010
0001
0010
0000
,
0001
0000
1000
0000
0100
1000
0100
0000
,
1000
0000
0001
0000
0100
0001
0100
0000
,
0010
0000
0100
0000
0001
0010
0001
0000
,
0100
0000
0010
0000
1000
0010
1000
0000
,
2002
0000
0000
3003
,
0002
0000
0203
0000
,
0320
0000
2030
3200
,
0320
0000
0230
0000
,
2300
3002
0023
0032
,
0203
0000
0302
0000
,
0023
0000
0230
2300
,
3020
0230
0302
0000
,
2003
3200
0302
0023
,
0031
0001
0001
0001
,
0010
0100
1000
0000
0001
0000
0010
0000
,
0100
0100
0100
0100
,
1001
0110
1100
0011
,
1000
0000
1010
0000
1000
0010
1000
0000
,
0001
0000
0011
0000
0001
0010
0001
0000
,
0100
0000
0110
0000
0100
0010
0100
0000
,
0001
0000
1001
0000
1000
0001
1000
0000
,
0001
0000
0011
0000
0010
0001
0010
0000
,
1000
0000
1010
0000
0010
1000
0010
0000
,
1000
0000
1100
0000
0100
1000
0100
0000
,
0010
0000
0011
0000
0001
0010
0001
0000
,
0100
0000
0101
0000
1000
0010
1000
0000
,
0010
0000
1010
0000
1000
0100
1000
0000
,
0010
0000
0011
0000
0100
0010
0100
0000
,
0001
0100
0010
0000
1000
0100
0010
0000
,
0100
0001
1000
0000
0100
0001
0010
0000
,
1000
0001
0100
0000
1000
0010
0100
0000
,
0010
1000
0001
0000
0010
1000
0100
0000
,
1000
0010
1000
0010
1000
0000
0001
0000
,
0202
0000
0000
0000
,
0303
0000
0000
0000
;

//---------------dance-single - ----------------
#NOTES:
     dance-single:
     :
     Easy:
     4:
     0.285486,0.310971,0.097483,0.370435,0.000000,205.000000,195.000000,10.000000,38.000000,0.000000,0.000000,0.285486,0.310971,0.097483,0.370435,0.000000,205.000000,195.000000,10.000000,38.000000,0.000000,0.000000:
0000
0000
0000
0000
,
0000
0000
0000
0000
,
0000
0000
0000
0000
,
0000
0000
0000
0000
,
0100
0110
0000
0000
,
1000
1001
0000
0000
,
0001
0011
0000
0000
,
0100
1100
0000
0000
,
1000
1000
0100
0100
,
0001
0000
0001
0000
0100
0010
0100
0000
,
0001
0001
0010
0010
,
1000
0000
1000
0000
0010
0100
0010
0000
,
2000
3200
0320
0032
,
0103
0010
0100
0010
,
0002
0023
0230
2300
,
3001
1000
0001
1000
,
2000
3002
0203
0320
,
1030
0010
1000
0010
,
0200
0320
2030
3002
,
0103
0001
0100
0001
,
0100
0010
0100
0000
,
0001
0010
0001
0000
,
1000
0100
1000
0000
,
0001
0010
0100
0000
,
0001
0000
0001
0000
0001
0010
0000
0000
,
0001
0000
0001
0000
0001
0100
0000
0000
,
0001
0000
0001
0000
0001
1000
0000
0000
,
0001
0000
1001
0000
0100
0010
0100
0000
,
0020
0000
0000
0000
,
0032
0000
0203
0000
,
0320
0000
1030
1001
,
2000
0000
3020
0000
,
0230
0000
0301
1001
,
0200
0000
0320
0000
,
2030
0000
3010
0110
,
0020
2030
3200
0000
,
0301
1001
0010
0110
,
2000
3200
0320
0230
,
1300
0001
1000
0001
,
0020
2030
3200
2300
,
3010
0100
0001
1000
,
1000
0000
1000
0000
1000
0100
0000
0000
,
1000
0000
1000
0000
1000
0010
0000
0000
,
1000
0000
1000
0000
1000
0001
0000
0000
,
1000
0000
0001
0000
0100
0010
0100
0000
,
0010
0000
0010
0000
0010
0100
0000
0000
,
0010
0000
0010
0000
0010
1000
0000
0000
,
0010
0000
0010
0000
0010
0001
0000
0000
,
0010
0000
0100
0000
0001
0100
0001
0000
,
1000
0000
0100
0000
0010
0100
0000
0000
,
0001
0000
0100
0000
0010
0100
0000
0000
,
0001
0000
1000
0000
0010
0100
0000
0000
,
0001
0000
1000
0000
0100
0010
0100
0000
,
1000
0000
0001
0000
0010
0001
0000
0000
,
0001
0000
1000
0000
0010
1000
0000
0000
,
0010
0000
0100
0000
0001
0100
0000
0000
,
0010
0000
1000
0000
0100
1000
0100
0000
,
2000
0000
0000
0000
,
3000
0000
0000
0000
;

//---------------dance-single - ----------------
#NOTES:
     dance-single:
     :
     Beginner:
     1:
     0.090520,0.191067,0.019497,0.068238,0.000000,65.000000,63.000000,2.000000,7.000000,0.000000,0.000000,0.090520,0.191067,0.019497,0.068238,0.000000,65.000000,63.000000,2.000000,7.000000,0.000000,0.000000:
0000
0000
0000
0000
,
0000
0000
0000
0000
,
0000
0000
0000
0000
,
0001
0000
0000
0000
,
0001
0000
0000
0000
,
0010
0000
0000
0000
,
0010
0000
0000
0000
,
0200
0000
0300
0000
,
2000
0000
3000
0000
,
0020
0000
0030
0000
,
0002
0000
0003
0000
,
1000
0000
0000
0000
,
0100
0000
0100
0000
,
0100
0000
0000
0000
,
0010
0000
0010
0000
,
0010
0000
0000
0000
,
0001
0000
0001
0000
,
0001
0000
0000
0000
,
1000
0000
0001
0000
,
1000
0000
0000
0000
,
0000
0000
0000
0000
,
1001
0000
0000
0000
,
0000
0000
0000
0000
,
0100
0000
0000
0000
,
0001
0000
0000
0000
,
1000
0000
0000
0000
,
0010
0000
0000
0000
,
1000
0000
0000
0000
,
0200
0000
0000
0000
,
0000
0000
0300
0000
,
0020
0000
0000
0000
,
0000
0000
0030
0000
,
2000
0000
0000
0000
,
0000
0000
3000
0000
,
0001
0001
0001
0000
,
1000
1000
1000
0000
,
0010
0000
0000
0000
,
0100
0000
0100
0000
,
1000
0000
0000
0000
,
0010
0000
0010
0000
,
0010
0000
0000
0000
,
1000
0000
0000
0000
,
0001
0000
0000
0000
,
0100
0000
0000
0000
,
0100
0000
0000
0000
,
0001
0000
0000
0000
,
1000
0000
0000
0000
,
0010
0000
0000
0000
,
0100
0000
1000
0000
,
0100
0000
0000
0000
,
1000
0000
0001
0000
,
1000
0000
0000
0000
,
0010
0000
0100
0000
,
0010
0000
0000
0000
,
0100
0000
0001
0000
,
0100
0000
0000
0000
,
1001
0000
0000
0000
;

//---------------dance-single - ----------------
#NOTES:
     dance-single:
     :
     Hard:
     8:
     0.451207,0.478520,0.136476,0.116980,0.297323,324.000000,310.000000,14.000000,12.000000,0.000000,0.000000,0.451207,0.478520,0.136476,0.116980,0.297323,324.000000,310.000000,14.000000,12.000000,0.000000,0.000000:
// measure 0
0000
0000
0000
0000
,  // measure 1
0000
0000
0000
0000
,  // measure 2
0000
0000
0000
0000
,  // measure 3
0000
0000
0000
0000
,  // measure 4
1000
0100
0001
0010
0000
0000
0000
0000
,  // measure 5
0001
0100
1000
0010
0000
0000
0000
0000
,  // measure 6
1000
0100
0001
0010
0000
0000
0000
0000
,  // measure 7
0001
0100
0010
1000
0001
1000
0010
0100
,  // measure 8
0010
0000
1000
0000
0100
0000
0010
0000
0000
0001
0000
0000
0100
0000
0000
0000
,  // measure 9
0010
0000
1000
0000
0100
0000
0010
0000
0100
1000
0000
0000
1000
0000
0000
0000
,  // measure 10
0001
0000
0100
0000
0010
0000
0001
0000
0000
0010
0000
0000
0100
0000
0000
0000
,  // measure 11
0010
0000
1000
0000
0100
0000
0010
0000
0001
0010
0000
0000
0010
0000
0000
0000
,  // measure 12
0102
1003
1020
0031
,  // measure 13
0010
0000
1000
0000
0100
1000
0001
0000
,  // measure 14
0201
1300
1020
0130
,  // measure 15
0001
0000
0100
0000
1000
0100
0001
0000
,  // measure 16
0021
0130
1002
0013
,  // measure 17
0100
0000
0001
0000
0100
1000
0010
0000
,  // measure 18
0021
1030
1200
0301
,  // measure 19
1000
0000
0010
0000
1000
0001
0100
0000
,  // measure 20
0001
0000
0010
0000
0100
0000
0000
0000
1000
0000
0000
0010
0000
0000
0000
0000
,  // measure 21
0100
0000
1000
0000
0100
0000
0000
0000
0010
0000
0000
1000
0000
0000
0000
0000
,  // measure 22
0100
0000
0001
0000
0100
0000
0000
0000
1000
0000
0000
0010
0000
0000
0000
0000
,  // measure 23
0010
0000
1000
0000
0001
0000
0000
0000
1000
0000
0001
1000
0000
0000
0000
0000
,  // measure 24
0001
0000
0100
0000
0010
0000
0000
0000
0100
0001
0000
0100
0000
0000
0000
0000
,  // measure 25
1000
0000
0100
0000
0010
0000
0000
0000
0100
0000
1000
0100
0000
0000
0000
0000
,  // measure 26
0001
0000
1000
0000
0010
0000
0000
0000
1000
0100
0000
1000
0000
0000
0000
0000
,  // measure 27
0010
0000
0001
0000
0100
0000
0000
0000
0001
0000
0100
0010
0000
0000
0000
0000
,  // measure 28
0220
0000
0000
0330
,  // measure 29
0001
0100
1010
1000
,  // measure 30
0100
0000
0010
0000
0100
1000
0100
0001
,  // measure 31
0010
0001
1100
0010
,  // measure 32
1000
0000
0001
0000
0010
0100
0001
0100
,  // measure 33
1000
0010
0100
0001
0010
0100
1000
0000
,  // measure 34
0010
0000
1000
0000
0001
0010
0001
0000
,  // measure 35
0100
0001
1000
0010
1000
0100
0010
0001
,  // measure 36
0100
1000
0100
0001
0010
0000
1001
0000
,  // measure 37
1000
0000
0000
1000
0010
0000
0000
0010
0100
0000
0000
0100
0010
0000
0000
0010
,  // measure 38
1000
0000
0000
1000
0001
0000
0000
0001
0010
0000
0000
0010
0100
0000
0000
0100
,  // measure 39
0010
0000
0000
0010
0001
0000
0000
0001
1000
0000
0000
1000
0010
0000
0000
0010
,  // measure 40
0100
0000
0000
0100
0010
0000
0000
0010
1000
0000
0000
1000
0001
0000
0000
0000
,  // measure 41
0010
0000
0100
0000
1000
0000
0000
0000
0010
0100
0000
0001
0000
0000
0000
0000
,  // measure 42
0010
0000
0001
0000
0010
0000
0000
0000
0001
0000
1000
0100
0000
0000
0000
0000
,  // measure 43
1000
0000
0100
0000
0001
0000
0000
0000
1000
0100
0000
0010
0000
0000
0000
0000
,  // measure 44
0001
0000
0100
0000
0010
0000
0000
0000
1000
0000
0001
1000
0000
0000
0000
0000
,  // measure 45
0010
0000
1000
0000
0100
0000
0000
0000
0100
1000
0000
0010
0000
0000
0000
0000
,  // measure 46
0100
0000
0001
0000
0010
0000
0000
0000
0010
0000
0001
0100
0000
0000
0000
0000
,  // measure 47
0010
0000
1000
0000
0001
0000
0000
0000
0001
1000
0000
0010
0000
0000
0000
0000
,  // measure 48
0100
0000
0001
0000
1001
0000
0000
0000
1000
0000
0100
0010
0000
0000
0000
0000
,  // measure 49
0001
0000
0010
0000
0100
0010
0000
0000
0001
1000
0000
0010
0000
0000
0000
0000
,  // measure 50
0100
0000
0010
0000
1000
0100
0000
0000
1000
0000
0001
0010
0000
0000
0000
0000
,  // measure 51
0001
0000
0100
0000
0010
1000
0000
0000
0001
0100
0000
0010
0000
0000
0000
0000
,  // measure 52
0100
0000
0001
0000
1000
0010
0000
0000
0100
0000
0001
0010
0000
0000
0000
0000
,  // measure 53
0100
0000
1000
0000
0010
0100
0000
0000
0001
1000
0000
0100
0000
0000
0000
0000
,  // measure 54
0001
0000
0100
0000
1000
0010
0000
0000
0100
0000
0001
1000
0000
0000
0000
0000
,  // measure 55
0010
0000
1000
0000
0001
0010
0000
0000
0001
1000
0000
0100
0000
0000
0000
0000
,  // measure 56
0010
0000
0100
0000
1000
0010
0000
0000
0100
0000
0001
0010
0000
0000
0000
0000
,  // measure 57
2200
0000
0000
3300
;
