#TITLE:Finale;
#SUBTITLE:;
#ARTIST:Madeon;
#TITLETRANSLIT:;
#SUBTITLETRANSLIT:;
#ARTISTTRANSLIT:;
#GENRE:Drum'n'Bass;
#CREDIT:;
#BANNER:finale-bn.png;
#BACKGROUND:finale-bg.png;
#LYRICSPATH:;
#CDTITLE:;
#MUSIC:Finale.ogg;
#OFFSET:-0.020000;
#SAMPLESTART:20.840000;
#SAMPLELENGTH:13.500000;
#SELECTABLE:YES;
#BPMS:0.000000=184.039993
;
#STOPS:
;
#BGCHANGES:;
#KEYSOUNDS:;
#ATTACKS:;

//---------------dance-single - ----------------
#NOTES:
     dance-single:
     :
     Hard:
     7:
     0.468479,0.632205,0.191577,0.191577,0.000000,291.000000,274.000000,17.000000,17.000000,0.000000,0.000000,0.468479,0.632205,0.191577,0.191577,0.000000,291.000000,274.000000,17.000000,17.000000,0.000000,0.000000:
0000
0000
0000
0000
,
0000
0000
0000
0000
,
0000
0000
0000
0000
,
0000
0000
0000
0000
,
0001
0100
0010
0100
,
1000
0100
0010
0100
,
1000
0100
0010
0100
,
0001
0100
0010
0100
,
1001
0000
1000
0000
1000
0000
0010
1000
,
0001
0000
0010
0001
0000
0100
0000
0001
,
0020
0100
0031
1000
,
0020
0100
1030
0001
,
1000
0000
0001
0000
0001
0000
0100
0001
,
1000
0000
0010
1000
0000
0100
0000
0001
,
0100
1000
0010
0000
0100
0001
0010
0000
,
0001
0010
0100
1000
0002
0000
0000
0003
,
0210
0000
0000
0310
0001
0000
0000
1000
,
0001
0000
1000
0100
0000
0001
0000
1000
,
0002
0000
0000
0010
0023
0000
0000
0031
,
0100
1000
0100
0001
0000
1000
0000
0100
,
0020
0000
0000
0130
1000
0000
0000
0001
,
0010
0000
1000
0010
0000
0001
0000
1000
,
0000
0001
0000
0010
0000
0100
0000
0000
,
0001
0010
0001
1000
0010
1000
0010
0100
,
0201
0000
0000
0301
1000
0000
0000
0010
,
1000
0000
0100
0001
0000
0100
0000
1000
,
0020
0000
0000
0130
1000
0000
0000
0100
,
0001
0010
0100
1000
0000
0010
0000
1000
,
0200
0000
0000
0310
0100
0000
0000
1000
,
0001
0000
0010
0001
0000
0100
0000
1000
,
0000
0010
0000
0001
0000
1000
0000
0000
,
0001
0010
0100
1000
0100
0010
0100
0010
,
0002
0000
1003
0100
,
0101
1000
1010
0000
,
0001
1000
1001
0100
,
1100
0001
0010
0000
,
0002
1000
0103
1001
,
2000
0001
3100
1001
,
0010
0000
0100
0100
0010
0000
1001
0000
,
0001
0000
0010
0100
1000
0000
0001
0000
,
1000
0001
1000
0010
,
0011
0100
0110
0000
,
0001
1000
1010
0100
,
1001
0010
1000
0010
,
0002
0000
2003
0000
,
3020
0000
0000
0000
0230
0000
0310
1000
,
0010
0010
0100
0001
0001
1000
0001
0100
,
0101
0000
0100
0100
0001
0010
0100
1000
,
0010
0000
0000
0000
,
0000
0000
1000
0000
,
0011
0000
0000
0000
,
0100
0001
0000
0000
1000
0000
0001
0000
,
1000
0000
0000
0000
,
0010
1000
0000
0000
0001
0010
0001
0010
,
0100
0000
0000
0000
0000
0000
0000
0010
,
0001
0000
1000
0000
0100
0001
0100
0001
,
0100
0000
0000
0000
0000
0000
0000
0100
,
1000
1000
0001
0010
,
0001
0100
0001
0010
0001
1000
0001
0010
,
0001
0100
0001
0100
0001
0100
0001
0000
,
0100
1000
0100
0010
0100
1000
0100
0010
,
0100
1000
0100
1000
0100
1000
0100
0000
,
0010
0100
0001
1000
,
0100
0010
0001
1000
,
0001
0000
0000
0000
0000
0000
0000
0001
,
0010
0100
1000
0100
0000
0001
0000
0000
,
1001
0000
0000
0000
;

//---------------dance-single - ----------------
#NOTES:
     dance-single:
     :
     Medium:
     5:
     0.349347,0.446263,0.202847,0.473309,0.000000,217.000000,199.000000,18.000000,42.000000,0.000000,0.000000,0.349347,0.446263,0.202847,0.473309,0.000000,217.000000,199.000000,18.000000,42.000000,0.000000,0.000000:
0000
0000
0000
0000
,
0000
0000
0000
0000
,
0000
0000
0000
0000
,
0000
0000
0000
0000
,
0100
0001
1000
0010
,
1000
0100
0010
0001
,
0100
0010
1000
0001
,
0010
0001
1000
0100
,
2000
0000
0000
0000
0000
0000
3000
0010
,
0100
0000
0001
0010
0000
0001
0000
1000
,
0001
0001
0001
0000
,
1000
1000
1000
0000
,
0000
0000
0000
0000
0000
0000
0000
0010
,
0100
0000
0100
0001
0000
0010
0000
0100
,
0010
0001
1000
0000
,
0001
0010
0001
1000
0200
0000
0000
0000
,
1300
0000
0000
0000
0000
0000
0000
0010
,
0100
0000
0010
1000
0000
0001
0000
0010
,
0000
0000
0000
0000
0000
0000
0000
0010
,
0001
1000
0010
1000
0000
0001
0000
0100
,
0000
0000
0000
0000
0000
0000
0000
0010
,
1000
0000
1000
0100
0000
0010
0000
0001
,
0000
0100
0000
0010
0000
0001
0000
0000
,
0020
0000
2030
0000
,
3001
0000
0000
0000
0000
0000
0000
0001
,
0010
0000
0100
1000
0000
0010
0000
0001
,
0000
0000
0000
0000
0000
0000
0000
0010
,
0100
1000
0100
0010
0000
0001
0000
1000
,
0001
0000
0000
0000
0000
0000
0000
0010
,
1000
0000
0001
0010
0000
0001
0000
1000
,
0000
0100
0000
0001
0000
1000
0000
0000
,
0001
0000
1000
0000
0010
0100
0010
0100
,
0020
0030
2020
3030
,
2002
3003
0202
0303
,
0022
0033
0220
0330
,
2200
3300
0022
0033
,
2002
3003
0100
0100
,
0010
0010
1000
1000
,
0001
0000
0000
1000
0001
0000
0000
0000
,
0100
0000
0001
0000
,
0022
0033
0220
0330
,
2200
3300
2020
3030
,
0202
0303
2002
3003
,
0220
0330
2020
3030
,
0002
0000
0023
0000
,
0230
0000
2300
0001
,
3001
1000
0000
1000
0001
0000
0100
0000
,
0110
0000
0000
0000
0001
0010
0100
1000
,
0001
0000
0000
0000
,
0000
0000
0100
0000
,
1001
0000
0000
0000
,
0010
0100
0000
0000
0001
0000
0010
0000
,
0100
0000
0000
0000
,
0010
0100
0000
0000
1000
0000
0100
0000
,
0010
0000
0000
0000
0000
0000
0000
1000
,
0001
0010
0100
1000
,
0000
0000
0000
0000
0000
0000
0000
0020
,
0000
0130
0001
1000
,
0010
0000
1000
0100
1000
0000
0010
0000
,
1000
0000
0001
0100
0001
0000
1000
0000
,
0010
0000
1000
0100
1000
0000
0001
0000
,
1000
0000
0001
0100
0001
0000
1000
0000
,
0010
1000
0100
0010
,
0001
0100
0001
1000
,
0010
0000
0000
0000
0000
0000
0000
0010
,
0100
0001
0010
0100
0000
1000
0000
0000
,
0001
0000
0000
0000
;

//---------------dance-single - ----------------
#NOTES:
     dance-single:
     :
     Easy:
     3:
     0.268852,0.334697,0.011269,0.112693,0.000000,167.000000,166.000000,1.000000,10.000000,0.000000,0.000000,0.268852,0.334697,0.011269,0.112693,0.000000,167.000000,166.000000,1.000000,10.000000,0.000000,0.000000:
0000
0000
0000
0000
,
0000
0000
0000
0000
,
0000
0000
0000
0000
,
0000
0000
0000
0000
,
0001
1000
0001
1000
,
0010
1000
0010
1000
,
0001
0100
0001
0100
,
0010
0100
0010
0100
,
0020
0000
0000
0000
,
2030
0000
0000
0000
,
3001
0010
0100
0000
,
1000
0100
0010
0000
,
0002
0000
0000
0000
,
0203
0000
0000
0000
,
0301
0010
0100
1000
,
0001
0010
0001
0000
,
0100
0000
0010
0000
,
1000
0001
0100
0010
,
0100
0000
0001
0000
,
1000
0100
0010
0001
,
1000
0000
0001
0000
,
0010
0001
1000
0100
,
1000
0010
0100
0001
,
0010
0010
0001
0001
,
0100
0000
0010
0000
,
1000
0001
0100
0010
,
1000
0000
0001
0000
,
0010
0100
0010
0001
,
1000
0000
0010
0000
,
0100
0001
1000
0010
,
1000
0100
0010
0001
,
1000
0001
1000
1000
,
0020
0000
0130
0000
,
0001
0000
1000
0000
,
0010
0000
1000
0000
,
0001
0000
0100
0000
,
0001
0000
0010
0000
,
0100
0000
1000
0000
,
0001
0000
1000
0000
,
0010
0000
1000
0000
,
1001
0000
0010
0000
,
0100
0000
0001
0000
,
0010
0000
0100
0000
,
0010
0000
1000
0000
,
0020
0000
0032
0000
,
0203
0000
0320
0000
,
1030
0000
0000
0001
0000
0000
1000
0000
,
0001
0000
0100
0100
,
0010
0000
0000
0000
,
0000
0000
0001
0000
,
1000
0000
0000
0000
,
0010
0000
1000
0100
,
0001
0000
0000
0000
,
0010
0000
0001
0100
,
1000
0000
0000
0000
,
0001
1000
0001
1000
,
0010
0000
0000
0000
,
0100
0010
0100
0010
,
1000
0100
1000
0100
,
0010
0001
0010
0001
,
0100
0010
0100
0010
,
1000
0001
1000
0001
,
0001
0100
0010
1000
,
0100
0010
0001
1000
,
0001
0000
0000
0000
,
0020
0000
0000
0000
,
1030
0000
0000
0000
;

//---------------dance-single - ----------------
#NOTES:
     dance-single:
     :
     Beginner:
     2:
     0.133621,0.223131,0.011269,0.000000,0.000000,83.000000,82.000000,1.000000,0.000000,0.000000,0.000000,0.133621,0.223131,0.011269,0.000000,0.000000,83.000000,82.000000,1.000000,0.000000,0.000000,0.000000:
0000
0000
0000
0000
,
0000
0000
0000
0000
,
0000
0000
0000
0000
,
0000
0000
0000
0000
,
0010
0000
0000
0000
,
0000
0000
0000
0000
,
1000
0000
0000
0000
,
0000
0000
0000
0000
,
0010
0000
0000
0000
,
0100
0000
0000
0000
,
1000
1000
1000
0000
,
0100
0100
0100
0000
,
0000
0000
0000
0000
,
0001
0000
0000
0000
,
0000
0000
0000
0000
,
0000
0000
0010
0000
,
0001
0000
0000
0000
,
1000
0000
0000
0000
,
0010
0000
0000
0000
,
1000
0000
0000
0000
,
0100
0000
0000
0000
,
0001
0000
0000
0000
,
0010
0000
0000
0000
,
0100
0000
0000
0000
,
1000
0000
0000
0000
,
0001
0000
0000
0000
,
1000
0000
0000
0000
,
0010
0000
0000
0000
,
0100
0000
0000
0000
,
0001
0000
0000
0000
,
1000
0000
0000
0000
,
0010
0000
0100
0000
,
0010
0000
1000
0000
,
1000
0000
1000
0000
,
0001
0000
0001
0000
,
0001
0000
1000
0000
,
1000
0000
1000
0000
,
0010
0000
0000
0000
,
0010
0000
0000
0000
,
0000
0000
0000
0000
,
0100
0000
0100
0000
,
0100
0000
0010
0000
,
0010
0000
0010
0000
,
0100
0000
0100
0000
,
0100
0000
0001
0000
,
1000
0000
0010
0000
,
0100
0000
0000
0001
,
0001
0000
1000
0000
,
0010
0000
0000
0000
,
0000
0000
0100
0000
,
0001
0000
0000
0000
,
1000
0000
0001
0000
,
0001
0000
0000
0000
,
0001
0000
1000
0000
,
1000
0000
0000
0000
,
0010
0000
0000
0000
,
0100
0000
0000
0000
,
0100
0000
0000
0000
,
0010
0000
0000
0000
,
1000
1000
1000
0000
,
0001
0000
0000
0000
,
0010
0000
0000
0000
,
0001
0000
0000
0000
,
0010
0010
0010
0000
,
0001
0000
0000
0000
,
1000
0000
0000
0000
,
0110
0000
0000
0000
;

//---------------dance-double - ----------------
#NOTES:
     dance-double:
     :
     Easy:
     2:
     0.167429,0.334697,0.022539,0.123962,0.000000,104.000000,102.000000,2.000000,11.000000,0.000000,0.000000,0.167429,0.334697,0.022539,0.123962,0.000000,104.000000,102.000000,2.000000,11.000000,0.000000,0.000000:
00000000
00000000
00000000
00000000
,
00000000
00000000
00000000
00000000
,
00000000
00000000
00000000
00000000
,
00000000
00000000
00000000
00000000
,
00000001
00000000
00000000
00000000
,
00000010
00000000
00000000
00000000
,
00000100
00000000
00000000
00000000
,
00010000
00000000
00000000
00000000
,
00100000
00000000
00000000
00000000
,
00010000
00000000
00001000
00000000
,
00000100
00000000
00000000
00000000
,
00000000
00000000
00000000
00000000
,
00000000
00000000
00000000
00000000
,
00001000
00000000
00010000
00000000
,
00100000
00000000
00000000
00000000
,
00000000
00000000
02000000
00000000
,
13000000
00000000
00000000
00000000
,
00100000
01000000
00100000
01000000
,
00010000
00000000
00000000
00000000
,
00002000
00000000
00023000
00000000
,
00031000
00000000
00000000
00000000
,
00000010
00000000
00000000
00000000
,
00000010
00000100
00000010
00000100
,
00000002
00000000
00000023
00000000
,
00000130
00000000
00000000
00000000
,
00001000
00010000
00001000
00010000
,
00001000
00000000
00000000
00000000
,
00010000
00100000
00010000
00100000
,
01000000
00000000
00000000
00000000
,
10000000
00000000
00100000
00000000
,
01000000
00000000
00010000
00000000
,
00001000
00000000
00010000
00000000
,
00000200
00000000
00001300
00000000
,
00001000
00000000
00000010
00000000
,
00000010
00000000
00000100
00000000
,
00000100
00000000
00000001
00000000
,
00000001
00000000
00000100
00000000
,
00000100
00000000
00000010
00000000
,
00000010
00000000
00000000
00000000
,
00001000
00000000
00000000
00000000
,
00010000
00000000
00010000
00000000
,
00100000
00000000
00100000
00000000
,
01000000
00000000
01000000
00000000
,
10000000
00000000
10000000
00000000
,
00200000
00000000
02300000
00000000
,
03200000
00000000
02300000
00000000
,
03010000
00000000
00000000
00000000
,
00000000
00000000
00100000
01000000
,
00100000
00000000
00000000
00000000
,
00000000
00000000
00001000
00000000
,
00010000
00000000
00000000
00000000
,
00000000
00000000
00000100
00000000
,
00001000
00000000
00000000
00000000
,
00000000
00000000
00000000
00000000
,
00000110
00000000
00000000
00000000
,
00000000
00000000
00000000
00000000
,
00001001
00000000
00000000
00000000
,
00000000
00000000
00000000
00000000
,
00000001
00000010
00000100
00001000
,
00010000
00100000
01000000
10000000
,
10000000
01000000
00100000
00010000
,
00001000
00000100
00000010
00000001
,
00000000
00000000
00000000
00000000
,
00000010
00001000
00000100
00000000
,
00000000
00000000
00000000
00000000
,
00002000
00000000
00000000
00000000
,
00013000
00000000
00000000
00000000
;

//---------------dance-double - ----------------
#NOTES:
     dance-double:
     :
     Medium:
     5:
     0.334858,0.446263,0.123962,0.394424,0.000000,208.000000,197.000000,11.000000,35.000000,0.000000,0.000000,0.334858,0.446263,0.123962,0.394424,0.000000,208.000000,197.000000,11.000000,35.000000,0.000000,0.000000:
00000000
00000000
00000000
00000000
,
00000000
00000000
00000000
00000000
,
00000000
00000000
00000000
00000000
,
00000000
00000000
00000000
00000000
,
00100000
01000000
00100000
00010000
,
00100000
01000000
00100000
10000000
,
00100000
01000000
00100000
00010000
,
00100000
01000000
00100000
10000000
,
10000000
00000000
01000000
00000000
00100000
00000000
00010000
01000000
,
00010000
00000000
10000000
00010000
00000000
01000000
00000000
02000000
,
00000000
00000000
00000000
03000000
,
00000000
00000000
00000000
00000000
,
00100000
00000000
00001000
00000000
00010000
00000000
00000100
00001000
,
00000100
00000000
00001000
00000010
00000000
00000100
00000000
00000001
,
00000010
00000100
00001000
00000010
,
00000100
00000001
00001001
00000000
,
00002200
00000000
00003300
00000100
00010000
00000000
00000000
00001000
,
00010000
00000000
00100000
01000000
00000000
10000000
00000000
00200000
,
00000000
00000000
00000000
00000000
00300000
00000000
00000000
01000000
,
00010000
01000000
00010000
01000000
00000000
00001000
00000000
00010000
,
00000000
00000000
00000000
00000000
00000000
00000000
00000000
00000100
,
00001000
00000000
00000100
00000010
00000000
00000001
00000000
00000100
,
00000000
00000010
00000000
00001000
00000000
00000100
00000000
00000000
,
00002200
00003300
00002020
00003030
,
00022000
00000000
00033000
00001000
00010000
00000000
00000000
00100000
,
01000000
00000000
00010000
10000000
00000000
01000000
00000000
00100000
,
00000000
00000000
00000000
00000000
00000000
00000000
00000000
00010000
,
00001000
00010000
00001000
00010000
00000000
00001000
00000000
00000100
,
00000000
00000000
00000000
00000000
00000000
00000000
00000000
00000010
,
00001000
00000000
00000100
00001000
00000000
00000010
00000000
00000100
,
00000000
00000001
00000000
00000010
00000000
00000100
00000000
00000000
,
00001000
00000100
00000010
00000000
00000001
00000010
00000100
00000000
,
00002200
00003300
00020000
00000000
,
00032000
00000000
00203000
00000000
,
00320000
00000000
02030000
00000000
,
03200000
00000000
10300000
00000000
,
10000000
01000000
00010000
00001000
,
00000100
00000000
00000001
00000000
00001000
00000000
00000001
00000010
,
00000100
00000000
00000000
00001000
00000001
00000000
00000000
00000000
,
00000100
00000000
00001001
00000000
,
00000020
00000000
00000230
00000000
,
00000302
00000000
00000023
00000000
,
00000230
00000000
00020300
00000000
,
00032000
00000000
02003000
00000000
,
03100000
00000000
11000000
00000000
,
00110000
00000000
01010000
00000000
,
00100000
00010000
00000000
00010000
01000000
00000000
00001000
00010000
,
00001000
00000000
00000000
00000000
00000010
00001000
00000010
00001000
,
00000010
00000000
00000000
00000000
,
00000000
00000000
00000100
00000000
,
00000010
00000000
00000000
00000000
,
00000001
00000200
00000000
00000000
00000001
00000000
00000301
00000000
,
00000000
00000000
00000000
00000000
,
00000010
00002000
00000000
00000000
00003100
00001000
00000100
00000000
,
00000000
00000000
00000000
00000000
00000000
00000000
00000000
00001000
,
00010000
01000000
00100000
00010000
,
00000000
00000000
00000000
00000000
00000000
00000000
00000000
00100000
,
20000000
00010000
30010000
00000000
,
01000000
00010000
00100000
00001000
,
00020000
00030200
00002300
00003010
,
00000100
00000001
00000010
00000100
,
00001000
00010000
01000000
00100000
,
10000000
10000000
10000000
10000000
,
00200000
02300000
03020000
00030000
,
00110000
00000000
00000000
00000000
,
00001000
00010000
00000100
00001000
00000000
00000010
00000000
00000000
,
00000001
00000000
00000000
00000000
;

//---------------dance-double - ----------------
#NOTES:
     dance-double:
     :
     Hard:
     7:
     0.468479,0.669394,0.259193,0.326808,0.000000,291.000000,268.000000,23.000000,29.000000,0.000000,0.000000,0.468479,0.669394,0.259193,0.326808,0.000000,291.000000,268.000000,23.000000,29.000000,0.000000,0.000000:
// measure 0
00000000
00000000
00000000
00000000
,  // measure 1
00000000
00000000
00000000
00000000
,  // measure 2
00000000
00000000
00000000
00000000
,  // measure 3
00000000
00000000
00000000
00000000
,  // measure 4
00010000
00001000
00000100
00001000
,  // measure 5
00001000
00010000
01000000
00010000
,  // measure 6
00010000
00001000
00000010
00001000
,  // measure 7
00001000
00010000
00100000
00010000
,  // measure 8
00000010
00000000
00000010
00000000
00000010
00000000
00000010
00010000
,  // measure 9
00001000
00000000
00100000
00010000
00000000
01000000
00000000
00100000
,  // measure 10
01000000
00010000
01010000
00000000
,  // measure 11
00100000
10000000
10100000
00000000
,  // measure 12
10000000
00000000
10000000
00000000
10000000
00000000
10000000
00100000
,  // measure 13
01000000
00000000
00010000
00100000
00000000
01000000
00000000
00100000
,  // measure 14
00010000
00001000
00010000
00000000
01000000
00010000
01000000
00000000
,  // measure 15
00001000
00010000
00001000
00000000
00022000
00000000
00000000
00033000
,  // measure 16
00002200
00000000
00003300
00001000
00000100
00000000
00000000
00000010
,  // measure 17
00000001
00000000
00000100
00000001
00000000
00001000
00000000
00000010
,  // measure 18
00000200
00000000
00000300
00000010
00000200
00000000
00000300
00000001
,  // measure 19
00000010
00000100
00001000
00000100
00000000
00011000
00000000
00100000
,  // measure 20
02000000
00000000
03000000
10000000
01000000
00000000
00000000
10000000
,  // measure 21
00100000
00000000
01000000
00010000
00000000
00100000
00000000
01000000
,  // measure 22
00000000
10000000
00000000
00100000
00000000
02000000
00000000
00000000
,  // measure 23
03010000
00100000
00001000
00010000
00000010
00001000
00000010
00001000
,  // measure 24
00002020
00000000
00003030
00000010
00000100
00000000
00000000
00000001
,  // measure 25
00000010
00000000
00000100
00001000
00000000
00000010
00000000
00000100
,  // measure 26
00000002
00000000
00000003
00000010
00000002
00000000
00000003
00000010
,  // measure 27
00000100
00001000
00010000
01000000
00000000
00100000
00000000
10000000
,  // measure 28
02000000
00000000
03000000
00100000
00010000
00000000
00000000
00100000
,  // measure 29
00001000
00000000
00001000
00100000
00000000
01000000
00000000
10000000
,  // measure 30
00000000
00100000
00000000
01000000
00000000
00010000
00000000
00000000
,  // measure 31
00100000
01000000
00100000
01000000
00100000
00010000
00100000
00010000
,  // measure 32
00220000
00330000
00001000
00010000
,  // measure 33
00000100
00001000
00000010
00000100
,  // measure 34
00000001
00000010
00000100
00001000
,  // measure 35
00000100
00000010
00000001
00001000
,  // measure 36
00002020
00003030
00011000
00220000
,  // measure 37
00330000
02200000
03300000
11000000
,  // measure 38
10100000
00000000
00000000
00100000
01000000
00000000
00000000
00000000
,  // measure 39
00110000
00000000
00000000
00000000
00010000
01000000
00010000
01000000
,  // measure 40
00010000
00100000
00001000
00010000
,  // measure 41
00000100
00001000
00000010
00000100
,  // measure 42
00000010
00010000
00001000
00100000
,  // measure 43
00010000
01000000
00100000
10000000
,  // measure 44
22000000
33000000
02200000
03300000
,  // measure 45
00220000
00000000
00330000
00000000
00011000
00000000
00001000
00010000
,  // measure 46
00000100
00001000
00000100
00000010
00000001
00000010
00000001
00000100
,  // measure 47
00000001
00000010
00001000
00000010
00000001
00000100
00000010
00010000
,  // measure 48
00010010
00000000
00000000
00000000
,  // measure 49
00000000
00000000
00000200
00000000
,  // measure 50
00010300
00000000
00000000
00000000
,  // measure 51
00001000
00010000
00000000
00000000
00100000
00000000
01000000
00000000
,  // measure 52
11000000
00000000
00000000
00000000
,  // measure 53
01000000
00100000
00000000
00000000
00001000
00010000
00001000
00000000
,  // measure 54
00001100
00000000
00000000
00000000
00000000
00000000
00000000
00000010
,  // measure 55
00000001
00000100
00000010
00001000
,  // measure 56
00001010
00000000
00000000
00000000
00000000
00000000
00000000
00000010
,  // measure 57
00000200
00000001
00000301
00000000
,  // measure 58
00000010
00000100
00001000
00000100
00000010
00000001
00000100
00000010
,  // measure 59
00001000
00000001
00001000
00000010
00010000
00001000
00100000
00010000
,  // measure 60
01000000
00100000
10000000
01000000
00100000
01000000
10000000
00010000
,  // measure 61
00100000
01000000
10000000
01000000
00100000
00010000
01000000
00100000
,  // measure 62
10000000
00100000
00010000
00010000
,  // measure 63
00001000
00000010
00000001
00000001
,  // measure 64
00001001
00000000
00000000
00000000
00000000
00000000
00000000
00000010
,  // measure 65
00000100
00001000
00000010
00000100
00000000
00001000
00000000
00000000
,  // measure 66
00010000
00000000
00000000
00000000
;
