#TITLE:Finale;
#SUBTITLE:(Dillon Francis Remix);
#ARTIST:Madeon;
#TITLETRANSLIT:;
#SUBTITLETRANSLIT:;
#ARTISTTRANSLIT:;
#GENRE:Moombahton;
#CREDIT:;
#BANNER:finaledillonfrancisremix-bn.png;
#BACKGROUND:finaledillonfrancisremix-bg.png;
#LYRICSPATH:;
#CDTITLE:;
#MUSIC:Finale (Dillon Francis Remix).ogg;
#OFFSET:0.000000;
#SAMPLESTART:17.122999;
#SAMPLELENGTH:13.500000;
#SELECTABLE:YES;
#BPMS:0.000000=112.000000
;
#STOPS:
;
#BGCHANGES:;
#KEYSOUNDS:;
#ATTACKS:;

//---------------dance-single - ----------------
#NOTES:
     dance-single:
     :
     Challenge:
     9:
     0.617984,0.732592,0.471915,0.101125,0.500006,385.000000,343.000000,42.000000,9.000000,0.000000,0.000000,0.617984,0.732592,0.471915,0.101125,0.500006,385.000000,343.000000,42.000000,9.000000,0.000000,0.000000:
// measure 0
0000
0000
0000
0000
,  // measure 1
0000
0000
0000
0000
,  // measure 2
0000
0000
0000
0000
,  // measure 3
0000
0000
0000
0000
,  // measure 4
1010
0000
1000
0000
0001
1000
0000
0001
2000
0000
0001
0000
3001
0000
0010
0000
,  // measure 5
0101
0000
0001
0000
0010
0001
0000
0000
0100
0010
0100
0010
0100
0001
0100
0001
,  // measure 6
0200
0001
0301
0000
0200
1000
1300
0010
,  // measure 7
0100
1001
0010
1001
0200
0000
0000
0000
,  // measure 8
1300
0000
1000
0000
1010
0000
0000
1000
0100
0000
1000
0010
1000
0000
0001
0000
,  // measure 9
0100
0000
0100
0000
0101
0000
0000
0010
0001
0000
0100
0001
0100
0000
0001
0000
,  // measure 10
1000
0000
1000
0000
0110
0000
0000
0010
1000
0000
0100
1000
0100
0000
1000
0000
,  // measure 11
0010
0000
0010
0000
1010
0000
1000
0000
1001
0000
0000
0010
0100
0000
0010
0000
,  // measure 12
0100
0001
0100
0001
0100
0000
0000
0000
0101
0000
0011
0000
1001
0000
0000
0000
,  // measure 13
0010
1000
0010
1000
0010
0000
0000
0000
1010
0000
1001
0000
0101
0000
0000
0000
,  // measure 14
1000
0001
1000
0001
1000
0000
0000
0010
0100
0000
0001
1000
0000
0000
0010
0000
,  // measure 15
1000
0010
1000
0010
1000
0000
0000
0000
0101
0000
0000
1000
0000
0000
1010
0000
,  // measure 16
1000
1000
0001
0010
0001
0001
1000
0010
,  // measure 17
1000
1000
0001
0010
0001
0001
1000
0001
,  // measure 18
0011
0110
1100
0000
1010
0110
0101
0000
,  // measure 19
0001
0000
1000
0000
0110
0000
0000
0000
1000
0000
1000
0000
0001
0000
0100
0010
,  // measure 20
1000
0100
1000
0100
1000
0010
1000
0010
1000
0001
1000
0001
1000
0100
0010
0001
,  // measure 21
0100
0010
0100
0010
0100
0001
0100
0001
0100
0010
0100
0010
0100
0000
0001
0010
,  // measure 22
0001
0100
0001
0100
0001
0010
0001
0010
0001
1000
0001
1000
0001
0010
0100
1000
,  // measure 23
0010
0100
0010
0100
0010
0100
0010
0100
0010
0000
0000
0000
0010
1000
0000
0001
,  // measure 24
0100
0000
0001
1000
0100
0000
0000
0000
1100
0000
1000
0010
0100
0000
0000
0000
,  // measure 25
1001
0000
1000
0001
0100
0000
0000
0000
1001
0000
1000
0001
0010
0000
0100
0000
,  // measure 26
0020
0000
0001
0000
0031
0100
0001
0000
2000
0000
0010
0000
3010
0100
0010
0000
,  // measure 27
0200
0000
0001
0000
0301
1000
0001
0000
1000
0000
1100
0000
0100
0000
0000
1000
,  // measure 28
0010
0000
0100
0000
0101
0000
0100
0010
0100
0000
0100
0001
0100
0000
0000
0000
,  // measure 29
0010
0000
0010
0000
1010
0000
0010
0100
0010
0000
0010
1000
0010
0000
0000
0000
,  // measure 30
0100
0000
0100
0000
1100
0000
0100
1000
0100
0000
0100
0010
0100
0000
0000
0000
,  // measure 31
0101
0000
1100
0000
0010
0000
1000
0000
0001
0000
0100
0001
0100
0001
0100
0000
,  // measure 32
0001
0000
0101
0000
1001
0000
0000
0000
0010
1000
0010
1000
0010
0000
0010
0000
,  // measure 33
1000
0000
1100
0000
1001
0000
0000
0000
0100
0001
0100
0001
0100
0000
0100
0000
,  // measure 34
0001
0000
0011
0000
0110
0000
0000
0000
0100
1000
0100
1000
0100
0000
1000
0000
,  // measure 35
0010
0000
0001
0010
0001
0000
0010
0000
1000
0000
0110
0000
0001
0000
0000
1000
,  // measure 36
0001
0000
0100
0010
0100
0000
0100
0001
0100
0000
0100
0010
0100
0000
0100
0000
,  // measure 37
0010
0000
1000
0100
0010
0000
0001
0010
0100
0000
1000
0100
0010
0000
0001
0000
,  // measure 38
0010
0000
0010
0001
0010
0000
0010
0100
0010
0000
0010
1000
0010
0000
0010
0000
,  // measure 39
1001
0000
0010
0000
0010
0000
1000
0000
1001
0000
0010
0100
0010
0000
0000
0000
,  // measure 40
2000
0002
0000
0000
0000
0000
3003
0000
;

//---------------dance-double - ----------------
#NOTES:
     dance-double:
     :
     Challenge:
     9:
     0.619590,0.755486,0.415735,0.101125,0.471915,386.000000,349.000000,37.000000,9.000000,0.000000,0.000000,0.619590,0.755486,0.415735,0.101125,0.471915,386.000000,349.000000,37.000000,9.000000,0.000000,0.000000:
00000000
00000000
00000000
00000000
,
00000000
00000000
00000000
00000000
,
00000000
00000000
00000000
00000000
,
00000000
00000000
00000000
00000000
,
00000010
00000000
00001000
00000100
00001000
00000000
00000100
00000000
00000010
00000000
00000001
00001000
00000001
00000000
00000010
00000000
,
00000100
00000000
00010000
00001000
00010000
00000000
00100000
00000000
01000000
00000000
10000000
00100000
10000000
01000000
10000000
00010000
,
10000000
00000000
00100000
00000000
01010000
00000000
00000000
00000000
00001000
00010000
00000100
00000000
00001000
00000000
00000010
00000000
,
00010100
00010000
00011000
00001000
00101000
00000000
10010000
00000000
,
10000000
00000000
01000000
00000000
00010000
00000000
00001000
00000000
00000010
00000001
00000000
00001000
00000001
00000000
00001100
00000000
,
00000001
00000000
00000010
00000000
00001000
00000000
00010000
00000000
01000000
10000000
00000000
00010000
10000000
00000000
01010000
00000000
,
00100000
00001000
00100000
00001000
00100000
00000000
00001000
00000000
00010000
00000100
00000000
00000100
00001000
00000000
00000010
00000000
,
00000100
00000001
00000100
00000001
00000100
00000000
00000010
00000000
00001000
00000100
00000000
00000100
00010000
00000000
00001000
00000000
,
00201000
00000000
00010000
00000000
00310000
00000000
00000000
00000000
01010000
00000000
01010000
00000000
00100000
00010000
00100000
00000000
,
00012000
00000000
00010000
00000000
00013000
00000000
00000100
00000000
00001100
00000000
00001100
00000000
00000010
00000001
00000010
00000000
,
00000201
00000000
00000010
00000000
00000310
00000000
00001000
00000000
00010100
00000000
00010100
00000000
00100000
00010000
00100000
00000000
,
10010000
00000000
01000000
00000000
11000000
00000000
00100000
00000000
01000000
00010000
00000000
00010000
01000000
00000000
00100000
00000000
,
00010000
00001000
00000010
00000100
00000001
00000010
00001000
00010000
,
01000000
00100000
00010000
01000000
00010000
00100000
10000000
00010000
,
00101000
00101000
00011000
00000000
00001100
00001100
00010100
00000000
,
00010000
00001000
01000000
00000000
10100000
10100000
01010000
01010000
,
00100000
00010000
00100000
00010000
01000000
00010000
01000000
00010000
00100000
00001000
00100000
00001000
00010000
00000100
00010000
00000100
,
00000010
00000001
00000010
00000001
00001000
00000010
00001000
00000010
00010000
00001000
00010000
00001000
01000000
00010000
01000000
00010000
,
00100000
01000000
00100000
01000000
10000000
00100000
10000000
00100000
01000000
00010000
01000000
00010000
00100000
00001000
00100000
00001000
,
00010000
00001000
00010000
00001000
00010000
00000010
00010000
00000010
00002000
00000000
00000000
00000000
00013000
00000100
00000000
00000100
,
00000010
00000001
00001000
00000000
00001100
00000000
00000000
00000000
00000010
00000001
00000100
00000000
00001010
00000000
00000000
00000000
,
00001000
00100000
00001000
00000000
00011000
00000000
00000000
00000000
00100000
00010000
01000000
00000000
01010000
00000000
00000000
00000000
,
00100000
10000000
00010000
00000000
10010000
00000000
00000000
00000000
01000000
00001000
01000000
00000000
01001000
00000000
00000000
00000000
,
00010000
00001000
00000100
00000010
00000001
00000001
00001100
00000000
,
00000200
00001000
00001000
00000010
00001000
00001000
00000310
00000000
,
00020000
00000100
00000100
00001000
00000100
00000100
00031000
00000000
,
02000000
00001000
00001000
00010000
00001000
00001000
03010000
00000000
,
00110000
00000000
00010000
00000000
01000000
00000000
00100000
00000000
10000000
00000000
01000000
00010000
00100000
00001000
00010000
00001000
,
00100000
00000000
00010000
01000000
00010000
00000000
00010000
00100000
00010000
00000000
00010000
01000000
00010000
00000000
00100000
00000000
,
00001000
00000000
00010000
00000100
00010000
00000000
00010000
00001000
00010000
00000000
00010000
00000100
00010000
00000000
00000010
00000000
,
00001000
00000000
00000100
00001000
00000100
00000000
00000100
00000010
00000100
00000000
00000100
00001000
00000100
00000000
00010000
00000000
,
00001000
00000000
00100000
00010000
00100000
00000000
00100000
01000000
00100000
00000000
00010000
00000000
10010000
00000000
01000000
00000000
,
10000000
00000000
00100000
01000000
00010000
00000000
10000000
00000000
00100000
00000000
01000000
00010000
00100000
00000000
00001000
00000000
,
00010000
00000000
00000100
00001000
00000100
00000000
00001000
00000000
00000010
00000000
00000100
00000001
00000010
00000000
00000100
00000000
,
00001000
00000000
00000010
00000100
00000001
00000000
00001000
00000000
00000100
00000000
00010000
00001000
00010000
00000000
00001000
00000000
,
00100000
00000000
01000000
10000000
00100000
00000000
01000000
00010000
00100000
01000000
10000000
00100000
01000000
00000000
00000000
00000000
,
00002000
00020000
00000000
00000000
00000000
00000000
00033000
00000000
;
