#TITLE:Fade Away;
#SUBTITLE:;
#ARTIST:Susanne Sundfor;
#TITLETRANSLIT:;
#SUBTITLETRANSLIT:;
#ARTISTTRANSLIT:;
#GENRE:Pop;
#CREDIT:;
#BANNER:fadeaway-bn.png;
#BACKGROUND:fadeaway-bg.png;
#LYRICSPATH:;
#CDTITLE:;
#MUSIC:Fade Away.ogg;
#OFFSET:-0.020000;
#SAMPLESTART:21.600000;
#SAMPLELENGTH:12.000000;
#SELECTABLE:YES;
#BPMS:0.000000=100.000000
;
#STOPS:
;
#BGCHANGES:;
#KEYSOUNDS:;
#ATTACKS:;

//---------------dance-single - ----------------
#NOTES:
     dance-single:
     :
     Hard:
     7:
     0.390819,0.365810,0.018932,0.018932,0.108861,289.000000,287.000000,2.000000,2.000000,0.000000,0.000000,0.390819,0.365810,0.018932,0.018932,0.108861,289.000000,287.000000,2.000000,2.000000,0.000000,0.000000:
0000
0000
0000
0000
,
0000
0100
0100
0010
0100
0100
1000
0010
,
0000
1001
0000
0001
0100
0100
0010
0100
,
0000
0010
1000
0000
0010
0100
0010
0000
,
1000
0000
0001
0000
1000
0000
0001
0000
1000
0000
0001
1000
0000
0001
1000
0000
,
0000
0100
0100
1000
0100
0100
0010
0001
,
0000
0000
0000
1000
0010
0010
1000
0100
,
0010
0001
0100
0010
1000
0100
1000
0000
,
1000
0000
0000
0010
0000
0000
0010
0000
0100
0000
0001
0000
0100
0000
0000
0000
,
0001
0000
1000
0100
1000
0000
0000
0000
0001
0000
1000
0100
1000
0000
0001
0000
,
0100
0010
1000
0000
0001
0010
0100
0000
,
1000
0000
0001
0100
0001
0000
0000
0000
1000
0000
0001
0100
0001
0000
0000
0000
,
0100
0010
1000
0000
0100
0010
1000
0001
,
0100
0001
0001
0000
0100
1000
1000
0000
,
0100
0001
0001
0000
0100
1000
1000
0010
,
0100
0000
0001
0010
0100
1000
0010
0000
,
0100
0001
0010
0001
0000
1000
0000
1000
,
0010
1000
0100
1000
0010
0100
0010
0100
,
0010
0000
0100
0001
0010
0000
0100
1000
,
0010
0000
0100
0010
0000
0000
0110
0000
,
0000
0000
0020
0000
0000
0000
0130
0001
0010
0000
0000
0000
0000
0000
0100
0000
,
1000
0010
0100
0001
0010
1000
0010
0001
,
0000
0000
0200
0000
0000
0000
1300
0010
0100
0000
0000
0000
0000
0000
0010
0000
,
0100
0001
0010
0100
1000
0010
0100
0001
,
0000
0000
0000
0000
0100
0001
1000
0000
0010
0000
0000
0000
0000
0000
0010
0000
,
0100
0010
1000
0010
0100
1000
0100
0001
,
0000
0000
0000
0000
0010
0000
0010
0000
0001
0000
0000
0100
0000
0000
0100
0000
,
0010
0000
0010
0000
1000
0000
1000
0000
0100
0000
1000
0001
1000
0001
1000
0001
,
1000
0000
0100
1000
0001
0000
0100
1000
,
0001
0010
0100
1000
0100
0010
0001
0100
,
0010
0000
0100
0010
1000
0000
0100
0010
,
1000
0100
0010
0001
0010
0100
1000
0010
,
0100
0000
0010
1000
0001
0000
0010
1000
,
0001
1000
0010
0100
0010
1000
0001
0000
,
0100
0001
1000
0010
1000
0000
0001
0010
,
0100
0000
1000
0000
0001
0000
0001
0010
,
0100
0000
1000
0010
0100
0000
0001
0010
,
0100
0000
1000
0010
1000
0000
0000
0000
0100
0000
1000
0010
1000
0000
0000
0000
,
0010
0100
0001
0010
0100
0010
0001
0000
,
0100
0000
0001
0010
0001
0000
0000
0000
0100
0000
0001
0010
0001
0000
0000
0000
,
1000
0010
0100
0001
0010
0001
0100
0000
,
0001
0000
0010
0100
1000
0000
0000
0000
0010
0000
0100
0001
1000
0000
0000
0000
,
0010
0000
1000
0100
0010
0000
0000
0000
0001
0000
0100
0001
1000
0000
0010
0100
;

//---------------dance-single - ----------------
#NOTES:
     dance-single:
     :
     Medium:
     6:
     0.343488,0.325164,0.085196,0.094662,0.042598,254.000000,245.000000,9.000000,10.000000,0.000000,0.000000,0.343488,0.325164,0.085196,0.094662,0.042598,254.000000,245.000000,9.000000,10.000000,0.000000,0.000000:
0000
0000
0000
0000
,
0000
0010
0010
0100
0010
0010
1000
0001
,
0000
0000
0000
0010
0010
0001
0010
0010
,
0000
0100
1000
0001
0010
0100
1000
0000
,
0010
0000
0100
0000
0010
0000
1000
0000
0001
0000
0000
1000
0000
0000
0001
0000
,
0000
1000
1000
0010
1000
1000
0001
1000
,
0000
0000
0000
0010
0010
1000
0010
0010
,
0000
0100
0001
1000
0010
0100
0001
1000
,
0010
0100
0010
1000
0010
1000
0001
0000
,
0002
0000
1000
0000
0100
0000
0013
0001
,
2000
0000
0001
0000
0010
0000
3100
1000
,
0020
0000
0100
0000
0001
0000
1030
0010
,
0200
0000
0010
0000
1000
0000
0301
0010
,
0001
1100
0001
1100
,
1000
0000
0101
0000
1000
0000
0010
0100
,
0001
0000
0010
0000
0100
1000
0100
1000
,
0010
0100
0010
0100
0000
0001
0000
0000
,
0100
0010
0100
0001
0000
1000
0001
1000
,
0001
1100
1000
0101
,
0001
1100
0000
0010
,
0000
0000
0200
0000
0000
0000
1300
0001
1000
0000
0000
0000
0000
0000
0010
0000
,
1000
0100
0010
0001
0100
0010
1000
0001
,
0000
0000
0200
0000
0000
0000
0310
1000
0010
0000
0000
0000
0000
0000
0010
0000
,
0100
0001
1000
0010
1000
0100
0010
0001
,
0000
0000
0000
0000
0100
0001
0100
0000
0001
0000
0000
0000
0000
0000
0010
0000
,
0100
1000
0010
1000
0100
0001
0100
1000
,
0000
0000
0000
0000
0010
0000
1000
0000
0001
0000
0000
1000
0000
0000
0001
0000
,
1000
0100
0010
0001
1000
0100
0010
0001
,
0100
0000
0001
0000
0010
0000
0100
1000
,
0010
0000
0100
0001
1000
0000
0010
0100
,
0010
1000
0010
1000
0000
0001
1000
0001
,
1000
0000
0100
0000
0010
0000
0001
0010
,
0100
0000
1000
0100
0010
0000
0001
1000
,
0001
0010
0001
0010
0000
0100
1000
0100
,
1000
0010
1000
0010
0000
0100
0001
0100
,
0001
1010
0001
1010
,
1000
0000
0011
0000
1000
0000
0100
0010
,
0002
0000
1000
0000
0010
0000
0103
0010
,
2000
0000
0010
0000
0100
0000
3001
0100
,
0020
0000
1000
0000
0001
0000
0130
0010
,
0200
0000
0001
0000
1000
0000
0310
1000
,
0001
0000
0000
0000
0100
0000
0001
1000
0001
0000
0000
0000
0001
0000
0010
0001
,
0010
0000
0000
0000
1000
0000
0010
1000
0010
0000
0000
0000
1000
0000
0001
1000
;

//---------------dance-single - ----------------
#NOTES:
     dance-single:
     :
     Easy:
     2:
     0.151459,0.182639,0.028399,0.094662,0.000000,112.000000,109.000000,3.000000,10.000000,0.000000,0.000000,0.151459,0.182639,0.028399,0.094662,0.000000,112.000000,109.000000,3.000000,10.000000,0.000000,0.000000:
0000
0000
0000
0000
,
0000
0000
1000
0010
,
0000
0000
0001
0010
,
0000
0100
0010
1000
,
0001
0001
0001
1001
,
0000
0001
0100
0000
,
0000
0000
1000
0100
,
0000
1000
0010
0100
,
0010
0010
0010
0110
,
0200
0000
0000
0301
,
2000
0000
0000
3100
,
0020
0000
0000
0030
,
0002
0000
0000
1003
,
2002
0000
0000
0000
,
3003
0000
0010
0000
,
0100
1000
0010
0100
,
0001
0001
1000
0000
,
1000
1000
0001
0000
,
0100
0000
0010
0000
,
1000
0000
0000
0001
,
0000
0100
0000
0000
0100
0000
0000
0000
,
0010
1000
0010
1000
,
0000
0001
0000
0000
0001
0000
0000
0000
,
0100
0001
0100
0001
,
0000
1000
0001
0000
,
0010
1000
0100
0010
,
0000
0100
1000
0100
,
1000
0010
0100
0001
,
0010
0000
0000
0000
,
0001
1000
0010
0100
,
0001
0010
0100
1000
,
0010
0000
0000
0000
,
0100
0001
1000
0010
,
0100
0010
1000
0001
,
0010
0000
0001
0000
,
1000
0000
0000
0000
,
0010
0000
0000
1000
,
0002
0000
0000
0013
,
0200
0000
0000
1300
,
0020
0000
0000
0030
,
2000
0000
0000
3001
,
0100
0010
0100
0001
,
0100
0000
0010
0000
0100
0000
0001
1000
;

//---------------dance-single - ----------------
#NOTES:
     dance-single:
     :
     Beginner:
     1:
     0.083843,0.140810,0.009466,0.000000,0.000000,62.000000,61.000000,1.000000,0.000000,0.000000,0.000000,0.083843,0.140810,0.009466,0.000000,0.000000,62.000000,61.000000,1.000000,0.000000,0.000000,0.000000:
// measure 0
0000
0000
0000
0000
,  // measure 1
0000
0001
0000
0000
,  // measure 2
0000
0000
0001
0000
,  // measure 3
0000
0001
0001
0001
,  // measure 4
0001
0000
0000
0000
,  // measure 5
0000
0100
0000
0000
,  // measure 6
0000
0000
0100
0000
,  // measure 7
0000
0100
0100
0100
,  // measure 8
0100
0000
0000
0010
,  // measure 9
0010
0000
0000
0000
,  // measure 10
1000
0000
0000
0000
,  // measure 11
0001
0000
0000
0000
,  // measure 12
0100
0000
0000
0000
,  // measure 13
0010
0000
0000
0000
,  // measure 14
0000
0000
1000
0000
,  // measure 15
1000
0000
0000
0000
,  // measure 16
0010
0000
0010
0000
,  // measure 17
0100
0000
0100
0000
,  // measure 18
0001
0000
0000
0000
,  // measure 19
0000
0000
0000
1001
,  // measure 20
0000
0000
0010
0000
,  // measure 21
0100
0100
0100
0100
,  // measure 22
0000
0000
1000
0000
,  // measure 23
0010
0010
0010
0010
,  // measure 24
0000
0100
0000
0000
,  // measure 25
0001
0001
0001
0001
,  // measure 26
0000
0010
0000
0000
,  // measure 27
0001
0000
0000
0000
,  // measure 28
0000
0000
0000
0000
,  // measure 29
0000
1000
0000
0000
,  // measure 30
0010
0000
1000
0000
,  // measure 31
0001
0000
0000
0000
,  // measure 32
0000
0001
0000
0000
,  // measure 33
1000
0000
0001
0000
,  // measure 34
0100
0000
0010
0000
,  // measure 35
1000
0000
0000
0000
,  // measure 36
0000
0000
0000
0000
,  // measure 37
0100
0000
0000
0000
,  // measure 38
0001
0000
0000
0000
,  // measure 39
1000
0000
0000
0000
,  // measure 40
0010
0000
0000
0000
,  // measure 41
0100
0000
0010
0000
,  // measure 42
1000
0000
0001
0000
;
