#TITLE:Evil Eye;
#SUBTITLE:;
#ARTIST:Franz Ferdinand;
#TITLETRANSLIT:;
#SUBTITLETRANSLIT:;
#ARTISTTRANSLIT:;
#GENRE:Rock;
#CREDIT:;
#BANNER:evileye-bn.png;
#BACKGROUND:evileye-bg.png;
#LYRICSPATH:;
#CDTITLE:;
#MUSIC:Evil Eye .ogg;
#OFFSET:0.010000;
#SAMPLESTART:30.741999;
#SAMPLELENGTH:12.000000;
#SELECTABLE:YES;
#BPMS:0.000000=111.000000
;
#STOPS:116.000000=1.620000
;
#BGCHANGES:;
#KEYSOUNDS:;
#ATTACKS:;

//---------------dance-single - ----------------
#NOTES:
     dance-single:
     :
     Hard:
     8:
     0.470303,0.472559,0.139244,0.039784,0.134271,331.000000,317.000000,14.000000,4.000000,0.000000,0.000000,0.470303,0.472559,0.139244,0.039784,0.134271,331.000000,317.000000,14.000000,4.000000,0.000000,0.000000:
0000
0000
0000
0000
,
0000
0000
0000
0000
,
1100
0011
0101
0010
,
0100
0000
0001
0000
1000
0010
1000
0000
0001
0000
0100
0000
0100
0000
0000
0000
,
1010
1001
0101
0001
,
0100
0000
0001
0000
1000
0010
1000
0000
0001
0000
1000
0001
0000
0000
0000
0000
,
0001
0010
0001
0100
0001
0010
0001
0000
,
0100
0000
0001
0010
0000
0000
0001
0000
0100
0000
0001
0010
0000
0000
0000
0000
,
1000
0100
1000
0010
1000
0100
1000
0000
,
0001
0000
0010
0000
0100
1000
0100
0000
1000
0000
0001
0000
0001
0000
0000
0000
,
0100
0001
0100
0010
0100
0001
0100
0000
,
0010
0000
1000
0000
0001
0100
0001
0000
0010
0000
1000
0000
1000
0000
0000
0000
,
0010
0001
0010
0100
0010
0001
0010
0000
,
1100
0000
0101
0000
0010
0010
1000
0000
,
0002
0000
0013
0000
0001
0100
1000
0000
,
0001
0010
0001
0100
0001
0010
0100
1000
,
0002
0000
0013
0000
0001
0010
1000
0000
,
0001
0010
0001
0100
0001
1000
0100
0000
,
2000
0000
3100
0000
1000
0100
0001
0000
,
1000
0100
1000
0010
1000
0100
0010
0001
,
2000
0000
3010
0000
1000
0010
0001
0010
,
1000
0100
0010
0100
1000
0000
1000
0000
,
0100
0000
1000
0010
1000
0000
0100
1000
0100
0000
1000
0010
1000
0000
0000
0000
,
0010
0000
0100
0001
0100
0000
0010
1000
0010
0000
0100
0001
0100
0000
0000
0000
,
0001
0000
0010
0100
0010
0000
0001
1000
0001
0000
0010
0100
0010
0000
0000
0000
,
1000
0000
0001
0100
0001
0000
1000
0001
1000
0000
0001
0100
0001
0000
0000
0000
,
0100
0000
1000
0010
1000
0000
0001
0010
0001
0000
1000
0010
1000
0000
0000
0000
,
1000
0000
0010
0100
0010
0000
1000
0010
1000
0000
0010
0100
0010
0000
0000
0000
,
0100
0000
0001
0000
0001
0000
1000
0000
1000
0000
0001
0000
0010
0100
0010
0100
,
0010
0000
1001
0000
0001
0010
0001
0100
,
0001
0010
0001
0100
0001
0100
0001
0010
,
0001
0000
1000
0100
1000
0010
1000
0100
,
1000
0010
1000
0100
1000
0100
1000
0010
,
1000
0000
0001
0100
0001
1000
0001
0100
,
0001
1000
0001
0100
0001
0100
0001
1000
,
0001
0000
1000
0010
1000
0001
1000
0010
,
1000
0001
1000
0010
1000
0010
1000
0001
,
1000
0000
1001
0010
0100
0000
0010
1000
,
0100
0001
0100
1000
0100
1000
0100
0010
,
0100
0000
1100
0010
0001
0000
0100
0010
,
1000
0100
0010
0001
0010
0001
0100
0010
,
1000
0000
0011
0100
1000
0000
0010
1000
,
0100
0001
0100
1000
0100
1000
0010
0001
,
0010
0000
1010
0100
0001
0000
0010
0100
,
0001
0010
0001
0100
0001
0100
1000
0100
,
0001
0101
0000
0000
;

//---------------dance-single - ----------------
#NOTES:
     dance-single:
     :
     Medium:
     4:
     0.257175,0.270034,0.079568,0.099460,0.000000,181.000000,173.000000,8.000000,10.000000,0.000000,0.000000,0.257175,0.270034,0.079568,0.099460,0.000000,181.000000,173.000000,8.000000,10.000000,0.000000,0.000000:
0000
0000
0000
0000
,
0000
0000
0000
0000
,
1000
0001
1000
0110
,
0010
0000
0010
0000
0010
1000
0100
0000
,
0001
1000
0001
0110
,
0100
0000
0100
0000
0100
0001
0010
0000
,
0001
0001
0001
0001
,
1000
0100
0010
0000
0000
0000
0000
0000
,
1000
1000
1000
1000
,
0001
0010
0100
1000
0000
0000
0000
0000
,
0010
0010
0010
0010
,
0100
0010
1000
0001
0000
0000
0000
0000
,
0100
0100
0100
0100
,
0002
0000
2003
0000
3000
0001
1000
0000
,
0020
1030
0100
0010
,
0100
0100
0100
0000
,
2000
3001
0010
0100
,
0001
0001
0001
0000
,
0020
1030
0100
0001
,
0100
0100
0100
0000
,
2000
3010
0001
0010
,
1000
0001
1000
0001
,
0010
0000
0100
0000
,
0010
0000
0001
0000
0100
0001
1000
0000
,
0010
0000
1000
0000
,
0100
0000
1000
0000
0010
0100
0001
0000
,
0010
0000
0100
0000
,
0010
0000
0001
0000
1000
0100
0010
0000
,
0100
0000
1000
0010
,
1010
0002
0013
0100
,
0001
0000
0010
0100
1000
0000
0001
0000
,
0000
2000
3100
0010
,
1000
0000
0100
0010
0001
0000
1000
0000
,
0000
0020
0130
0001
,
0010
0000
0100
0001
0010
0000
0001
0000
,
0000
0200
0301
1000
,
0001
1000
0100
0000
1000
0000
0010
0000
,
0100
1001
0010
0100
,
0010
0000
1000
0001
0010
0000
0100
0000
,
0010
1001
0010
0100
,
1000
0000
0100
0010
0001
0000
0100
0000
,
0001
1001
0100
0010
,
1000
0100
0010
0000
0001
0000
0100
0000
,
1000
1001
0010
0100
,
0001
0000
0010
0100
0001
0000
0010
0000
,
0100
1100
0000
0000
;

//---------------dance-single - ----------------
#NOTES:
     dance-single:
     :
     Easy:
     2:
     0.166240,0.181017,0.009946,0.079568,0.000000,117.000000,116.000000,1.000000,8.000000,0.000000,0.000000,0.166240,0.181017,0.009946,0.079568,0.000000,117.000000,116.000000,1.000000,8.000000,0.000000,0.000000:
0000
0000
0000
0000
,
0000
0000
0000
0000
,
1000
1000
1000
0010
,
0200
0000
0302
0000
,
0013
0010
0000
0010
,
0001
2000
0000
3020
,
0000
0130
0001
0010
,
0000
0001
0000
1000
,
0000
0010
1000
0100
,
0000
1000
0000
0001
,
0000
0100
0001
1000
,
0000
0001
0000
0010
,
0000
0100
0010
0001
,
0000
1000
1000
0000
,
0000
2000
3001
0100
,
0010
0100
0000
0000
,
0000
0002
1003
0010
,
0100
0010
0000
0000
,
0000
0200
0301
1000
,
0010
1000
0000
0000
,
0000
0002
0013
0100
,
1000
0100
0000
0000
,
1000
0001
0000
0010
,
0000
0100
0000
0010
,
0000
0001
0000
1000
,
0000
0100
0000
0010
,
0100
0100
0000
1000
,
0010
0010
0000
0100
,
0000
0001
0000
1000
,
0000
0110
1000
0100
,
0010
0001
1000
0000
,
0000
0000
0001
0010
,
0100
1000
0001
0000
,
0000
0000
0100
0010
,
1000
0001
0100
0000
,
0000
0000
0010
0100
,
0001
1000
0010
0000
,
0000
0100
0001
0100
,
1000
0100
0001
0000
,
1000
0000
0010
1000
,
0100
1000
0010
0000
,
0100
0000
0001
0010
,
1000
0010
0001
0000
,
1000
0000
0100
0001
,
0010
0001
0100
0000
,
0010
0000
1000
0000
;

//---------------dance-single - ----------------
#NOTES:
     dance-single:
     :
     Beginner:
     1:
     0.085251,0.112514,0.000000,0.019892,0.000000,60.000000,60.000000,0.000000,2.000000,0.000000,0.000000,0.085251,0.112514,0.000000,0.019892,0.000000,60.000000,60.000000,0.000000,2.000000,0.000000,0.000000:
0000
0000
0000
0000
,
0000
0000
0000
0000
,
0001
0001
0001
0000
,
1000
0000
0000
0000
,
0100
0100
0100
0000
,
0001
0000
0000
0000
,
0010
0000
0000
0000
,
0100
0000
0100
0000
,
1000
0000
0000
0000
,
0002
0000
0003
0000
,
0010
0000
0000
0000
,
0200
0000
0300
0000
,
0001
0000
0000
0000
,
1000
1000
0000
0000
,
0010
0010
0000
0000
,
0100
0000
0000
0000
,
0001
0000
0000
0000
,
0010
0000
0000
0000
,
0100
0000
0000
0000
,
0001
0000
0000
0000
,
1000
0000
0000
0000
,
0010
0000
0000
0100
,
0100
0000
0000
0000
,
0000
0000
1000
0000
,
0010
0000
0000
0000
,
0100
0000
0001
0000
,
0010
0000
0000
0000
,
0100
0000
1000
0000
,
0010
0000
0000
0000
,
0000
0000
1000
0000
,
0000
0001
0000
0000
,
0000
0100
0000
0000
,
0000
0001
0000
0000
,
0000
0010
0000
0000
,
0000
1000
0000
0000
,
0000
0010
0000
0000
,
0000
0001
0000
0000
,
1000
1000
0000
0010
,
0000
1000
0000
0000
,
0000
0001
0000
0010
,
0000
0001
0000
0000
,
0000
0100
0000
0010
,
0000
1000
0000
0000
,
0000
0001
0000
0010
,
0000
0100
0000
0010
,
0000
0001
0000
0000
;

//---------------dance-double - ----------------
#NOTES:
     dance-double:
     :
     Hard:
     8:
     0.470303,0.405051,0.397840,0.019892,0.119352,331.000000,291.000000,40.000000,2.000000,0.000000,0.000000,0.470303,0.405051,0.397840,0.019892,0.119352,331.000000,291.000000,40.000000,2.000000,0.000000,0.000000:
00000000
00000000
00000000
00000000
,
00000000
00000000
00000000
00000000
,
11000000
01010000
00011000
00001100
,
00000001
00000000
00000100
00000000
00001000
00000000
00000100
00000000
00000001
00000000
00000001
00001000
00000001
00000000
00000000
00000000
,
00000011
00001010
00011000
00110000
,
10000000
00000000
00100000
00000000
00010000
00000000
00100000
00000000
10000000
00000000
00010000
10000000
00000000
00000000
00000000
00000000
,
00100000
00010000
00001000
00000010
00000001
00000001
00000001
00000000
,
00000001
00000100
00000001
00000100
00001000
00001000
00001000
00000000
,
00000001
00000100
00001000
00010000
00001000
00010000
00001000
00000000
,
00010000
00000000
01000000
00000000
10000000
00010000
10000000
00000000
01000000
00000000
00010000
00000000
00001000
00000000
00000000
00000000
,
00000100
00000001
00000010
00001000
00010000
00010000
00010000
00000000
,
00100000
00000000
10000000
00000000
01000000
00100000
01000000
00000000
00100000
00000000
00010000
00000000
00010000
00000000
00000000
00000000
,
00001000
00000010
00000001
00000100
00001000
00001000
00001000
00000000
,
00011000
00000000
01010000
00000000
10000000
10000000
10000000
00000000
,
20020000
30030000
01100000
00000000
10000000
00100000
00010000
00000000
,
00001000
00000010
00000001
00000010
00001000
00000010
00000001
00000000
,
00001001
00000000
00000110
00000000
00000001
00000100
00001000
00000000
,
00010000
01000000
10000000
01000000
00010000
01000000
10000000
00000000
,
10010000
00000000
01100000
00000000
10000000
01000000
00010000
00000000
,
00001000
00000100
00000001
00000100
00001000
00000100
00000001
00000000
,
00001001
00000000
00000110
00000000
00000001
00000010
00001000
00010000
,
00100000
10000000
01000000
00100000
00001000
00010000
00000010
00000100
,
00000001
00000000
00000000
00000001
00000100
00000000
00000000
00000100
00001000
00000000
00000000
00001000
00010000
00000000
00000000
00010000
,
00100000
00000000
00000000
00100000
10000000
00000000
00000000
10000000
00010000
00000000
00000000
00000000
00110000
00000000
00000000
00000000
,
00100000
00000000
00000000
00100000
00010000
00000000
00000000
00010000
00001000
00000000
00000000
00001000
00000100
00000000
00000000
00000100
,
00000001
00000000
00000000
00000001
00000010
00000000
00000000
00000010
00001000
00000000
00000000
00000000
00011000
00000000
00000000
00000000
,
00100000
00000000
00000000
00100000
10000000
00000000
00000000
10000000
01000000
00000000
00000000
01000000
00010000
00000000
00000000
00010000
,
00001000
00000000
00000000
00001000
00000010
00000000
00000000
00000010
00000001
00000000
00000000
00000000
00000101
00000000
00000000
00000000
,
00000100
00000000
00001000
00000000
00010000
00000000
01000000
00000000
10000000
00000000
00100000
00000000
01000000
00100000
01000000
00100000
,
01000000
00000000
00011000
00000000
00001000
00000010
00000001
00000001
,
00000001
00000010
00001000
00010000
00100000
10000000
10000000
00000000
,
10010000
00000000
00011000
00000000
00010000
00100000
10000000
10000000
,
10000000
00100000
00010000
00001000
00000010
00000001
00000001
00000010
,
00001000
00010000
00011000
00000000
00001000
00000100
00000001
00000001
,
00000001
00000100
00001000
00010000
01000000
10000000
10000000
00000000
,
10010000
00000000
00011000
00000000
00010000
01000000
10000000
10000000
,
10000000
01000000
00010000
00001000
00000100
00000001
00000100
00001000
,
00010000
00001000
00011000
00000000
00110000
00000000
11000000
00000000
,
10000000
01000000
00010000
00001000
00000010
00000001
00000100
00001000
,
00010000
00001000
00011000
00000000
00001010
00000000
00000101
00000000
,
00000001
00000010
00001000
00010000
01000000
10000000
00100000
00010000
,
00001000
00010000
00011000
00000000
01010000
00000000
00011000
00000000
,
00001000
00000100
00000001
00000010
00001000
00010000
01000000
10000000
,
00100000
00010000
00011000
00000000
00001010
00000000
00011000
00000000
,
00010000
01000000
10000000
00100000
00010000
00001000
00000100
00000001
,
00000010
00001000
00011000
00000000
00000000
00000000
00000000
00000000
;

//---------------dance-double - ----------------
#NOTES:
     dance-double:
     :
     Medium:
     4:
     0.255754,0.337542,0.139244,0.208866,0.000000,180.000000,166.000000,14.000000,21.000000,0.000000,0.000000,0.255754,0.337542,0.139244,0.208866,0.000000,180.000000,166.000000,14.000000,21.000000,0.000000,0.000000:
00000000
00000000
00000000
00000000
,
00000000
00000000
00000000
00000000
,
10010000
01010000
00011000
00001100
,
00000010
00000000
00000001
00000000
00001000
00000100
00001000
00000000
,
00001001
00001100
00011000
01010000
,
00100000
10000000
01000000
00020000
,
00031000
00000000
00000100
00000000
00000001
00000001
00000001
00000000
,
00000010
00000010
00001000
00001000
,
00010000
00000000
00100000
00000000
10000000
00010000
10000000
00000000
,
00100000
00100000
00100000
01000000
,
10000000
00000000
01000000
00000000
00010000
00010000
00010000
00000000
,
00001000
00000000
00000100
00000000
00000001
00001000
00000001
00000000
,
00000010
00000100
00010000
00001000
,
00011000
00011000
00000000
00002000
,
00013000
00010000
01000000
00010000
,
00001000
00000100
00001000
00000000
,
00002000
00000000
00013000
00100000
,
00010000
00001000
00000010
00001000
,
00020000
00031000
01000000
00001000
,
00010000
00000100
00010000
00000000
,
00002000
00000000
00003010
00001000
,
00010000
00100000
00010000
00001000
,
01000000
01000000
01000000
01000000
,
00020000
00130000
00110000
00101000
,
00010000
00010000
00000010
00000100
,
00000010
00000100
00000001
00000001
,
00000000
00001000
00000100
00000100
,
00010000
00001000
01000000
01000000
,
00000000
10000000
01000000
00010000
,
00011000
00000020
00000031
00000100
,
00001000
00010000
01000000
10000000
,
00000000
20000000
00000000
30100000
,
00010000
00001000
00000010
00000001
,
00000001
00000001
00000001
00000100
,
00001000
00010000
01000000
10000000
,
00000000
20000000
00000000
31000000
,
00010000
00001000
00000010
00000001
,
00000100
00002000
00023000
00032000
,
00013000
01000000
10000000
01000000
,
00000000
00020000
00032000
00023000
,
00031000
00000100
00000001
00000010
,
00001000
00020000
00032000
00023000
,
00031000
00000100
00000001
00000010
,
00000000
00002000
00023000
00032000
,
01003000
10000000
00100000
00100000
,
00001000
00011000
00000000
00000000
;

//---------------dance-double - ----------------
#NOTES:
     dance-double:
     :
     Easy:
     2:
     0.152032,0.180022,0.009946,0.119352,0.000000,107.000000,106.000000,1.000000,12.000000,0.000000,0.000000,0.152032,0.180022,0.009946,0.119352,0.000000,107.000000,106.000000,1.000000,12.000000,0.000000,0.000000:
// measure 0
00000000
00000000
00000000
00000000
,  // measure 1
00000000
00000000
00000000
00000000
,  // measure 2
00001000
00001000
00001000
00000000
,  // measure 3
00200000
00000000
02300000
00000000
,  // measure 4
13000000
10000000
10000000
00000000
,  // measure 5
00200000
00000000
01300000
00000000
,  // measure 6
00001000
00010000
00001000
00000000
,  // measure 7
00010000
00000000
00000010
00000000
,  // measure 8
00000100
00000001
00000100
00000000
,  // measure 9
00000010
00000000
00010000
00000000
,  // measure 10
00001000
00010000
00001000
00000000
,  // measure 11
01000000
00000000
00100000
00000000
,  // measure 12
10000000
01000000
10000000
00000000
,  // measure 13
00010000
00010000
00000000
00100000
,  // measure 14
00000000
00001000
00001000
00001000
,  // measure 15
00020000
00000000
00030100
00000000
,  // measure 16
00002000
00000000
00003010
00000000
,  // measure 17
00000001
00000010
00000001
00000010
,  // measure 18
00000000
00000100
00001000
00000100
,  // measure 19
00010000
00000000
00001000
00000000
,  // measure 20
00200000
00000000
00310000
00000000
,  // measure 21
10000000
10000000
00100000
00100000
,  // measure 22
01000000
00000000
00000000
00000000
,  // measure 23
00001000
00000000
00000000
00000000
,  // measure 24
00010000
00000000
00000100
00000000
,  // measure 25
00000100
00000000
00000000
00000000
,  // measure 26
00010000
00000000
00000000
00000000
,  // measure 27
00001000
00000000
00000000
00000000
,  // measure 28
00000000
01000000
01000000
01000000
,  // measure 29
01000000
00000000
00010000
00100000
,  // measure 30
00010000
00100000
00000000
00100000
,  // measure 31
00000000
00002000
00000000
00013000
,  // measure 32
00000010
00010000
00000000
00000100
,  // measure 33
00000000
00000000
00000001
00001000
,  // measure 34
00000001
00000100
00000000
00001000
,  // measure 35
00000000
00020000
00000000
01030000
,  // measure 36
10000000
00100000
00000000
00100000
,  // measure 37
00000000
01000000
00100000
01000000
,  // measure 38
00000000
00002000
00000000
00013000
,  // measure 39
00000000
00000010
00000100
00000010
,  // measure 40
00000000
00020000
00000000
00031000
,  // measure 41
00000000
01000000
00100000
01000000
,  // measure 42
00000000
00002000
00000000
00013000
,  // measure 43
00000000
00000100
00000010
00000100
,  // measure 44
00000000
00020000
00000000
00031000
,  // measure 45
00010000
00011000
00000000
00000000
;
