#TITLE:Euphorium;
#SUBTITLE:;
#ARTIST:DM Ashura;
#TITLETRANSLIT:;
#SUBTITLETRANSLIT:;
#ARTISTTRANSLIT:;
#GENRE:Trance;
#CREDIT:;
#BANNER:euphorium-bn.png;
#BACKGROUND:euphorium-bg.png;
#LYRICSPATH:;
#CDTITLE:;
#MUSIC:Euphorium.ogg;
#OFFSET:0.010000;
#SAMPLESTART:23.700001;
#SAMPLELENGTH:12.000000;
#SELECTABLE:YES;
#BPMS:0.000000=157.990005
;
#STOPS:192.000000=1.140000
;
#BGCHANGES:;
#KEYSOUNDS:;
#ATTACKS:;

//---------------dance-single - ----------------
#NOTES:
     dance-single:
     :
     Hard:
     8:
     0.506958,0.567841,0.222398,0.164381,0.174051,367.000000,344.000000,23.000000,17.000000,0.000000,0.000000,0.506958,0.567841,0.222398,0.164381,0.174051,367.000000,344.000000,23.000000,17.000000,0.000000,0.000000:
// measure 0
0000
0000
0000
0000
,  // measure 1
0000
0000
0000
0000
,  // measure 2
0000
0000
0000
0000
,  // measure 3
0000
0000
0000
0000
,  // measure 4
1000
0000
0001
0010
0000
0101
0000
0010
,  // measure 5
0000
1000
0100
1000
0001
1000
0001
0000
,  // measure 6
0010
0000
0100
0001
0000
1100
0000
0010
,  // measure 7
0000
0100
0001
0100
0010
0100
0010
1000
,  // measure 8
1001
0000
1000
0100
0000
1010
0000
0001
,  // measure 9
0010
0001
0100
0010
1000
0100
1000
0000
,  // measure 10
0100
0000
0001
0010
0000
0110
0000
0010
,  // measure 11
0001
0100
1000
0100
0010
0100
0001
0000
,  // measure 12
1000
0000
0010
0100
0000
1001
0000
0010
,  // measure 13
1000
0100
0010
0001
0010
0100
1000
0000
,  // measure 14
0001
0000
1000
0100
0000
0011
0000
0100
,  // measure 15
0001
1000
0010
0100
0010
1000
0001
0100
,  // measure 16
2000
0000
0000
0000
3000
0100
0001
0010
,  // measure 17
0100
0000
0000
1000
0000
0000
0010
0000
0001
0000
0000
0010
0000
0000
1000
0000
,  // measure 18
0001
0000
0001
0100
0000
0000
0000
0000
,  // measure 19
0020
0230
0302
2003
0000
3100
0010
1000
,  // measure 20
0010
0000
0000
0000
0000
0100
0001
0100
,  // measure 21
0010
0000
0000
1000
0000
0000
0001
0000
0100
0000
0000
0001
0000
0000
0010
0000
,  // measure 22
0001
0000
0100
0100
0000
0000
0010
1000
,  // measure 23
0200
0320
0032
2003
0000
3100
1000
0001
,  // measure 24
0010
0000
0000
0000
0000
0010
0001
0100
,  // measure 25
0010
0000
0000
0100
0000
0000
0001
0000
0100
0000
0000
1000
0000
0000
0100
0000
,  // measure 26
0010
0000
1000
1000
0000
0000
0011
0000
,  // measure 27
0110
0000
0000
0000
0000
1000
0100
0001
,  // measure 28
0200
2300
3020
0230
0000
0310
1000
0010
,  // measure 29
0001
0000
0000
0010
0000
0000
1000
0000
0001
0000
0000
0100
0000
0000
0010
0000
,  // measure 30
0001
0000
0000
1010
0000
0000
0011
0000
,  // measure 31
1100
0000
0000
0000
0000
0000
0001
1000
0001
0000
0010
0000
0100
0000
1000
0000
,  // measure 32
1000
0001
0010
0100
1000
0100
0010
0100
,  // measure 33
1000
0010
0100
0001
0010
0100
1000
0000
,  // measure 34
0001
0010
0001
0100
0010
1000
0100
0010
,  // measure 35
0001
0100
0010
1000
0100
0001
0100
0000
,  // measure 36
1000
0100
1000
0100
0001
0010
0001
0010
,  // measure 37
0001
0100
0010
1000
0001
1000
0001
0000
,  // measure 38
0001
0100
0001
0100
1000
0010
1000
0010
,  // measure 39
0100
0010
1000
0100
0010
0100
1000
0001
,  // measure 40
0010
0000
0000
0000
0000
0000
0000
0000
0000
0000
0000
0000
0001
0100
0001
0100
,  // measure 41
0001
0000
0000
0000
0000
0000
0000
0000
0000
0000
0000
0000
0000
0000
0000
0010
,  // measure 42
0100
0000
0000
0000
0000
0000
0000
0000
0000
0000
1000
0100
1000
0100
1000
0100
,  // measure 43
1000
0000
0001
0010
0000
0001
0000
0000
,  // measure 44
0101
0000
0000
0000
0000
0000
0000
0000
0000
0000
0000
0000
0010
0100
0010
0100
,  // measure 45
0010
0000
0000
0000
0000
0000
0000
0000
0000
0000
0001
1000
0001
1000
0001
1000
,  // measure 46
0001
0000
0000
1001
0000
0000
0101
0000
,  // measure 47
0110
0000
0000
0000
0000
0000
0010
0200
0000
0000
0000
0000
0000
0000
0000
0000
,  // measure 48
2000
3300
0000
0000
0101
0000
0000
0000
0000
0000
0001
1000
0001
0000
1000
0000
,  // measure 49
0010
0000
1000
0000
0010
0000
0000
0100
0000
0000
0010
0000
1000
0000
0000
0001
,  // measure 50
0000
1000
0001
0000
0100
0001
0000
0000
,  // measure 51
0000
0000
1000
0010
1000
0000
0000
0010
0000
0000
1000
0000
0000
0000
0001
0000
,  // measure 52
0010
0000
0100
0000
1000
0000
0000
0000
0000
0000
0010
0100
0010
0000
0100
0000
,  // measure 53
0001
0000
1000
0000
0100
0000
0000
1000
0000
0000
0010
0000
0100
0000
0000
0001
,  // measure 54
0000
0010
0001
0000
0100
1000
0000
0000
,  // measure 55
0100
0001
0000
0100
0010
0100
0010
1000
,  // measure 56
0100
0000
0010
0000
0001
0000
0000
0000
0000
0000
0010
1000
0001
0000
0100
0000
,  // measure 57
0010
0000
0100
0000
0001
0000
0000
0010
0000
0000
0001
0000
0100
0000
0000
1000
,  // measure 58
0000
0100
0001
0000
1000
0010
0000
0000
,  // measure 59
0101
0000
1010
0000
0000
0000
0000
0010
,  // measure 60
1000
0000
0100
0000
0010
0000
0000
0000
0000
0000
0100
1000
0100
0000
1000
0000
,  // measure 61
0001
0000
0100
0000
0010
0000
0000
0100
0000
0000
0001
0000
0010
0000
0000
0001
,  // measure 62
0000
1000
0100
0000
0000
0110
0000
0000
,  // measure 63
0011
0000
0000
0000
1001
0000
0000
0000
0000
0000
0010
0001
0010
0000
0000
0000
,  // measure 64
0000
0220
0000
0000
,  // measure 65
0000
0330
0000
0000
;

//---------------dance-single - ----------------
#NOTES:
     dance-single:
     :
     Medium:
     5:
     0.348102,0.441654,0.116034,0.077356,0.019339,252.000000,240.000000,12.000000,8.000000,0.000000,0.000000,0.348102,0.441654,0.116034,0.077356,0.019339,252.000000,240.000000,12.000000,8.000000,0.000000,0.000000:
0000
0000
0000
0000
,
0000
0000
0000
0000
,
0000
0000
0000
0000
,
0000
0000
0000
0000
,
0001
0100
1000
0100
,
0001
0100
1000
1000
,
1000
0100
0001
0100
,
1000
0100
0001
0001
,
0010
0000
0100
0010
0000
1000
0000
0010
,
0000
0100
0001
0000
0100
0000
0010
0000
,
1000
0000
0001
0010
0000
0100
0000
1000
,
0000
0100
0010
0000
0001
0000
1000
0000
,
0010
0000
1000
0100
0000
1000
0000
0010
,
0000
0100
0010
0000
0100
0000
0001
0000
,
1000
0000
0001
0010
0000
1000
0000
0010
,
0000
0001
1000
0000
0010
0000
0100
0000
,
0110
0000
0000
0000
0000
0010
1000
0010
,
0100
0001
0100
1000
,
0001
0000
0100
0001
0000
0000
0000
0000
,
0010
0000
0010
0100
0000
0100
0010
0000
,
1001
0000
0000
0000
0000
0100
0001
0100
,
0010
0001
0100
0010
,
1000
0000
0100
0010
0000
0000
0010
0100
,
0000
0000
0000
0000
0000
0010
0001
1000
,
0010
0000
0000
0000
0000
0100
1000
0000
,
0100
0010
0100
0001
,
0100
0000
1000
0010
0000
0000
0110
0000
,
0101
0000
0000
0000
0000
0010
1000
0010
,
0100
0000
0000
0000
0000
0010
0001
0000
,
0010
1000
0010
0001
,
1000
0000
0000
0110
0000
0000
1100
0000
,
0110
0000
0000
0001
0000
1000
0100
1000
,
0200
0000
0000
0000
,
0000
0000
0302
0000
,
0023
0000
0000
0230
,
0320
0000
0000
0000
0000
0000
0031
0100
,
0010
0000
1000
0000
0010
0000
0100
0010
,
0001
0000
0010
0000
0100
0000
1000
0001
,
0010
0000
0001
0000
1000
0000
0100
1000
,
0010
0100
0010
1000
,
1001
0000
0000
0000
0000
0000
0001
0100
,
0001
0000
0000
0000
0000
0000
0000
0000
0000
0000
0000
0000
0000
0000
0000
0010
,
1000
0000
0000
0000
0000
1000
0100
1000
,
0100
0000
1000
0001
0000
0010
0000
0000
,
0001
0000
0000
0000
0000
0000
0100
0001
,
0100
0000
0000
0000
0000
0010
0100
0010
,
0100
0000
0000
0010
0000
0000
1000
0000
,
0100
0000
0000
0000
0000
0000
0000
0010
0001
0000
0000
0000
0000
0000
0000
0000
,
1001
0000
0200
0000
0000
0310
0100
0010
,
0100
0001
1000
0100
,
1000
0000
0010
0000
0100
0001
0000
0000
,
0000
0000
0100
0000
0010
0000
0000
1000
0000
0000
0001
0000
0000
0000
0010
0000
,
0001
0010
0100
0000
0000
0100
1000
0000
,
0100
0001
0100
0000
0010
0000
0100
0000
,
0001
0000
0100
0000
0010
0100
0000
0000
,
0010
1000
0000
0010
0100
0010
0100
0001
,
1000
0001
1000
0000
0000
0010
1000
0010
,
0100
0001
0010
0001
,
0100
0000
0010
0000
1000
0001
0000
0000
,
1001
0000
0110
0000
0000
0000
0000
0001
,
0010
0100
1000
0000
0000
0010
0100
0001
,
1000
0010
0100
0001
,
0010
0000
0001
0000
0000
0100
0000
0000
,
0010
0000
0000
0000
0100
0000
0000
0000
0000
0001
1000
0000
0000
0000
0000
0000
,
0000
2002
0000
0000
,
0000
3003
0000
0000
;

//---------------dance-single - ----------------
#NOTES:
     dance-single:
     :
     Easy:
     3:
     0.221017,0.315467,0.038678,0.222398,0.000000,160.000000,156.000000,4.000000,23.000000,0.000000,0.000000,0.221017,0.315467,0.038678,0.222398,0.000000,160.000000,156.000000,4.000000,23.000000,0.000000,0.000000:
0000
0000
0000
0000
,
0000
0000
0000
0000
,
0000
0000
0000
0000
,
0000
0000
0000
0000
,
1000
0000
0100
0001
,
1000
0000
0010
0010
,
0100
0000
0001
0010
,
0100
0000
0001
0001
,
2000
0000
0100
0100
,
3002
0000
2003
3200
,
0320
0000
1000
1000
,
0032
0000
2003
3200
,
0320
0000
0001
0031
,
0020
0000
0032
2003
,
3002
0000
0100
0100
,
0023
0000
1030
0100
,
0100
0000
0000
1000
,
0001
0000
0100
0000
,
0001
1000
0000
0000
,
0100
0000
0000
0010
,
0010
0000
0000
1000
,
0100
0000
0010
0000
,
0001
0100
0000
0010
,
0100
0000
0000
1000
,
1000
0000
0000
0010
,
1000
0000
0001
0000
,
0010
0001
0000
1000
,
1000
0000
0000
0001
,
0010
0000
0000
0100
,
1000
0000
0010
0000
,
0100
0000
0001
1000
,
1000
0000
0000
0010
0000
0000
0000
0010
,
0200
0000
0000
0000
,
0000
0000
0010
0000
,
2300
0000
0000
0010
,
3020
0000
0000
1000
,
0230
0000
0000
0301
,
2000
0000
0000
3010
,
0002
0000
0000
0103
,
0200
0000
0000
0000
,
0310
0000
0000
0000
0000
0000
0001
0010
,
0001
0000
0000
0000
,
0001
0000
0000
0000
0010
0100
0010
0000
,
1000
0000
0001
0000
0000
1000
0000
0000
,
1000
0000
0000
0000
0000
0000
0100
0001
,
0100
0000
0000
0000
0000
0000
0001
1000
,
0001
0000
0000
0010
0000
0000
0100
0000
,
0010
0000
0000
0100
0000
0000
0000
0000
,
0000
0000
1001
0000
0000
1000
0000
0000
,
1000
0100
0010
0001
,
1000
0001
0010
0000
,
0000
0001
0000
0000
0000
0000
0000
0000
,
1000
0000
0010
0000
0000
0100
0000
0000
,
0010
1000
0001
0100
,
0010
0100
0001
0000
,
1000
0000
0000
0010
0000
0100
0000
0000
,
1000
0000
0001
0000
0000
0001
0000
0000
,
0001
0010
0100
0010
,
0001
1000
0100
0000
,
0011
0011
0000
0000
,
1000
0000
0100
0000
0000
0010
0000
0000
,
0010
1000
0100
1000
,
0010
0000
0100
0000
0000
0001
0000
0000
,
1000
0000
0001
0000
0000
1000
0000
0000
,
0000
0220
0000
0000
,
0000
0330
0000
0000
;

//---------------dance-single - ----------------
#NOTES:
     dance-single:
     :
     Beginner:
     1:
     0.102220,0.155316,0.009669,0.000000,0.000000,74.000000,73.000000,1.000000,0.000000,0.000000,0.000000,0.102220,0.155316,0.009669,0.000000,0.000000,74.000000,73.000000,1.000000,0.000000,0.000000,0.000000:
0000
0000
0000
0000
,
0000
0000
0000
0000
,
0000
0000
0000
0000
,
0000
0000
0000
0000
,
1000
0000
0000
0000
,
0000
0000
0001
0000
,
0001
0000
0000
0000
,
0000
0000
0100
0000
,
0100
0000
0000
0000
,
0000
0000
0010
0000
,
0100
0000
0000
0000
,
0000
0000
1000
0000
,
0100
0000
0000
0000
,
0000
0000
0001
0000
,
0100
0000
0000
0000
,
0000
0000
0000
0000
,
0010
0000
0000
0000
,
1000
0000
1000
0000
,
1000
0000
0000
0000
,
0001
0000
0000
0000
,
0010
0000
0000
0000
,
0001
0000
0001
0000
,
0001
0000
0000
0100
,
0000
0000
0000
0000
,
0100
0000
0000
0000
,
0010
0000
0010
0000
,
0010
0000
0000
0000
,
1000
0000
0000
0000
,
0100
0000
0000
0000
,
0100
0000
0100
0000
,
0100
0000
0000
0000
,
1000
0000
0001
0000
,
1000
0000
0000
0000
,
0000
0000
0010
0000
,
0001
0000
0000
0000
,
1000
0000
0000
0010
,
0010
0000
0000
0100
,
0100
0000
0000
0001
,
0001
0000
0000
0010
,
0010
0000
0000
0000
,
0000
0000
0000
0001
,
0000
0000
0000
0000
,
1000
0000
0000
0010
,
0000
0000
0000
0000
,
0100
0000
0000
0001
,
0000
0000
0000
1000
,
0000
0000
0000
0010
,
0000
0000
0100
0000
,
0000
0100
0000
0000
,
0000
0001
0000
0001
,
0000
0001
0000
0000
,
0000
1000
0000
0000
,
0000
1000
0000
0000
,
0000
0100
0000
0100
,
0000
0100
0000
0000
,
1000
0000
0000
0000
,
0000
0001
0000
0000
,
0000
1000
0000
1000
,
0000
1000
0000
0000
,
0010
0000
0000
0000
,
0000
0100
0000
0000
,
0000
0010
0000
0010
,
0000
0010
0000
0000
,
0100
0000
0000
0000
,
0000
1001
0000
0000
;
