#TITLE:Donkey Donk;
#SUBTITLE:;
#ARTIST:Ryu☆;
#TITLETRANSLIT:;
#SUBTITLETRANSLIT:;
#ARTISTTRANSLIT:;
#GENRE:Techno;
#CREDIT:;
#BANNER:donkeydonk-bn.png;
#BACKGROUND:donkeydonk-bg.png;
#LYRICSPATH:;
#CDTITLE:;
#MUSIC:Donkey Donk.ogg;
#OFFSET:-0.020000;
#SAMPLESTART:38.709999;
#SAMPLELENGTH:12.000000;
#SELECTABLE:YES;
#BPMS:0.000000=155.000000
;
#STOPS:
;
#BGCHANGES:;
#KEYSOUNDS:;
#ATTACKS:;

//---------------dance-single - ----------------
#NOTES:
     dance-single:
     :
     Hard:
     7:
     0.510868,0.569457,0.573812,0.040987,0.010247,349.000000,293.000000,56.000000,4.000000,0.000000,0.000000,0.510868,0.569457,0.573812,0.040987,0.010247,349.000000,293.000000,56.000000,4.000000,0.000000,0.000000:
0000
0000
0000
0000
,
0000
0000
0000
0000
,
0000
0000
0000
0000
,
0000
0000
0000
0000
,
1010
1100
1010
0101
,
0100
0001
0001
0000
0100
0010
0010
0000
,
0100
0010
0100
0001
0100
0000
1001
0000
,
0010
1000
1000
0000
0010
0100
0100
0000
,
0011
0110
1100
1001
,
0001
0010
0001
1000
0100
1000
0001
0000
,
0100
0001
0100
0010
0100
0000
1001
0000
,
0010
0001
0010
1000
0100
1000
0001
0000
,
1000
0010
1000
0001
1000
0000
0110
0000
,
1000
0001
1000
0100
0010
0001
1000
0000
,
0010
1000
0010
0100
0000
0001
1000
0010
,
1000
0100
1000
0001
0100
0001
1000
0000
,
0110
0101
1010
1100
,
1000
0000
0011
0000
,
0001
0000
1100
0010
,
0101
0000
1010
0000
,
0100
0000
0011
0100
,
1010
0010
1000
1000
,
0100
0010
0001
1000
,
0001
0100
0001
0001
,
0200
0000
0310
0010
,
1001
0000
0010
0100
0001
0010
0001
1000
,
0000
1000
0001
0000
1000
0001
1000
0001
,
1000
0000
0100
0010
0001
1000
0010
0000
,
0100
0001
1000
1000
,
0101
0000
0100
0001
1000
0010
0100
0010
,
0000
0010
1000
0001
1000
0100
1000
0100
,
0010
0000
0100
1000
0010
0100
0001
0000
,
0101
1010
0101
1010
,
0010
1000
1010
0000
1000
0001
1001
0000
,
0100
0100
0010
0010
,
0001
0100
0101
0000
1000
0100
1100
0000
,
0010
0001
1000
0100
,
1000
0100
0010
0010
0001
0100
0101
0000
,
0010
0010
1000
1000
,
0010
1000
0100
0100
1000
0010
0110
0000
,
1000
0001
1000
0001
,
0100
0001
0100
0001
,
0010
1000
0010
0100
,
1001
0110
0101
1100
,
2000
0000
0000
0000
,
3001
0000
0000
0000
0000
0000
0000
1010
,
0000
0000
0000
0000
0010
0100
0010
0100
0010
0000
0000
0000
1001
0000
0000
0000
,
1100
0000
0010
0001
1000
0100
0010
0000
,
0100
1000
0010
0010
,
0110
0000
0100
0001
1000
0010
1000
0100
,
0000
0100
0010
0001
0010
0001
1000
0100
,
0010
0000
0100
1000
0010
1000
0100
0010
,
0001
1000
0101
1010
,
0100
1000
0100
0010
0100
1000
0100
0010
,
0100
0100
0011
1001
,
0100
0001
0100
0010
0100
0001
0100
0010
,
1010
0101
1100
0011
,
1000
0100
1000
0010
1000
0100
1000
0010
,
0100
0100
0101
1001
,
0010
0100
0110
0000
0001
0000
1000
0000
,
0010
1100
1001
0101
,
0022
0000
0000
0033
;

//---------------dance-single - ----------------
#NOTES:
     dance-single:
     :
     Challenge:
     8:
     0.604551,0.569457,0.563565,0.102466,0.092220,413.000000,358.000000,55.000000,10.000000,0.000000,0.000000,0.604551,0.569457,0.563565,0.102466,0.092220,413.000000,358.000000,55.000000,10.000000,0.000000,0.000000:
0000
0000
0000
0000
,
0000
0000
0000
0000
,
0000
0000
0000
0000
,
0000
0000
0000
0000
,
1200
0310
1200
0301
,
0100
1000
0010
0010
0100
0001
1000
1000
,
0001
0010
0100
1000
0100
0000
0101
0000
,
0010
1000
0100
0100
0010
0001
1000
1000
,
1020
0031
0201
0310
,
1000
0010
0100
0010
0001
0010
0100
0010
,
1000
0100
0001
0100
1000
0000
0011
0000
,
0100
0001
1000
0001
0100
0001
0010
0001
,
1000
0010
0001
0010
1000
0000
0110
0000
,
0101
0001
1000
0010
1000
0100
0010
0001
,
0100
0001
0010
0001
0000
0100
0001
1000
,
0010
0100
1000
0100
0010
0001
0100
0001
,
1001
1100
1001
0101
,
1000
0000
0002
0003
,
1010
0000
2000
3010
,
0011
0000
0002
0003
,
1100
0000
2000
3100
,
0101
0000
0100
0001
1000
0010
1000
0100
,
0000
0010
0100
1000
0100
0010
0001
1000
,
0100
1000
0010
0001
0010
1000
0100
0010
,
0100
1000
0100
0010
0011
0000
1001
0000
,
0100
0000
0000
0000
0100
0001
0000
0100
0000
0000
0010
0000
0100
0000
0001
0000
,
1000
0100
0100
1000
0010
0100
0001
1000
,
0010
0000
0000
0000
0010
1000
0000
0010
0000
0000
1000
0000
0010
0000
0100
0000
,
0000
0001
1000
0010
1000
0100
0001
0000
,
0100
0000
0000
0000
0100
1000
0000
0100
0000
0000
0010
0000
0100
0000
1000
0000
,
0100
0001
0001
0100
1000
0010
0010
0100
,
0010
0000
0000
0000
0001
1000
0000
0010
0000
0000
1000
0000
0100
0000
0010
0000
,
0001
1100
0101
1001
,
0100
1000
0100
1000
0100
0001
0100
0001
,
1000
0010
1000
0010
1000
0000
0101
0000
,
0010
0001
0010
0001
0010
1000
0010
1000
,
1010
0101
1010
0101
,
1000
0100
0010
0001
0010
0100
1000
0001
,
0100
1000
0100
0001
0000
0001
1000
0001
,
0010
0001
1000
0100
0010
0100
1000
0001
,
0101
1100
1010
0110
,
1100
0101
0011
1001
,
1100
0101
1100
1001
,
0011
0011
1100
1100
,
0010
0000
0010
0000
0010
0000
0001
1000
0000
0001
1000
0000
0020
0000
0000
0000
,
0130
0000
0000
0000
0000
0000
0000
1100
,
0000
0000
0000
0000
0001
0010
0001
0010
0001
0000
0000
0000
1100
0000
0000
0000
,
0010
0000
0000
0000
0010
1000
0000
0001
0000
0000
1000
0000
0010
0000
1000
0000
,
0100
0010
0001
1000
1010
0000
0101
0000
,
0001
0000
0000
0000
0001
0100
0000
0001
0000
0000
0010
0000
0001
0000
0100
0000
,
0010
0100
0001
0010
0100
1000
0010
0100
,
0110
0000
0000
0000
0001
1000
0000
0001
0000
0000
0100
0000
0010
0000
0100
0000
,
0001
1000
0001
1000
0001
1000
0001
1000
,
0010
0001
0010
0100
0010
1000
0010
0100
,
0010
0100
0100
0001
1001
0000
1010
0000
,
1000
0010
1000
0100
1000
0001
1000
0010
,
0001
0010
0001
0010
1000
0010
1000
0010
,
0100
0001
0100
0010
0100
1000
0100
0010
,
0100
0001
0001
1000
1010
0000
0011
0000
,
0001
0100
0001
1000
0001
0010
0001
1000
,
1001
1001
0110
0110
,
2000
0000
0000
3000
;

//---------------dance-single - ----------------
#NOTES:
     dance-single:
     :
     Beginner:
     2:
     0.131742,0.281270,0.020493,0.000000,0.000000,90.000000,88.000000,2.000000,0.000000,0.000000,0.000000,0.131742,0.281270,0.020493,0.000000,0.000000,90.000000,88.000000,2.000000,0.000000,0.000000,0.000000:
0000
0000
0000
0000
,
0000
0000
0000
0000
,
0000
0000
0000
0000
,
0000
0000
0000
0000
,
0000
0000
0000
0000
,
0001
0000
0000
0000
,
0010
0010
0000
0000
,
0100
0000
0000
0000
,
0001
0001
0001
0001
,
0001
0000
0000
0000
,
1000
0000
0010
0000
,
1000
0000
0000
0000
,
0100
0000
0010
0010
,
0010
0000
0000
0000
,
0001
0000
0000
0000
,
1000
0000
0000
0000
,
0010
0010
0010
0010
,
0010
0000
0000
0000
,
0000
0000
0000
0000
,
0001
0000
0000
0000
,
0000
0000
0000
0000
,
1000
0000
0000
0000
,
0000
0000
0000
0000
,
0100
0000
0000
0000
,
0000
0000
0110
0000
,
0010
0000
0000
0000
,
0000
0000
0001
0001
,
0001
0000
0000
0000
,
0000
0000
1000
0000
,
0010
0000
0000
0000
,
0000
0000
0100
0100
,
0100
0000
0000
0000
,
1000
1000
1000
1000
,
1000
0000
0000
0000
,
0010
0000
0001
0000
,
0001
0000
0000
0000
,
0010
0000
0000
0000
,
1000
0000
0000
0000
,
0100
0000
0000
0000
,
0010
0000
0000
0000
,
0100
0100
0100
0100
,
0100
0100
0100
0100
,
0100
0000
1000
0000
,
0001
0000
0000
0000
,
0000
0000
0000
0000
,
1001
0000
0000
0000
,
0000
0000
0010
0010
,
0010
0000
0000
0000
,
0000
0000
0100
0100
,
0100
0000
0000
0000
,
0000
0000
0001
0001
,
0001
0000
0000
0000
,
0000
0000
0010
0010
,
0010
0000
0000
0000
,
1000
0000
0001
0000
,
1000
0000
0000
0000
,
1000
1000
1000
1000
,
1000
0000
0000
0000
,
0010
0000
0001
0000
,
0100
0000
0000
0000
,
0001
0001
0001
0001
,
0001
0000
0000
0000
;

//---------------dance-single - ----------------
#NOTES:
     dance-single:
     :
     Easy:
     4:
     0.308863,0.375027,0.163946,0.153700,0.000000,211.000000,195.000000,16.000000,15.000000,0.000000,0.000000,0.308863,0.375027,0.163946,0.153700,0.000000,211.000000,195.000000,16.000000,15.000000,0.000000,0.000000:
0000
0000
0000
0000
,
0000
0000
0000
0000
,
0000
0000
0000
0000
,
0000
0000
0000
0000
,
0010
0010
0010
0010
,
0001
0100
1000
1000
,
0100
0001
0010
0001
,
1000
0010
0100
0001
,
1000
1000
1000
1000
,
1001
0000
0010
0000
,
0100
0010
0100
0010
,
1000
0000
0101
0000
,
0010
0100
1000
1000
,
0001
0000
1001
0000
,
0100
0001
0000
1000
,
0010
0100
0010
0100
,
0001
0001
1000
1000
,
0020
0000
2030
0000
,
3200
0000
0320
0032
,
0203
0000
0320
0000
,
2030
0000
3200
2300
,
3002
0000
0203
0000
,
0302
0000
0023
0032
,
1003
0100
0010
0001
,
0000
0000
0010
0010
,
0100
1000
0100
1000
,
0010
0010
0100
0100
,
0001
1000
0001
1000
,
0010
0100
0001
1000
,
0100
0001
0100
0001
,
0100
0100
1000
1000
,
0010
0100
0001
1000
,
1001
0010
1001
0010
,
0100
0000
0001
0000
,
0100
0001
1000
0010
,
1000
0000
0100
0000
,
1100
1100
1100
1100
,
1000
0000
0001
0000
,
0100
0001
1000
0010
,
0100
0000
0010
0000
,
1010
0010
0010
0010
,
1100
0100
0100
0100
,
1001
0010
1001
0010
,
0010
0100
0010
0100
,
0000
0000
0000
0000
,
0001
0000
0000
0000
0000
0000
0000
1000
,
0000
0000
0010
0010
,
0100
0001
0100
0010
,
1000
0100
1000
1000
,
0100
0010
0100
1000
,
0001
0100
0001
0001
,
0010
0100
1000
0010
,
0100
0001
1001
1001
,
0100
0001
0100
0001
,
1000
0010
1000
1000
,
0100
1000
0100
1000
,
0001
0001
0001
0001
,
0100
0010
1000
0001
,
0010
0100
1000
1000
,
0010
0100
0001
1000
,
0010
0010
0010
0010
,
1001
0000
0000
0000
;

//---------------dance-single - ----------------
#NOTES:
     dance-single:
     :
     Medium:
     6:
     0.417185,0.569457,0.614798,0.030740,0.000000,285.000000,225.000000,60.000000,3.000000,0.000000,0.000000,0.417185,0.569457,0.614798,0.030740,0.000000,285.000000,225.000000,60.000000,3.000000,0.000000,0.000000:
0000
0000
0000
0000
,
0000
0000
0000
0000
,
0000
0000
0000
0000
,
0000
0000
0000
0000
,
0001
0001
0001
0001
,
0100
0010
0100
0000
0100
0010
0100
0000
,
0001
1000
0010
0010
,
1000
0100
1000
0010
,
1100
1010
1010
0110
,
0100
0000
0001
0000
1000
0001
0100
0000
,
0010
1000
1100
1001
,
0010
0000
0001
0000
0100
0001
1000
0000
,
1001
0101
1001
1001
,
0010
0000
0100
0000
1000
0100
0010
0000
,
0001
0000
1000
0010
0000
0000
0010
1000
,
0001
0100
0001
0010
,
0011
1001
1001
1100
,
1000
0000
0010
0000
,
0001
0000
0010
1000
,
0100
0000
1000
0000
,
0001
0000
0100
0010
,
0100
0000
0001
0000
,
1000
0000
0010
0001
,
0010
1000
0001
0100
,
0020
0000
1000
1030
,
0100
0000
1000
0000
0010
0000
0100
0001
,
0100
0010
0001
0001
,
0010
0000
1000
0000
0100
1000
0010
0000
,
0100
0100
0110
0101
,
0001
0000
1000
0000
0010
0000
1000
0100
,
1000
0100
0010
0001
,
0100
0000
0001
0000
0010
0100
1000
0000
,
1010
0101
1010
1001
,
1000
1000
0001
0001
,
0101
1100
0101
0101
,
1000
1000
0001
0001
,
0011
0011
1100
1100
,
0010
0100
0001
1000
,
1010
0101
1000
0001
,
0100
0100
0010
0010
,
1010
1010
1100
1100
,
1001
1001
0101
0101
,
0011
0011
1100
1100
,
0110
0110
0110
0110
,
0000
0000
0000
0000
,
1000
0000
0000
0000
0000
0000
0000
0001
,
0000
0000
0100
0001
1000
0000
0010
0000
,
0100
0000
1000
0000
0100
0000
0010
0001
,
0100
0010
1001
1001
,
0100
1000
0010
0100
,
0001
0000
1000
0001
1000
0000
0110
0000
,
1000
0001
0010
0100
,
0011
0011
1100
1100
,
0010
0100
0010
0100
,
1000
1000
1001
1001
,
0100
0001
0100
0001
,
1000
1000
1010
1010
,
0100
0010
0100
0010
,
0001
0010
0011
0011
,
0100
1000
0100
1000
,
0010
0010
0010
0010
,
0220
0000
0000
0330
;

//---------------dance-double - ----------------
#NOTES:
     dance-double:
     :
     Challenge:
     9:
     0.606015,0.601093,0.666031,0.256166,0.215179,414.000000,349.000000,65.000000,25.000000,0.000000,0.000000,0.606015,0.601093,0.666031,0.256166,0.215179,414.000000,349.000000,65.000000,25.000000,0.000000,0.000000:
00000000
00000000
00000000
00000000
,
00000000
00000000
00000000
00000000
,
00000000
00000000
00000000
00000000
,
00000000
00000000
00000000
00000000
,
11000000
11000000
00110000
00110000
,
10000000
01000000
00100000
01000000
10000000
01000000
00010000
00001000
,
00000100
00000001
00000100
00000010
00000110
00000000
00000101
00000000
,
00000001
00000010
00000100
00000010
00001000
00000010
00000100
00000010
,
00000011
00000011
00001100
00001100
,
00000001
00000100
00001000
00010000
00001000
00010000
01000000
10000000
,
00010000
01000000
00100000
10000000
11000000
00000000
00110000
00000000
,
10000000
01000000
00010000
00001000
00010000
00001000
00000100
00000001
,
00001000
00000100
00000010
00000001
00000101
00000000
00001010
00000000
,
00000001
00000010
00001000
00010000
00001000
00010000
00100000
10000000
,
01000000
00100000
00010000
10000000
00000000
10000000
00010000
00000000
,
01000000
00100000
00010000
00001000
00000100
00000001
00000010
00000100
,
00001100
00010100
00011000
01001000
,
02010000
00000000
03200000
00000000
,
00320000
00000000
00032000
00003200
,
00000302
00000000
00000023
00000000
,
00002030
00000000
00010000
00013000
,
00011000
00000000
00001000
00100000
01000000
10000000
00010000
10000000
,
00000000
00100000
01000000
00010000
00100000
01000000
00100000
01000000
,
10000000
00000000
00010000
00100000
00010000
10000000
01000000
00100000
,
00020000
00000000
10000000
10030000
,
10010000
00000000
00000000
00000000
10000000
01000000
00000000
10000000
00000000
00100000
01000000
00000000
00010000
00000000
20000000
00000000
,
00000000
31000000
00010000
00001000
00000100
00000001
00000100
00000001
,
00000101
00000000
00000000
00000000
00001000
00000010
00000000
00000100
00000000
00000001
00000010
00000000
00000100
00000000
00002000
00000000
,
00000000
00003100
00000001
00000100
00001100
00000000
00001001
00000000
,
00000110
00000000
00000000
00000000
00000100
00000001
00000000
00000010
00000000
00000100
00001000
00000000
00000010
00000000
00000200
00000000
,
00000000
00000301
00000010
00001000
00010000
00100000
10000000
01000000
,
01100000
00000000
00000000
00000000
00100000
00010000
00000000
10000000
00000000
00100000
01000000
00000000
00010000
00000000
10000000
00000000
,
11000000
00110000
01010000
10100000
,
10000000
01000000
10000000
01000000
00010000
00001000
00010000
00001000
,
00000100
00000001
00000100
00000001
00000101
00000000
00001010
00000000
,
00000001
00000100
00000001
00000100
00001000
00010000
00001000
00010000
,
00011000
00011000
01010000
01010000
,
10000000
00100000
10000000
00100000
00010000
00001000
00010000
00001000
,
00000010
00000001
00000010
00000001
00000000
00000001
00001000
00000000
,
00000001
00000010
00000001
00000010
00001000
00010000
00001000
00010000
,
00011000
00011000
00110000
00110000
,
10100000
10100000
11000000
11000000
,
01010000
01010000
00011000
00011000
,
00001100
00000101
00000011
00001010
,
00011000
00000000
00000000
00000000
,
11000000
00000000
00000000
00000000
00000000
00000000
00000000
00001000
,
00000000
00000000
00000000
00000000
00010000
00001000
00010000
00001000
00010000
00000000
00000000
00000000
00000110
00000000
00000000
00000000
,
00001001
00000000
00000000
00000000
00000010
00001000
00000000
00000100
00000000
00000010
00000001
00000010
00000001
00000000
00000200
00000000
,
00000000
00000310
00000100
00001000
00011000
00000000
01010000
00000000
,
10010000
00000000
00000000
00000000
00100000
10000000
00000000
01000000
00000000
00100000
00010000
00100000
00010000
00000000
02000000
00000000
,
00000000
03100000
00010000
00001000
00000100
00000001
00000010
00000100
,
00001100
00000000
00000000
00000000
00000010
00000100
00000000
00000001
00000000
00001000
00000010
00001000
00000010
00000000
00000200
00000000
,
00000001
00001000
00000001
00000301
,
00001001
00000000
00000000
00000000
00000001
00000100
00000000
00000010
00000000
00001000
00000100
00001000
00000100
00000000
00000020
00000000
,
00000000
00000031
00000100
00001000
00020000
01000000
02030000
10000000
,
13000000
00000000
00000000
00000000
00010000
01000000
00000000
00100000
00000000
10000000
01000000
10000000
01000000
00000000
00200000
00000000
,
00000000
00310000
01000000
00100000
00020000
00000000
00032000
00000000
,
00003010
00000000
00000000
00000000
00000001
00001000
00000000
00000010
00000000
00000100
00000010
00000100
00000010
00000000
00002000
00000000
,
00000000
00003001
00000100
00001000
00020000
01000000
02030000
10000000
,
13000000
00000000
00000000
00000000
00010000
10000000
00000000
01000000
00000000
00100000
01000000
00100000
01000000
00000000
10000000
00000000
,
10010000
01010000
00101000
00011000
,
00000200
00000000
00000000
00000300
;

//---------------dance-double - ----------------
#NOTES:
     dance-double:
     :
     Easy:
     4:
     0.294225,0.316365,0.020493,0.194686,0.000000,201.000000,199.000000,2.000000,19.000000,0.000000,0.000000,0.294225,0.316365,0.020493,0.194686,0.000000,201.000000,199.000000,2.000000,19.000000,0.000000,0.000000:
00000000
00000000
00000000
00000000
,
00000000
00000000
00000000
00000000
,
00000000
00000000
00000000
00000000
,
00000000
00000000
00000000
00000000
,
10000000
10000000
00010000
00010000
,
01000000
00001000
01000000
00001000
,
00010000
00000010
00000100
00000100
,
00000001
00001000
00000001
00001000
,
00000010
00000010
00000100
00000100
,
00000001
00000100
00000001
00000100
,
00000010
00010000
00001000
00001000
,
00100000
00010000
00100000
00010000
,
01000000
00100000
10000000
10000000
,
00010000
01000000
00010000
01000000
,
00100000
10000000
00000000
10000000
,
00010000
01000000
00001000
00010000
,
00000100
00000100
00000010
00000010
,
00000002
00000003
00000200
00000300
,
00002000
00003000
00010000
01000000
,
20000000
30000000
00200000
00300000
,
00020000
00030000
00001000
00000010
,
00000001
00000100
00000001
00000100
,
00000000
00000010
00001000
00000010
,
00010000
00001000
00001000
00100000
,
02000000
00000000
10000000
13000000
,
00010000
01000000
00010000
10000000
,
00010000
01000000
00010000
00010000
,
00100000
00001000
00010000
00000100
,
00000000
00000100
00001000
00001000
,
00000001
00000010
00000001
00000100
,
00000001
00001000
00000001
00000001
,
00000100
00000000
00000010
00010000
,
00001000
01000000
00001000
01000000
,
00200000
00300000
00200000
00300000
,
10000000
00010000
10000000
10000000
,
00020000
00030000
00020000
00030000
,
00100000
00100000
00001000
00010000
,
00000200
00000300
00000200
00000300
,
00001000
00000010
00000000
00000100
,
00000002
00000003
00000002
00000003
,
00000001
00000001
00000100
00000100
,
00001000
00001000
00010000
00010000
,
01000000
01000000
10000000
10000000
,
00100000
01000000
00100000
01000000
,
00000000
00000000
00000000
00000000
,
00000000
00000000
00000000
00000000
00000000
00000000
00000000
00011000
,
00000000
00000000
00010000
00010000
,
00000020
00000130
00000001
00000100
,
00000000
00000001
00001000
00001000
,
00000010
00010000
00001000
01000000
,
00100000
10000000
00010000
00010000
,
02000000
03100000
10000000
01000000
,
00100000
00100000
00001000
00010000
,
00000100
00001000
00000100
00000100
,
00001000
00000010
00001000
00001000
,
00000100
00010000
00001000
01000000
,
00100000
00100000
10000000
00010000
,
01000000
00001000
00010000
00000100
,
00001000
00000010
00000100
00000100
,
00000001
00000010
00000100
00010000
,
00001000
00001000
00010000
00010000
,
00022000
00000000
00000000
00033000
;

//---------------dance-double - ----------------
#NOTES:
     dance-double:
     :
     Medium:
     6:
     0.386445,0.468784,0.153700,0.163946,0.000000,264.000000,249.000000,15.000000,16.000000,0.000000,0.000000,0.386445,0.468784,0.153700,0.163946,0.000000,264.000000,249.000000,15.000000,16.000000,0.000000,0.000000:
00000000
00000000
00000000
00000000
,
00000000
00000000
00000000
00000000
,
00000000
00000000
00000000
00000000
,
00000000
00000000
00000000
00000000
,
00000010
00000010
00000010
00000010
,
00001000
00000100
00001000
00000000
00000001
00000100
00000001
00000000
,
00000100
00001000
00020000
02030000
,
13000000
00100000
10000000
00000000
00010000
00100000
00010000
00000000
,
01000000
01000000
01000000
01000000
,
00100000
10000000
00100000
00000000
01000000
00010000
01000000
00000000
,
00100000
00010000
00002000
00003020
,
00000031
00000100
00000001
00000000
00001000
00000010
00001000
00000000
,
00000010
00000100
00000010
00000100
00000010
00000000
00000010
00000000
,
00001000
00000001
00001000
00000000
00000010
00000100
00000010
00000000
,
00000100
00001000
00010000
01000000
,
10000000
00010000
10000000
00000000
00100000
01000000
00100000
00000000
,
10000000
10000000
10000000
10000000
,
02000000
00000000
03020000
00000000
,
00032000
00000000
00003200
00000302
,
00000023
00000000
00002030
00000000
,
00023000
00000000
00130000
10000000
,
00010000
01000000
00010000
00100000
,
01000000
10000000
00010000
00010000
,
10000000
01000000
00100000
00010000
,
00200000
00000000
00301000
00010000
,
00011000
00000100
00000010
00000001
,
00001000
00000000
00000010
00000000
00000100
00000010
00000100
00000000
,
00001000
00010000
01000000
10000000
,
00020000
10030000
00100000
00100000
,
10000000
00010000
01000000
00100000
,
00010000
00000000
00001000
00000000
00010000
00001000
00010000
00000000
,
00001000
00000100
00000001
00000010
,
00000100
00000100
00000100
00000100
,
00001000
00000001
00001000
00000000
00000001
00001000
00000001
00000000
,
00000100
00001000
00020000
02030000
,
13000000
00010000
10000000
00000000
00010000
10000000
00010000
00000000
,
01010000
10010000
11000000
10010000
,
00010000
10000000
00010000
00000000
10000000
00010000
10000000
00000000
,
01000000
00000000
00010000
00000000
00000000
00001000
00000100
00000000
,
00000001
00001000
00000001
00000000
00001000
00000001
00001000
00000000
,
00000101
00001001
00001100
00001001
,
00000010
00010000
00001000
00100000
,
00110000
10010000
10100000
10010000
,
01000000
01000000
01000000
01000000
,
00000000
00000000
00000000
00000000
,
00000100
00000000
00000000
00000000
00000000
00000000
00000000
00001001
,
00000000
00000000
00000010
00000100
00000001
00000000
00000001
00000000
,
00001000
00000100
00001000
00000010
,
00000100
00000001
00000100
00000100
,
00001000
00010000
01000000
10000000
,
00100000
00000000
01000000
00000000
00010000
10000000
00010000
00000000
,
01000000
00100000
00010000
00001000
,
00000010
00000010
00000001
00000001
,
00001000
00000010
00000100
00000000
00000001
00000010
00000100
00000000
,
00001000
00000100
00010000
00010000
,
00001000
01000000
00100000
00000000
10000000
01000000
00100000
00000000
,
00010000
00010000
10000000
00010000
,
01000000
00001000
00010000
00000000
00001000
00010000
00000100
00000000
,
00001000
00000010
00000100
00000100
,
00000001
00001000
00000100
00000000
00001000
00000010
00000100
00000000
,
00001000
00010000
01000000
10000000
,
10010000
00000000
00000000
00000000
;

//---------------dance-double - ----------------
#NOTES:
     dance-double:
     :
     Hard:
     7:
     0.452316,0.506184,0.245919,0.112713,0.010247,309.000000,285.000000,24.000000,11.000000,0.000000,0.000000,0.452316,0.506184,0.245919,0.112713,0.010247,309.000000,285.000000,24.000000,11.000000,0.000000,0.000000:
// measure 0
00000000
00000000
00000000
00000000
,  // measure 1
00000000
00000000
00000000
00000000
,  // measure 2
00000000
00000000
00000000
00000000
,  // measure 3
00000000
00000000
00000000
00000000
,  // measure 4
00010000
00001000
00011000
00011000
,  // measure 5
00010000
00000100
00001000
00000100
00010000
00000000
00000100
00000000
,  // measure 6
00000010
00000001
00001000
00000001
00000010
00000000
00000010
00000000
,  // measure 7
00000001
00000100
00000010
00000100
00000001
00001000
00000001
00000000
,  // measure 8
00000100
00001000
00010000
01000000
,  // measure 9
10000000
00100000
01000000
00010000
10000000
00100000
01000000
00010000
,  // measure 10
10000000
00010000
01000000
01000000
,  // measure 11
00010000
00100000
01000000
10000000
00010000
00100000
01000000
10000000
,  // measure 12
01000000
00010000
00001000
00000000
00000100
00000000
00000001
00000000
,  // measure 13
00001000
00000010
00000100
00000001
00001000
00000010
00000100
00000001
,  // measure 14
00001000
00000100
00000010
00000100
00000000
00000100
00001000
00000000
,  // measure 15
00000001
00000100
00000010
00001000
00000001
00000100
00000010
00001000
,  // measure 16
00000001
00000100
00001000
00010000
,  // measure 17
02000000
00000000
23000000
00000000
,  // measure 18
30200000
00000000
00320000
00032000
,  // measure 19
00003020
00000000
00000032
00000000
,  // measure 20
00000203
00000000
00001300
00010000
,  // measure 21
01000000
00000000
10000000
01000000
00100000
00000000
00010000
10000000
,  // measure 22
00000000
10000000
00010000
00000000
01000000
00000000
01000000
00000000
,  // measure 23
00100000
00010000
00001000
00000010
,  // measure 24
00000002
00000000
00001000
00001003
,  // measure 25
00001001
00000000
00000010
00000100
00000001
00000000
00001000
00000100
,  // measure 26
00000000
00000010
00000001
00000000
00000100
00000000
00001000
00000000
,  // measure 27
00010000
00000000
01000000
10000000
01000000
00000000
10000000
00100000
,  // measure 28
00000000
01000000
00010000
01000000
00010000
00000000
10010000
00000000
,  // measure 29
00100000
00000000
01000000
00000000
00001000
00010000
00000100
00001000
,  // measure 30
00000000
00000010
00000100
00000000
00000001
00000000
00001000
00000000
,  // measure 31
00001100
00000000
00001000
00000010
00000100
00000000
00000001
00001000
,  // measure 32
00000010
00000010
00000010
00000010
,  // measure 33
00000100
00000001
00000100
00000000
00000010
00001000
00000010
00000000
,  // measure 34
00000100
00001000
00010000
01000000
,  // measure 35
10000000
00100000
10000000
00000000
00010000
01000000
00010000
00000000
,  // measure 36
01000000
01000000
00100000
00100000
,  // measure 37
00010000
00001000
00000100
00000000
00000001
00001000
00000001
00000000
,  // measure 38
00001000
00000000
00000100
00000000
00000000
00000100
00001000
00000000
,  // measure 39
00000001
00000100
00001000
00000000
00010000
01000000
10000000
00000000
,  // measure 40
10010000
01010000
00100000
10000000
,  // measure 41
11000000
00110000
00100000
00001000
,  // measure 42
00011000
00010100
00000100
00001000
,  // measure 43
00001010
00000101
00001010
00000101
,  // measure 44
00001001
00000000
00000000
00000000
,  // measure 45
10010000
00000000
00000000
00000000
00000000
00000000
00000000
02000000
,  // measure 46
00000000
00000000
00000000
00000000
03100000
01000000
00100000
01000000
00100000
00000000
00000000
00000000
10010000
00000000
00000000
00000000
,  // measure 47
10000000
00000000
01000000
00100000
00010000
01000000
00100000
10000000
,  // measure 48
00000000
01000000
00010000
00000000
00001000
00000000
00000100
00000000
,  // measure 49
00000001
00000000
00001000
00000010
00000100
00000001
00000010
00000100
,  // measure 50
00000000
00001000
00000001
00000000
00000100
00000000
00000100
00000000
,  // measure 51
00000001
00000000
00000100
00001000
00010000
01000000
10000000
00100000
,  // measure 52
01000000
01000000
00010000
00010000
,  // measure 53
10000000
00010000
10000000
00000000
00010000
10000000
00010000
00000000
,  // measure 54
01000000
00010000
01000000
00100000
00010000
00000000
00001000
00000000
,  // measure 55
00000010
00000001
00000010
00000000
00000001
00000100
00000001
00000000
,  // measure 56
00000101
00001100
00000010
00000010
,  // measure 57
00001000
00000100
00000010
00000000
00001000
00010000
00100000
00000000
,  // measure 58
10000000
00010000
01000000
00100000
10000000
00000000
10000000
00000000
,  // measure 59
01000000
00010000
00001000
00000000
00000100
00000001
00000100
00000000
,  // measure 60
00000101
00001001
00001100
00001001
,  // measure 61
00000020
00000000
00000000
00000030
;
