#TITLE:Don’t You Just Know It;
#SUBTITLE:;
#ARTIST:Captain Jack;
#TITLETRANSLIT:;
#SUBTITLETRANSLIT:;
#ARTISTTRANSLIT:;
#GENRE:Rock;
#CREDIT:;
#BANNER:dontyoujustknowit-bn.png;
#BACKGROUND:dontyoujustknowitnew-bg.png;
#LYRICSPATH:;
#CDTITLE:;
#MUSIC:Don't You Just Know It.ogg;
#OFFSET:-0.050000;
#SAMPLESTART:8.279996;
#SAMPLELENGTH:12.000000;
#SELECTABLE:YES;
#BPMS:0.000000=170.699997
;
#STOPS:
;
#BGCHANGES:;
#KEYSOUNDS:;
#ATTACKS:;

//---------------dance-single - ----------------
#NOTES:
     dance-single:
     :
     Hard:
     8:
     0.580567,0.623019,0.568535,0.168455,0.000000,386.000000,332.000000,54.000000,16.000000,0.000000,0.000000,0.580567,0.623019,0.568535,0.168455,0.000000,386.000000,332.000000,54.000000,16.000000,0.000000,0.000000:
// measure 0
0000
0000
0000
0000
,  // measure 1
0000
0000
0000
0000
,  // measure 2
0110
0000
0000
0000
,  // measure 3
0000
0000
0000
0000
,  // measure 4
0100
1000
0100
0000
0100
0000
1001
0000
,  // measure 5
0010
0100
0010
0000
0010
1000
0001
0100
,  // measure 6
0010
0000
0010
0000
0010
1000
0001
0000
,  // measure 7
0001
0000
0001
0000
0001
1000
0100
0001
,  // measure 8
0100
0100
0100
1001
,  // measure 9
0101
0000
0001
0010
1000
0010
0001
0010
,  // measure 10
1000
0000
1000
0010
0001
0010
1000
0010
,  // measure 11
0001
0220
0030
0001
,  // measure 12
1300
0220
0300
1000
,  // measure 13
0031
0000
1000
0100
0001
0100
1000
0100
,  // measure 14
0001
0000
0001
0100
1000
0100
0001
0100
,  // measure 15
1000
0001
0101
1001
,  // measure 16
1010
1000
1100
1001
,  // measure 17
0011
0100
1010
0110
,  // measure 18
0101
0010
0011
0110
,  // measure 19
1100
0000
0010
0100
0001
0100
0010
0100
,  // measure 20
0001
0000
0100
0010
1000
0010
0100
0010
,  // measure 21
1000
0000
0001
0000
1000
0010
0100
0000
,  // measure 22
0010
0100
0010
1000
0010
0100
0010
1000
,  // measure 23
0000
0100
1000
0100
0010
0100
1000
0100
,  // measure 24
0000
0010
0001
0010
0100
0010
0001
0000
,  // measure 25
1001
0100
0010
0100
,  // measure 26
1001
0000
0010
0100
0000
0001
1000
0000
,  // measure 27
0100
1000
0000
0001
0010
0000
0100
0020
,  // measure 28
0000
0030
0022
0000
0033
0202
0000
0303
,  // measure 29
0100
0010
1000
0100
0000
0001
0100
1000
,  // measure 30
0010
0010
0010
0010
,  // measure 31
0010
0100
1000
0100
0001
0000
0100
0000
,  // measure 32
0101
0000
1100
0000
0001
0100
1000
0100
,  // measure 33
0001
0010
0100
1000
0100
0010
0001
1000
,  // measure 34
1001
0000
0010
0000
,  // measure 35
0100
1000
0001
0000
,  // measure 36
0010
0100
0010
0000
0010
0000
1001
0000
,  // measure 37
0100
1000
0100
0000
0100
0010
0001
0000
,  // measure 38
0101
0000
0010
0100
1000
0000
0010
1000
,  // measure 39
0010
0100
0001
1000
0010
0000
1000
0010
,  // measure 40
0100
0010
0100
0000
0100
0000
1001
0000
,  // measure 41
0110
0000
0100
0001
0010
0001
0100
0001
,  // measure 42
0010
0000
0100
1000
0010
1000
0100
1000
,  // measure 43
0010
2200
3000
0010
,  // measure 44
0301
0022
0003
0100
,  // measure 45
1030
0000
0001
0010
0100
1000
0001
0010
,  // measure 46
0100
1000
0001
1000
0100
0010
0001
1000
,  // measure 47
0100
0010
0001
0000
0101
0000
1010
0000
,  // measure 48
1001
1000
1100
0011
,  // measure 49
1001
0010
0110
0101
,  // measure 50
0110
1000
0110
1010
,  // measure 51
0110
0000
0001
0100
1000
0100
0001
0100
,  // measure 52
1000
0000
1000
0100
0001
0100
1000
0100
,  // measure 53
0001
1010
0101
1010
,  // measure 54
0101
0011
1100
0011
,  // measure 55
1100
0000
0001
0100
0010
1000
0010
0100
,  // measure 56
0001
0000
1000
0010
0100
0001
0100
0010
,  // measure 57
1000
0000
0100
0001
0100
1000
0100
0001
,  // measure 58
0100
1000
0010
0001
0010
1000
0010
0001
,  // measure 59
0010
1000
0100
0010
0001
0010
0100
1000
,  // measure 60
0010
0000
0100
0000
0001
0010
0100
0000
,  // measure 61
1001
0000
0110
0000
0100
0010
0100
0000
,  // measure 62
0010
1000
0100
0000
0010
0001
0100
0000
,  // measure 63
0001
1000
2002
0000
0003
0000
0010
0000
,  // measure 64
0200
0000
0000
0000
,  // measure 65
0000
0000
0000
3300
;

//---------------dance-single - ----------------
#NOTES:
     dance-single:
     :
     Beginner:
     1:
     0.123333,0.235837,0.031585,0.042114,0.000000,82.000000,79.000000,3.000000,4.000000,0.000000,0.000000,0.123333,0.235837,0.031585,0.042114,0.000000,82.000000,79.000000,3.000000,4.000000,0.000000,0.000000:
0000
0000
0000
0000
,
0000
0000
0000
0000
,
0110
0000
0000
0000
,
0000
0000
0000
0000
,
0010
0000
0000
0000
,
0000
0000
0000
0000
,
1000
0000
0000
0000
,
0100
0000
0000
0000
,
0001
0000
0000
0000
,
0000
0100
0100
0100
,
0000
0010
0010
0010
,
0000
0100
0000
0000
,
0000
0010
0000
0000
,
0000
1000
1000
1000
,
0000
0001
0001
0001
,
0000
1000
0000
0000
,
0000
0001
0000
0000
,
0000
1000
0000
0000
,
0000
0001
0000
0000
,
0000
0200
0000
0300
,
0000
0020
0000
0030
,
0000
0000
0000
0000
,
0000
0100
0000
0000
,
0000
0000
0000
0000
,
0000
0001
0000
0000
,
0000
0000
0000
0000
,
0010
0000
0000
0000
,
0000
0000
0000
0000
,
0100
0000
0000
0000
,
0000
0000
0000
0000
,
1000
1000
1000
0000
,
0010
0000
0000
0000
,
0100
0000
0000
0000
,
0010
0000
0000
0000
,
1001
0000
0000
0000
,
0000
0000
0000
0000
,
0010
0000
0000
0000
,
0000
0000
0000
0000
,
0100
0000
0000
0000
,
0001
0000
0000
0000
,
1000
0000
0000
0000
,
0000
0001
0001
0001
,
0000
0010
0010
0010
,
0000
0001
0000
0000
,
0000
0010
0000
0000
,
0000
0100
0100
0100
,
0000
1000
1000
1000
,
0000
0100
0000
0000
,
0000
1000
0000
0000
,
0000
0100
0000
0000
,
0000
1000
0000
0000
,
0000
0020
0000
0030
,
0000
0200
0000
0300
,
0000
0001
0001
0001
,
0000
1000
1000
1000
,
0000
0001
0000
0000
,
0000
1000
0000
0000
,
0000
0010
0010
0010
,
0000
0100
0100
0100
,
0000
0010
0000
0000
,
0000
0000
0000
0000
,
0000
0000
0000
0000
,
0010
0000
0000
0000
,
0000
1001
0000
0010
,
0010
0000
0000
0000
;

//---------------dance-single - ----------------
#NOTES:
     dance-single:
     :
     Easy:
     4:
     0.309836,0.311510,0.021057,0.168455,0.000000,206.000000,204.000000,2.000000,16.000000,0.000000,0.000000,0.309836,0.311510,0.021057,0.168455,0.000000,206.000000,204.000000,2.000000,16.000000,0.000000,0.000000:
0000
0000
0000
0000
,
0000
0000
0000
0000
,
0110
0000
0000
0000
,
0000
0000
0000
0000
,
0001
1000
1000
0010
,
0100
0010
0000
1000
,
0100
0100
0100
0010
,
0001
0001
0001
0000
,
0100
0010
1000
0001
,
0010
0001
0001
0001
,
1000
0010
0010
0010
,
0100
0020
0000
1000
,
1030
0002
0000
0100
,
0103
0010
0100
0010
,
0100
0001
1000
0001
,
1000
0001
0010
0100
,
1000
1000
0100
0010
,
0001
1000
0001
1000
,
0001
0100
0010
0100
,
0010
2000
0000
0010
,
3010
0200
0000
0001
,
0301
0000
0020
0000
,
0130
1000
0100
1000
,
0000
0010
0100
0010
,
0000
0100
0001
0100
,
0002
0000
0000
0000
,
0013
0100
1000
1000
,
0010
0010
0100
0100
,
0001
1000
0001
1000
,
0001
0100
0001
1000
,
0010
0010
0010
0010
,
0100
0001
1000
0000
,
0020
1000
0030
0100
,
0020
0000
0000
0030
,
1001
0000
0000
0000
,
0000
0000
0000
0000
,
0010
0100
1000
1000
,
0010
0100
0000
0001
,
0010
0100
0010
0001
,
0100
0010
0100
0000
,
0010
1000
0100
0100
,
0000
1000
0001
1000
,
0001
0100
0010
0100
,
0010
0200
0000
0001
,
0301
2000
0000
0010
,
3010
1000
0100
1000
,
0100
0010
0001
0010
,
0001
0100
0010
1000
,
0001
0001
1000
0010
,
0100
0010
1000
0001
,
0100
0100
0001
1000
,
0010
0200
0000
0010
,
0310
2000
0000
0001
,
3001
0100
0100
0100
,
0100
0010
0010
0010
,
0010
2000
0000
0100
,
3100
0020
0000
0001
,
0031
0100
0001
0100
,
0001
1000
0010
1000
,
0010
1000
0100
0010
,
0001
1000
0000
0010
,
1000
0100
0000
0010
,
0001
0100
0000
0010
,
0100
2000
0000
0001
,
0002
0000
0000
0000
,
0000
0000
0000
3003
;

//---------------dance-single - ----------------
#NOTES:
     dance-single:
     :
     Medium:
     6:
     0.460242,0.623019,0.505364,0.315853,0.000000,306.000000,258.000000,48.000000,30.000000,0.000000,0.000000,0.460242,0.623019,0.505364,0.315853,0.000000,306.000000,258.000000,48.000000,30.000000,0.000000,0.000000:
0000
0000
0000
0000
,
0000
0000
0000
0000
,
0110
0000
0000
0000
,
0000
0000
0000
0000
,
0100
0001
0100
0000
0100
0000
0100
0000
,
0010
0000
1000
0000
0001
0000
0010
0001
,
0010
0000
0001
0000
0100
0001
0100
0000
,
0010
1000
0001
0000
0100
0010
0000
0000
,
1000
0100
1000
0000
1000
0000
1000
0000
,
0001
0100
0010
0100
,
0010
1000
0001
1000
,
0001
2200
3000
0010
,
0301
0202
0003
0010
,
1300
0000
0001
1000
0001
1000
0001
1000
,
0010
0000
1000
0001
1000
0001
1000
0001
,
0100
0010
1010
0101
,
1010
0100
1100
0011
,
1100
0001
1001
0110
,
1001
1000
0110
1001
,
0110
2020
3000
1000
,
0130
0202
0003
0010
,
1300
0000
0002
0000
,
1003
0100
1000
0100
1000
0000
0010
0000
,
0100
0001
0100
0001
0100
0000
0010
0000
,
1000
0100
1000
0100
1000
0000
0010
0000
,
0202
0000
0000
0303
,
0010
0000
0100
1000
0000
0100
1000
0000
,
0010
0100
0000
0010
0100
0000
0001
0200
,
0000
0001
0000
0001
,
0000
0000
0301
0000
0100
0000
0001
0010
,
0001
0001
0001
1001
,
1000
0100
0010
0001
0000
0000
0000
0100
,
0020
2000
0030
3001
,
0200
0320
1000
1030
,
1001
0000
0000
0000
,
0010
0100
0001
0000
,
0010
0100
0010
0000
0010
0000
1000
0000
,
0100
0000
0010
0000
0001
0000
1000
0001
,
1000
0000
0010
0100
0010
0000
0100
0000
,
0001
0000
0010
0100
0010
0000
0100
0000
,
0100
1000
0100
0000
0100
0000
1000
0000
,
0010
0100
0100
0100
,
0100
0010
0010
0010
,
0010
2200
0300
0010
,
3001
0022
0030
0100
,
1003
0000
0010
0100
0010
0100
0010
0100
,
0010
0000
1000
0001
1000
0001
1000
0001
,
1000
0001
0101
1010
,
0101
1000
1100
0011
,
1100
0010
0110
1001
,
0110
0100
1001
0110
,
1001
0220
0030
0001
,
1300
0220
0300
1000
,
0031
1100
1100
0011
,
0011
0101
0101
1010
,
1010
2002
3000
0010
,
0103
2002
0003
0100
,
3010
0000
0001
1000
0001
1000
0001
1000
,
0001
0000
0100
0010
0100
0010
0100
0010
,
0100
0010
1000
0001
,
0100
0001
1000
0010
,
0100
0000
0010
0000
1000
0100
0010
0000
,
0100
1100
0001
1001
,
0100
0020
0000
1000
,
2000
0000
0000
0000
,
0000
0000
0000
3030
;

//---------------dance-double - ----------------
#NOTES:
     dance-double:
     :
     Easy:
     4:
     0.318861,0.311510,0.031585,0.221097,0.000000,212.000000,209.000000,3.000000,21.000000,0.000000,0.000000,0.318861,0.311510,0.031585,0.221097,0.000000,212.000000,209.000000,3.000000,21.000000,0.000000,0.000000:
00000000
00000000
00000000
00000000
,
00000000
00000000
00000000
00000000
,
00011000
00000000
00000000
00000000
,
00000000
00000000
00000000
00001000
,
00010000
00001000
00000100
00001000
,
00010000
00000100
00001000
00000010
,
00000100
00000100
00000010
00000010
,
00001000
00000001
00001000
00000000
,
00000010
00001000
00000100
00010000
,
00001000
00001000
00001000
00001000
,
00001000
00100000
00100000
00100000
,
00100000
00020000
00000000
01000000
,
01030000
00200000
00000000
10000000
,
10300000
00100000
01000000
00010000
,
10000000
10000000
00010000
01000000
,
00100000
01000000
00010000
00010000
,
00010000
00100000
00001000
00001000
,
00001000
00010000
00000100
00000100
,
00000100
00001000
00000010
00000010
,
00000010
00000200
00000000
00000010
,
00000310
00002000
00000000
00000001
,
00003001
00000000
00000202
00000303
,
00000010
00000100
00001000
00000010
,
00000100
00001000
00000100
00000001
,
00000100
00001000
00010000
01000000
,
20000000
00000000
00000000
00000000
,
30100000
01000000
00010000
00100000
,
00010000
01000000
00100000
01000000
,
00020000
00100000
00000000
00100000
,
00000000
00001000
00000000
00130000
,
00010000
00010000
00010000
00010000
,
00100000
01000000
00010000
00000000
,
00002000
00003200
00000000
00001300
,
00000020
00000230
00000000
00000300
,
00001001
00000000
00000000
00000000
,
00000010
00000100
00000001
00000000
,
00000001
00000100
00000001
00000001
,
00000010
00000100
00000000
00001000
,
00000010
00000100
00000010
00001000
,
00000001
00000001
00001000
00000000
,
00000010
00000010
00001000
00000100
,
00010000
00001000
00001000
00001000
,
00001000
00100000
00100000
00100000
,
00100000
00020000
00000000
01000000
,
01030000
00200000
00000000
10000000
,
10300000
00100000
01000000
00100000
,
01000000
00010000
10000000
00010000
,
10000000
00100000
01000000
00010000
,
00100000
00001000
00010000
00000100
,
00001000
00000010
00000100
00000001
,
00001000
00000010
00001000
00000100
,
00000010
00000002
00000000
00000100
,
00000103
00002000
00000000
00000100
,
00003100
00010000
00010000
00010000
,
00010000
00001000
00001000
00001000
,
00001000
00200000
00000000
00010000
,
00310000
02000000
00000000
00100000
,
03100000
10000000
01000000
10000000
,
01000000
00100000
00010000
00100000
,
00010000
02000000
00000000
03010000
,
00100000
01000000
00000000
00100000
,
00001000
00010000
00000000
00000100
,
00001000
00000010
00000000
00000100
,
00000001
00000020
00000000
00000100
,
00000200
00000000
00000000
00000000
,
00000000
00000000
00000000
00000330
;

//---------------dance-double - ----------------
#NOTES:
     dance-double:
     :
     Hard:
     9:
     0.657274,0.623019,0.547478,0.115813,0.010528,437.000000,385.000000,52.000000,11.000000,0.000000,0.000000,0.657274,0.623019,0.547478,0.115813,0.010528,437.000000,385.000000,52.000000,11.000000,0.000000,0.000000:
00000000
00000000
00000000
00000000
,
00000000
00000000
00000000
00000000
,
00011000
00000000
00001000
00010000
00000000
00001000
00010000
00000000
,
00001000
00000000
00010000
00000000
00001000
00010000
00001100
00000000
,
00000010
00000100
00000001
00000000
00001100
00000000
00110000
00000000
,
01000000
00100000
00010000
00010000
00001000
00010000
00100000
01000000
,
00100000
00000000
01010000
00000000
00100000
10000000
00100000
00000000
,
01010000
00000000
00011000
00000000
00000010
00001000
00000100
00000010
,
00000000
00000001
00000100
00000000
00001100
00000000
00000101
00000000
,
00001001
00000000
00000001
00000100
00001000
00000100
00000001
00000100
,
00001000
00000000
00010000
01000000
10000000
01000000
00010000
01000000
,
10000000
00000000
10000000
00100000
01000000
00010000
01000000
00100000
,
01000000
00000000
00001000
00000100
00000010
00001000
00000010
00000100
,
00000010
00000000
00001000
00000001
00001000
00000001
00001000
00000001
,
00001001
00000000
00010000
10000000
00010000
10000000
00010000
10000000
,
10010000
00110000
01010000
00110000
,
00011000
00001100
00001010
00001100
,
00011000
00001010
00000101
00000110
,
00001000
01010000
10100000
01010000
,
00010000
00000000
10000000
00100000
00010000
00100000
10000000
00100000
,
00010000
00000000
00001000
00000010
00000001
00000010
00001000
00000010
,
00000001
00001000
00000100
00000000
00000220
00000000
00000000
00000330
,
00000001
00000100
00000010
00001000
00000100
00000010
00000100
00001000
,
00000000
00010000
01000000
00100000
01000000
10000000
01000000
00010000
,
00000000
10000000
01000000
00100000
00010000
01000000
10000000
00000000
,
01000000
00010000
00001000
00010000
01000000
00010000
00001000
00000000
,
00001100
00000000
00010000
00001000
00000000
00010000
00000010
00000000
,
00000100
00000001
00000000
00000010
00001000
00000000
00020000
00002000
,
00000000
00033000
00002200
00000000
00003300
00002020
00000000
00003030
,
00001000
00100000
00001000
00000000
00100000
00000000
00010000
00000000
00000000
00000000
01000000
00000000
10000000
00000000
01000000
00000000
,
00010000
00100000
00010000
01000000
00010000
00001000
00010000
01000000
,
00010000
00000000
01000000
00100000
10000000
00000000
00020000
00000000
00000000
00000000
00030000
00000000
00000000
00000000
00100000
00000000
,
00001000
00000000
00010000
00001000
00010000
00000100
00001000
00000010
,
00000100
00000001
00000010
00000100
00001000
00010000
00100000
01000000
,
10100000
00000000
00010000
00100000
11000000
00000000
00010000
00100000
,
00000000
00010000
00001000
00000000
00000100
00001000
00000100
00000010
,
00000001
00000100
00000010
00000000
00001000
00000100
00000001
00000100
,
00001000
00000100
00010000
00000000
00010000
00001000
00010000
00000000
,
00000110
00000000
00001000
00010000
00001000
00000000
00010000
00100000
,
01000000
10000000
00100000
01000000
00010000
00000000
00100000
00001000
,
00000000
00010000
00000100
00000000
00010100
00000000
00001010
00000000
,
00000110
00000000
00000001
00000010
00001000
00000010
00000001
00000010
,
00001000
00000000
00010000
00100000
10000000
00100000
00010000
00100000
,
10000000
00000000
01000000
00100000
00010000
00100000
01000000
00100000
,
00010000
00000000
00000100
00001000
00000010
00001000
00000100
00001000
,
00000010
00000000
00000001
00000010
00000001
00000010
00000100
00001000
,
00000100
00000000
00010000
00100000
00010000
00100000
01000000
10000000
,
01000000
10100000
01010000
10100000
,
00011000
00001010
00000101
00001010
,
00011000
01100000
00110000
01100000
,
00010000
00000110
00001100
00000110
,
00001000
00000000
00000001
00000100
00001000
00000100
00000001
00000100
,
00001000
00000000
00010000
01000000
10000000
01000000
00010000
01000000
,
10000000
00000000
00100000
01000000
00010000
00100000
00001000
00010000
,
00000100
00000000
00000010
00000100
00001000
00000010
00010000
00001000
,
00100000
00000000
01000000
10000000
01000000
00100000
00010000
00001000
,
00000100
00000000
00000010
00001000
00000010
00000100
00001000
00010000
,
01000000
00000000
01000000
00100000
01000000
00100000
01000000
00100000
,
00010000
00000000
00000010
00000100
00000010
00000100
00000010
00000100
,
00001000
00000000
00000001
00000010
00000100
00010000
00001000
01000000
,
00100000
00010000
00100000
10000000
01000000
00100000
00010000
00001000
,
00000100
00000010
00000100
00000001
00000100
00001000
00000010
00000100
,
00001000
00000000
00001100
00000000
00010000
00001000
00010000
00000100
,
00001000
00000000
00000100
00010000
00001000
00100000
00010000
01000000
,
02020000
00000000
00000000
00000000
,
00000000
00000000
00000000
03030000
;

//---------------dance-double - ----------------
#NOTES:
     dance-double:
     :
     Medium:
     6:
     0.397072,0.449958,0.263211,0.252682,0.000000,264.000000,239.000000,25.000000,24.000000,0.000000,0.000000,0.397072,0.449958,0.263211,0.252682,0.000000,264.000000,239.000000,25.000000,24.000000,0.000000,0.000000:
00000000
00000000
00000000
00000000
,
00000000
00000000
00000000
00000000
,
00011000
00000000
00000000
00000000
,
00000000
00000000
00000000
00100000
,
00010000
00100000
00010000
00000000
01000000
00000000
01000000
00000000
,
00100000
00000000
10000000
00000000
00100000
00000000
01000000
00010000
,
01000000
00000000
00001000
00000000
00010000
00000100
00010000
00000000
,
00000100
00000000
00001000
00000000
00000010
00001000
00000000
00000100
,
00000000
00001000
00000010
00000000
00000100
00000000
00000100
00000000
,
00001001
00000001
00000100
00000100
,
00000100
00010000
01000000
01000000
,
01000000
00002000
00000000
00010000
,
00013000
00020000
00000000
00001000
,
00031000
00000000
00000100
00010000
00000100
00000000
00010000
00001000
,
00010000
00000000
00100000
00001000
00100000
00000000
00001000
00010000
,
00001000
00010000
00010000
00001100
,
00010000
00001000
00001000
00110000
,
00001000
00010000
00010000
00001010
,
00010000
00001000
00001000
01010000
,
00001000
00020000
00000000
00000100
,
00030100
00002000
00000000
00000010
,
00003010
00000000
00000202
00000303
,
00000001
00000000
00000010
00000100
00000010
00000000
00000010
00000100
,
00000000
00000000
00001000
00000100
00001000
00000000
00001000
00000100
,
00000000
00010000
00001000
00011000
,
00200000
00000000
00000000
00000000
,
01300000
00000000
01000000
10000000
00000000
10000000
00100000
00000000
,
00100000
01000000
00000000
01000000
00010000
00000000
00010000
00200000
,
00000000
00000000
02000000
00000000
03300000
11000000
00000000
00000000
,
10000000
01000000
00100000
00010000
00000000
00000000
00001000
00000000
,
00000100
00000010
00000001
00000001
,
00000100
00000010
00000100
00000010
00000000
00000000
00000000
00000000
,
00000200
00000000
00000020
00000000
00000300
00000000
00000130
00000010
,
00002000
00000000
00003000
00000000
,
00011000
00000000
00010000
00000000
,
00100000
00000000
01000000
00000000
10000000
00000000
00000000
00100000
,
00000000
00100000
01000000
00000000
00010000
00000000
00110000
00000000
,
00100000
01000000
00100000
01000000
,
00011000
00000000
00000100
00001000
00000100
00000000
00001000
00000000
,
00000010
00000000
00000100
00000000
00000001
00000000
00000000
00000010
,
00000000
00000010
00000100
00000000
00001000
00000000
00000001
00000000
,
00001000
00000100
00000100
00000100
,
00011000
01000000
01000000
01000000
,
00011000
00000020
00000000
00001030
,
00011000
00200000
00000000
00301000
,
00011000
00000010
00000100
00000010
,
00011000
00100000
01000000
00100000
,
00011000
00000010
00000010
00000010
,
00011000
00100000
00100000
00100000
,
00011000
00000100
00000100
00000100
,
00011000
01000000
01000000
01000000
,
00011000
00000200
00000000
00010300
,
00011000
02000000
00000000
03001000
,
00011000
00000100
00001000
00000010
,
00000100
00000010
00001000
00000100
,
00010000
00002000
00000000
00100000
,
00103000
00020000
00000000
01000000
,
01030000
00000000
00100000
10000000
00100000
10000000
00100000
00000000
,
00100000
00000000
01000000
00010000
01000000
00010000
01000000
00000000
,
01000000
00020000
00000000
00130000
,
00001000
00000000
00010000
00000000
00000100
00001000
00000010
00000000
,
00000100
00000000
00000001
00000000
00000010
00000100
00001000
00000000
,
00000200
00001300
00000000
00010000
,
00002000
00203000
00000000
01300000
,
22000000
00000000
00000000
00000000
,
00000000
00000000
00000000
33000000
;
